<?xml version="1.0" standalone="no"?>
<!DOCTYPE svg PUBLIC "-//W3C//DTD SVG 1.1//EN" "http://www.w3.org/Graphics/SVG/1.1/DTD/svg11.dtd" >
<svg xmlns="http://www.w3.org/2000/svg" xmlns:xlink="http://www.w3.org/1999/xlink" version="1.1">
<metadata>
Created by FontForge 20170731 at Thu Dec 15 23:03:29 2016
 By Aleksey,,,
Copyright (c) 2008-2016 by Eduardo Manso. All rights reserved.
</metadata>
<defs>
<font id="Geogrotesque-SmBdIt" horiz-adv-x="340" >
  <font-face 
    font-family="Geogrotesque SemiBold"
    font-weight="600"
    font-style="italic"
    font-stretch="normal"
    units-per-em="1000"
    panose-1="0 0 0 0 0 0 0 0 0 0"
    ascent="750"
    descent="-250"
    x-height="498"
    cap-height="680"
    bbox="-202.5 -260.087 1416 964"
    underline-thickness="89"
    underline-position="-301"
    slope="-7"
    unicode-range="U+0020-FF19"
  />
<missing-glyph horiz-adv-x="847" 
d="M709 94q-104 -102 -249 -102q-144 0 -246 102q-103 101 -103 247q0 144 103 247q102 102 246 102q147 0 249 -102q103 -103 103 -247t-103 -247zM697 106q99 99 99 235t-99 235q-98 98 -237 98q-136 0 -234 -98q-99 -99 -99 -235q0 -137 99 -235q98 -98 234 -98
q139 0 237 98zM561 168l-100 100l-100 -100q-17 -18 -35 0l-41 42q-16 18 0 34l100 100l-99 100q-17 19 -2 34l41 42q17 19 36 0l100 -101l100 100q19 19 35 2l42 -41q18 -18 -1 -36l-100 -100l100 -101q17 -17 0 -35l-42 -41q-17 -17 -34 1z" />
    <glyph glyph-name="fi" unicode="fi" horiz-adv-x="591" 
d="M555 472l-54 -446q-3 -26 -27 -26h-84q-24 0 -21 26l46 366h-176l-71 -568q-2 -14 -7.5 -19.5t-18.5 -5.5h-83q-25 0 -22 25l71 568h-54q-24 0 -21 25l5 50q1 13 7 17.5t21 6.5l50 5h4l7 55q18 148 224 148h201q25 0 22 -25l-7 -58q-3 -25 -28 -25h-193q-82 0 -89 -54
l-6 -41h282q14 0 18.5 -5.5t3.5 -18.5z" />
    <glyph glyph-name="fl" unicode="fl" horiz-adv-x="591" 
d="M580 674l-79 -648q-3 -26 -27 -26h-84q-24 0 -21 26l70 565h-93q-82 0 -89 -54l-6 -41h83q26 0 23 -23l-7 -56q-3 -25 -28 -25h-83l-71 -568q-2 -14 -7.5 -19.5t-18.5 -5.5h-83q-25 0 -22 25l71 568h-54q-24 0 -21 25l5 50q1 13 7 17.5t21 6.5l50 5h4l7 55
q18 148 224 148h207q25 0 22 -25z" />
    <glyph glyph-name=".notdef" horiz-adv-x="847" 
d="M709 94q-104 -102 -249 -102q-144 0 -246 102q-103 101 -103 247q0 144 103 247q102 102 246 102q147 0 249 -102q103 -103 103 -247t-103 -247zM697 106q99 99 99 235t-99 235q-98 98 -237 98q-136 0 -234 -98q-99 -99 -99 -235q0 -137 99 -235q98 -98 234 -98
q139 0 237 98zM561 168l-100 100l-100 -100q-17 -18 -35 0l-41 42q-16 18 0 34l100 100l-99 100q-17 19 -2 34l41 42q17 19 36 0l100 -101l100 100q19 19 35 2l42 -41q18 -18 -1 -36l-100 -100l100 -101q17 -17 0 -35l-42 -41q-17 -17 -34 1z" />
    <glyph glyph-name=".null" horiz-adv-x="0" 
 />
    <glyph glyph-name="nonmarkingreturn" horiz-adv-x="333" 
 />
    <glyph glyph-name="space" unicode=" " horiz-adv-x="194" 
 />
    <glyph glyph-name="exclam" unicode="!" horiz-adv-x="258" 
d="M210 390l-36 -183q-3 -14 -9 -19.5t-19 -5.5h-61q-13 0 -17.5 5.5t-3.5 19.5l9 183l32 264q3 26 28 26h88q23 0 20 -26zM172 106l-10 -81q-2 -14 -7.5 -19.5t-18.5 -5.5h-87q-25 0 -22 25l10 81q3 25 28 25h87q13 0 17.5 -5.5t2.5 -19.5z" />
    <glyph glyph-name="quotedbl" unicode="&#x22;" horiz-adv-x="399" 
d="M217 654l-30 -163q-4 -25 -27 -25h-59q-13 0 -17.5 5.5t-3.5 19.5l9 163q1 26 27 26h81q24 0 20 -26zM396 654l-31 -163q-4 -25 -26 -25h-59q-13 0 -18 5.5t-4 19.5l10 163q1 26 27 26h81q24 0 20 -26z" />
    <glyph glyph-name="numbersign" unicode="#" horiz-adv-x="615" 
d="M215 26q-3 -26 -25 -26h-58q-26 0 -23 26l21 159h-64q-25 0 -25 24v44q0 23 25 23h76l16 129h-64q-25 0 -25 24v44q0 23 25 23h76l21 158q3 26 26 26h57q26 0 23 -26l-21 -158h115l20 158q3 26 26 26h58q25 0 22 -26l-21 -158h65q25 0 25 -23v-44q0 -24 -25 -24h-77
l-16 -129h64q25 0 25 -23v-44q0 -24 -25 -24h-76l-21 -159q-3 -26 -25 -26h-58q-25 0 -22 26l21 159h-115zM248 276h114l17 129h-115z" />
    <glyph glyph-name="dollar" unicode="$" horiz-adv-x="488" 
d="M253 0h-83q-25 0 -22 26l8 62q-63 11 -94.5 40.5t-31.5 67.5q0 6 1 16l2 23q1 23 26 23h75q22 0 19 -23l-1 -8q-1 -7 -1 -16q0 -35 75 -35q82 0 87 40l2 15q4 28 -40 43l-137 50q-35 13 -53.5 42t-13.5 71l4 33q13 105 144 123l7 61q3 26 28 26h83q23 0 20 -26l-8 -65
q54 -12 81.5 -42.5t27.5 -68.5q0 -5 -1 -16l-2 -17q-3 -23 -26 -23h-74q-21 0 -20 23l1 12q1 9 1 14q0 34 -67 34q-73 0 -77 -38l-1 -9q-2 -20 3.5 -28.5t21.5 -14.5l139 -48q83 -29 83 -93q0 -8 -1 -16l-6 -53q-5 -43 -40 -74.5t-105 -42.5l-7 -62q-3 -26 -27 -26z" />
    <glyph glyph-name="percent" unicode="%" horiz-adv-x="802" 
d="M664 662l-407 -644q-16 -26 -38 -26h-65q-11 0 -13 9t4 17l406 644q17 26 40 26h65q11 0 13 -8t-5 -18zM356 578l-19 -156q-12 -99 -147 -99q-68 0 -103.5 26t-35.5 62q0 13 1 20l18 154q12 99 152 99q66 0 100.5 -26t34.5 -64q0 -7 -1 -16zM152 446q-1 -10 -1 -15
q0 -29 42 -29q17 0 30.5 9t15.5 27l16 124q1 10 1 13q0 30 -39 30q-24 0 -35.5 -8t-13.5 -27zM762 251l-19 -156q-12 -99 -147 -99q-68 0 -103.5 26t-35.5 62q0 13 1 20l18 154q12 99 152 99q66 0 100.5 -26t34.5 -64q0 -7 -1 -16zM558 119q-1 -10 -1 -15q0 -29 42 -29
q17 0 30.5 9t15.5 27l16 124q1 10 1 13q0 30 -39 30q-24 0 -35.5 -8t-13.5 -27z" />
    <glyph glyph-name="ampersand" unicode="&#x26;" horiz-adv-x="677" 
d="M553 155q-19 -163 -276 -163q-129 0 -186 39t-57 102q0 15 1 24l11 83q5 43 27.5 70t70.5 44q-64 22 -64 84q0 9 1 20l9 71q5 34 17 60.5t37.5 50t72 36t111.5 12.5q107 0 159 -38t52 -102q0 -8 -1 -19l-3 -36q-1 -25 -27 -25h-84q-24 0 -21 25l2 16q1 10 1 14
q0 57 -87 57q-91 0 -99 -74l-3 -28q-1 -10 -1 -17q0 -57 89 -57h337q25 0 22 -24l-7 -59q-3 -25 -28 -25h-59zM289 100q126 0 135 74l15 122h-156q-53 0 -77.5 -17.5t-29.5 -55.5l-6 -48q-1 -8 -1 -15q0 -60 120 -60z" />
    <glyph glyph-name="quotesingle" unicode="'" horiz-adv-x="220" 
d="M217 654l-30 -163q-4 -25 -27 -25h-59q-13 0 -17.5 5.5t-3.5 19.5l9 163q1 26 27 26h81q24 0 20 -26z" />
    <glyph glyph-name="parenleft" unicode="(" horiz-adv-x="331" 
d="M15 -61l76 621q10 80 58.5 114t157.5 34h26q25 0 22 -25l-7 -58q-3 -25 -29 -25h-9q-78 0 -85 -54l-74 -601q-1 -8 -1 -11q0 -44 73 -44h10q26 0 22 -25l-8 -58q-3 -25 -27 -25h-8q-95 0 -147 36.5t-52 99.5q0 7 2 21z" />
    <glyph glyph-name="parenright" unicode=")" horiz-adv-x="332" 
d="M305 551l-76 -621q-10 -80 -58.5 -114t-157.5 -34h-25q-26 0 -23 25l7 58q3 25 29 25h9q79 0 86 54l73 600q1 9 1 12q0 44 -73 44h-10q-23 0 -21 25l7 58q3 25 28 25h7q95 0 147 -36.5t52 -100.5q0 -6 -2 -20z" />
    <glyph glyph-name="asterisk" unicode="*" horiz-adv-x="490" 
d="M203 312l23 121l-115 -70q-23 -14 -32 9l-16 40q-9 22 15 33l110 48l-97 49q-22 11 -8 33l24 37q14 23 35 9l99 -69l7 131q1 25 28 25h45q26 0 20 -25l-25 -127l109 66q22 13 32 -8l18 -39q10 -22 -14 -33l-112 -50l99 -48q21 -10 7 -33l-24 -39q-14 -23 -35 -8l-95 65
l-6 -117q-1 -26 -27 -26h-44q-25 0 -21 26z" />
    <glyph glyph-name="plus" unicode="+" horiz-adv-x="509" 
d="M206 143v141h-141q-26 0 -26 25v59q0 24 26 24h141v142q0 26 23 26h59q25 0 25 -26v-142h143q25 0 25 -24v-59q0 -25 -25 -25h-143v-141q0 -25 -25 -25h-59q-23 0 -23 25z" />
    <glyph glyph-name="comma" unicode="," horiz-adv-x="251" 
d="M35 39l8 67q3 25 28 25h85q24 0 21 -25l-10 -74q-15 -115 -162 -148q-24 -6 -29 16l-13 56q-5 22 21 31t37.5 21t13.5 31z" />
    <glyph glyph-name="hyphen" unicode="-" horiz-adv-x="436" 
d="M84 342h267q25 0 25 -24v-59q0 -24 -25 -24h-267q-26 0 -26 24v59q0 24 26 24z" />
    <glyph glyph-name="period" unicode="." horiz-adv-x="236" 
d="M163 106l-10 -81q-3 -25 -27 -25h-85q-24 0 -21 25l9 81q3 25 28 25h86q23 0 20 -25z" />
    <glyph glyph-name="slash" unicode="/" horiz-adv-x="389" 
d="M412 673l-297 -795q-10 -26 -33 -26h-93q-24 0 -15 26l296 795q9 26 31 26h94q26 0 17 -26z" />
    <glyph glyph-name="zero" unicode="0" horiz-adv-x="582" 
d="M42 162l44 363q9 72 66.5 117.5t180.5 45.5q111 0 165.5 -41t54.5 -103q0 -6 -2 -26l-43 -363q-9 -72 -67 -117.5t-181 -45.5q-112 0 -166 40.5t-54 103.5q0 10 2 26zM375 179l39 316q2 16 2 19q0 62 -90 62q-98 0 -107 -75l-39 -310q-3 -24 -3 -25q0 -62 92 -62
q97 0 106 75z" />
    <glyph glyph-name="one" unicode="1" horiz-adv-x="514" 
d="M113 642l251 45q11 2 17 -3t4 -21l-68 -551h132q25 0 22 -24l-8 -63q-3 -25 -28 -25h-402q-25 0 -22 25l8 63q3 24 28 24h135l55 443l-138 -25q-12 -2 -18 3t-5 18l8 64q3 22 29 27z" />
    <glyph glyph-name="two" unicode="2" horiz-adv-x="560" 
d="M174 112h290q26 0 23 -24l-8 -63q-3 -25 -28 -25h-401q-24 0 -21 25l20 163q6 53 31.5 79.5t70.5 43.5l194 71q39 14 46 58l9 58q2 15 2 21q0 59 -91 59q-93 0 -105 -75l-6 -39q-2 -14 -7.5 -19.5t-18.5 -5.5h-83q-25 0 -22 25l8 61q21 163 243 163q110 0 163.5 -40.5
t53.5 -103.5q0 -8 -2 -26l-9 -78q-13 -117 -113 -153l-178 -64q-28 -10 -38.5 -20.5t-14.5 -34.5z" />
    <glyph glyph-name="three" unicode="3" horiz-adv-x="560" 
d="M213 404h68q100 0 107 74l3 28q1 9 1 15q0 59 -85 59q-94 0 -100 -74l-1 -13q-1 -25 -28 -25h-83q-24 0 -21 25l4 32q9 74 62.5 118.5t179.5 44.5q110 0 159.5 -39t49.5 -101q0 -10 -2 -28l-9 -65q-5 -40 -25 -63.5t-62 -37.5q71 -28 71 -97q0 -9 -2 -27l-11 -81
q-9 -72 -63.5 -114.5t-180.5 -42.5q-113 0 -165.5 40t-52.5 103q0 12 1 20l4 32q3 25 27 25h83q23 0 21 -25l-1 -13q-1 -8 -1 -16q0 -58 93 -58q97 0 106 74l6 49q1 11 1 16q0 57 -90 57h-77q-25 0 -22 25l7 59q3 24 28 24z" />
    <glyph glyph-name="four" unicode="4" horiz-adv-x="559" 
d="M327 654l-154 -357h187l44 357q3 26 28 26h87q23 0 20 -26l-77 -628q-3 -26 -26 -26h-87q-25 0 -22 26l20 159h-305q-25 0 -22 24l7 58q2 15 11 35l153 352q11 26 34 26h87q26 0 15 -26z" />
    <glyph glyph-name="five" unicode="5" horiz-adv-x="551" 
d="M139 680h366q26 0 23 -24l-8 -63q-3 -25 -28 -25h-254l-16 -131h67q108 0 161 -39.5t53 -102.5q0 -4 -2 -26l-14 -115q-19 -163 -247 -163q-113 0 -164.5 40t-51.5 103q0 12 1 20l4 32q3 25 27 25h83q24 0 21 -25l-1 -11q-1 -10 -1 -16q0 -60 92 -60q95 0 104 75l9 70
q2 16 2 25q0 60 -89 60h-179q-23 0 -20 26l36 299q3 26 26 26z" />
    <glyph glyph-name="six" unicode="6" horiz-adv-x="562" 
d="M42 155l45 371q20 162 239 162q108 0 158.5 -40t50.5 -100q0 -14 -1 -22l-4 -26q-4 -25 -27 -25h-83q-24 0 -21 25l1 7q1 8 1 15q0 58 -84 58q-90 0 -99 -73l-16 -122q50 31 116 31q94 0 142 -41t48 -102q0 -10 -2 -28l-10 -90q-17 -163 -242 -163q-110 0 -161.5 39.5
t-51.5 102.5q0 11 1 21zM364 175l7 58q1 8 1 15q0 59 -87 59q-92 0 -100 -68l-7 -58q-1 -9 -1 -22q0 -59 86 -59q92 0 101 75z" />
    <glyph glyph-name="seven" unicode="7" horiz-adv-x="528" 
d="M94 680h434q26 0 23 -24l-8 -62q-1 -9 -9 -25l-309 -543q-15 -26 -33 -26h-101q-29 0 -15 26l309 542h-304q-26 0 -23 25l8 63q3 24 28 24z" />
    <glyph glyph-name="eight" unicode="8" horiz-adv-x="556" 
d="M84 465l7 60q4 35 15.5 61.5t35.5 51t69 37.5t109 13q108 0 155.5 -39t47.5 -102q0 -12 -1 -22l-8 -66q-5 -41 -26 -65.5t-63 -40.5q75 -28 75 -94q0 -6 -2 -20l-10 -84q-19 -163 -240 -163q-110 0 -161.5 40t-51.5 104q0 9 1 19l10 91q8 76 98 107q-62 26 -62 90
q0 4 2 22zM385 480l4 25q1 8 1 17q0 58 -79 58q-46 0 -66 -18t-25 -57l-3 -25q-1 -9 -1 -16q0 -31 17.5 -45t57.5 -14q46 0 67 18t27 57zM357 175l6 44q2 16 2 20q0 59 -87 59q-48 0 -72 -17.5t-29 -55.5l-6 -50q-1 -10 -1 -16q0 -59 86 -59q48 0 72 18.5t29 56.5z" />
    <glyph glyph-name="nine" unicode="9" horiz-adv-x="563" 
d="M532 525l-44 -371q-20 -162 -238 -162q-108 0 -159.5 40t-51.5 100q0 13 1 22l4 26q4 25 27 25h83q24 0 21 -25l-1 -7q-1 -8 -1 -15q0 -58 84 -58q90 0 99 73l16 122q-50 -31 -116 -31q-94 0 -142 41t-48 102q0 10 2 28l11 90q19 163 240 163q110 0 162.5 -40.5
t52.5 -102.5q0 -4 -2 -20zM210 505l-7 -58q-1 -8 -1 -14q0 -60 87 -60q92 0 100 68l7 58q2 18 2 21q0 60 -86 60q-93 0 -102 -75z" />
    <glyph glyph-name="colon" unicode=":" horiz-adv-x="250" 
d="M214 473l-10 -82q-3 -25 -27 -25h-85q-24 0 -21 25l10 82q3 25 27 25h86q13 0 17.5 -5.5t2.5 -19.5zM169 106l-10 -81q-3 -25 -27 -25h-85q-24 0 -21 25l9 81q3 25 28 25h86q23 0 20 -25z" />
    <glyph glyph-name="semicolon" unicode=";" horiz-adv-x="272" 
d="M230 473l-9 -82q-3 -25 -27 -25h-86q-24 0 -21 25l10 82q3 25 28 25h85q13 0 17.5 -5.5t2.5 -19.5zM43 39l9 67q3 25 27 25h86q13 0 17.5 -5.5t2.5 -19.5l-9 -74q-7 -60 -47 -95.5t-115 -52.5q-24 -6 -29 16l-13 56q-5 22 20 31q47 15 51 52z" />
    <glyph glyph-name="less" unicode="&#x3c;" horiz-adv-x="506" 
d="M421 435l-252 -97l252 -95q14 -5 19.5 -10.5t5.5 -17.5v-79q0 -14 -7 -21.5t-18 -2.5l-356 153q-7 3 -9.5 4.5t-6.5 5t-5.5 8t-1.5 10.5v92q0 6 1 10.5t6 8t6.5 4t9.5 4.5l356 154q11 5 18 -2.5t7 -21.5v-79q0 -12 -5.5 -17.5t-19.5 -10.5z" />
    <glyph glyph-name="equal" unicode="=" horiz-adv-x="607" 
d="M99 478h412q25 0 25 -24v-60q0 -24 -25 -24h-412q-25 0 -25 24v60q0 24 25 24zM99 273h412q25 0 25 -23v-60q0 -25 -25 -25h-412q-25 0 -25 25v60q0 23 25 23z" />
    <glyph glyph-name="greater" unicode="&#x3e;" horiz-adv-x="504" 
d="M346 338l-252 96q-25 10 -25 28v80q0 15 6.5 22.5t18.5 2.5l357 -154q22 -9 22 -27v-94q0 -18 -22 -27l-357 -154q-12 -5 -18.5 2.5t-6.5 21.5v81q0 9 3.5 14.5t8 7.5l13.5 6z" />
    <glyph glyph-name="question" unicode="?" horiz-adv-x="525" 
d="M155 206l9 69q3 26 16 45t25 27t33 18l98 47q38 18 45 61l4 24q2 14 2 24q0 57 -92 57q-95 0 -107 -75l-6 -39q-2 -14 -7.5 -19.5t-18.5 -5.5h-83q-26 0 -22 25l8 61q21 163 246 163q110 0 163.5 -42.5t53.5 -104.5q0 -9 -1 -22l-5 -47q-7 -64 -37.5 -97t-74.5 -52
l-60 -26q-24 -10 -34.5 -21.5t-14.5 -34.5l-5 -35q-2 -14 -7.5 -19t-18.5 -5h-87q-25 0 -22 24zM278 106l-9 -81q-3 -25 -27 -25h-87q-12 0 -17 5t-4 20l9 81q3 25 28 25h87q23 0 20 -25z" />
    <glyph glyph-name="at" unicode="@" horiz-adv-x="925" 
d="M583 -150h-170q-114 0 -193 15.5t-119.5 44.5t-57 61t-16.5 73q0 9 3 36l42 347q4 38 15 66.5t40 60t74 52t122 33.5t180 13q92 0 161 -10.5t111 -28.5t68.5 -43.5t36 -52.5t9.5 -59q0 -11 -2 -33l-29 -232q-19 -160 -202 -160q-114 0 -144 62q-76 -62 -161 -62
q-56 0 -85.5 27t-29.5 75q0 22 5 44l28 133q30 146 156 146q68 0 133 -49l5 16q7 25 29 25h73q25 0 20 -25l-48 -206q-7 -29 -7 -48q0 -43 42 -43q30 0 43 21.5t18 61.5l26 209q1 10 1 20q0 35 -21.5 57t-81.5 35.5t-163 13.5q-112 0 -177.5 -16t-89.5 -41.5t-29 -67.5
l-41 -336q-1 -8 -1 -22q0 -54 57.5 -80.5t208.5 -26.5h175q24 0 21 -25l-6 -56q-3 -25 -29 -25zM391 286l-17 -79q-3 -15 -3 -24q0 -32 46 -32q39 0 85 26q0 4 1 8l28 125q-38 33 -75 33q-52 0 -65 -57z" />
    <glyph glyph-name="A" unicode="A" horiz-adv-x="554" 
d="M280 680h88q24 0 28 -25l110 -630q5 -25 -21 -25h-89q-22 0 -27 25l-19 122h-186l-51 -122q-11 -25 -32 -25h-83q-26 0 -15 25l263 630q10 25 34 25zM333 254l-18 111q-10 63 -8 183q-32 -132 -53 -182l-47 -112h126z" />
    <glyph glyph-name="B" unicode="B" horiz-adv-x="593" 
d="M277 0h-218q-26 0 -22 26l77 628q3 26 28 26h179q115 0 171.5 -38t56.5 -100q0 -6 -2 -24l-7 -51q-6 -41 -26.5 -67t-61.5 -43q44 -16 68.5 -46.5t24.5 -66.5q0 -10 -1 -20l-9 -71q-20 -153 -258 -153zM314 572h-74l-22 -174h75q108 0 115 71l3 29q1 10 1 17q0 57 -98 57
zM311 296h-106l-22 -188h103q110 0 118 69l5 39q1 10 1 16q0 64 -99 64z" />
    <glyph glyph-name="C" unicode="C" horiz-adv-x="569" 
d="M519 217l-7 -62q-17 -163 -251 -163q-114 0 -167 40.5t-53 103.5q0 6 2 26l44 363q19 163 251 163q114 0 167 -40t53 -103q0 -6 -2 -26l-5 -42q-3 -25 -26 -25h-84q-24 0 -21 25l3 19q1 9 1 19q0 61 -94 61q-101 0 -110 -75l-39 -315q-2 -18 -2 -21q0 -61 94 -61
q103 0 111 75l4 38q3 25 28 25h83q23 0 20 -25z" />
    <glyph glyph-name="D" unicode="D" horiz-adv-x="615" 
d="M285 0h-229q-22 0 -19 26l77 628q3 26 28 26h212q117 0 174 -42t57 -105q0 -8 -3 -29l-41 -341q-19 -163 -256 -163zM347 568h-107l-57 -456h109q107 0 116 75l36 295q2 14 2 23q0 63 -99 63z" />
    <glyph glyph-name="E" unicode="E" horiz-adv-x="511" 
d="M411 0h-352q-25 0 -22 26l77 628q3 26 28 26h342q25 0 22 -24l-8 -63q-3 -25 -27 -25h-231l-20 -162h214q14 0 18.5 -5.5t3.5 -18.5l-8 -60q-3 -24 -27 -24h-215l-23 -186h241q26 0 23 -24l-8 -63q-3 -25 -28 -25z" />
    <glyph glyph-name="F" unicode="F" horiz-adv-x="521" 
d="M141 680h366q26 0 23 -24l-8 -63q-3 -25 -28 -25h-255l-20 -162h238q25 0 22 -24l-8 -64q-3 -25 -28 -25h-238l-33 -267q-3 -26 -27 -26h-87q-25 0 -22 26l78 628q3 26 27 26z" />
    <glyph glyph-name="G" unicode="G" horiz-adv-x="583" 
d="M307 357h204q26 0 23 -24l-22 -178q-19 -163 -251 -163q-114 0 -167 40.5t-53 103.5q0 8 2 26l44 363q19 163 251 163q114 0 167 -40.5t53 -104.5q0 -6 -2 -26l-3 -32q-3 -25 -28 -25h-83q-24 0 -21 25l2 16q1 8 1 17q0 58 -92 58q-103 0 -112 -75l-39 -316
q-2 -16 -2 -20q0 -61 93 -61q102 0 111 74l8 67h-98q-25 0 -22 24l8 64q3 24 28 24z" />
    <glyph glyph-name="H" unicode="H" horiz-adv-x="625" 
d="M249 654l-30 -249h215l31 249q3 26 28 26h87q23 0 20 -26l-78 -628q-3 -26 -25 -26h-87q-25 0 -22 26l33 267h-216l-33 -267q-3 -26 -27 -26h-87q-25 0 -22 26l78 628q3 26 27 26h87q24 0 21 -26z" />
    <glyph glyph-name="I" unicode="I" horiz-adv-x="275" 
d="M249 654l-77 -628q-3 -26 -26 -26h-87q-25 0 -22 26l77 628q3 26 28 26h87q23 0 20 -26z" />
    <glyph glyph-name="J" unicode="J" horiz-adv-x="516" 
d="M138 215l-4 -32q-1 -9 -1 -21q0 -58 79 -58q43 0 62.5 18t24.5 57l60 475q3 26 27 26h87q24 0 21 -26l-62 -499q-9 -74 -59 -118.5t-169 -44.5q-106 0 -156.5 40t-50.5 103q0 12 2 28l7 52q3 25 28 25h84q23 0 20 -25z" />
    <glyph glyph-name="K" unicode="K" horiz-adv-x="578" 
d="M342 346l195 -321q6 -9 2 -17t-16 -8h-113q-18 0 -33 25l-155 262h-18l-32 -262q-3 -25 -26 -25h-87q-25 0 -22 25l77 630q3 25 28 25h87q23 0 20 -25l-32 -269h12l210 269q20 25 43 25h98q13 0 15 -7t-7 -18z" />
    <glyph glyph-name="L" unicode="L" horiz-adv-x="463" 
d="M249 654l-66 -542h223q25 0 22 -24l-8 -63q-3 -25 -28 -25h-336q-22 0 -19 26l77 628q3 26 28 26h87q23 0 20 -26z" />
    <glyph glyph-name="M" unicode="M" horiz-adv-x="746" 
d="M721 655l-78 -630q-3 -25 -25 -25h-84q-25 0 -22 25l47 381q-28 -72 -39 -92l-99 -185q-14 -26 -36 -26h-67q-25 0 -33 26l-60 200q-10 36 -15 75l-47 -379q-3 -25 -25 -25h-80q-25 0 -22 25l78 630q3 25 27 25h78q16 0 21 -14l109 -348q12 -39 18 -71q14 34 33 69
l191 352q6 12 25 12h85q23 0 20 -25z" />
    <glyph glyph-name="N" unicode="N" horiz-adv-x="623" 
d="M597 655l-77 -630q-3 -25 -26 -25h-76q-17 0 -23 12l-152 331q-18 37 -30 82l-50 -400q-3 -25 -25 -25h-80q-25 0 -22 25l78 630q3 25 27 25h76q16 0 21 -10l159 -345q19 -41 25 -70l48 400q3 25 28 25h79q23 0 20 -25z" />
    <glyph glyph-name="O" unicode="O" horiz-adv-x="605" 
d="M43 162l44 363q9 72 70 117.5t189 45.5q115 0 171.5 -41.5t56.5 -103.5q0 -14 -1 -25l-44 -363q-8 -71 -70 -117t-190 -46q-115 0 -171.5 41t-56.5 104q0 7 2 25zM395 179l40 315q2 16 2 19q0 63 -101 63q-49 0 -80.5 -19.5t-35.5 -55.5l-39 -315q-2 -16 -2 -19
q0 -63 101 -63q106 0 115 75z" />
    <glyph glyph-name="P" unicode="P" horiz-adv-x="580" 
d="M302 241h-104l-26 -215q-3 -26 -27 -26h-87q-25 0 -22 26l78 628q3 26 27 26h206q116 0 171 -43t55 -109q0 -12 -2 -29l-11 -100q-8 -76 -67 -117t-191 -41zM341 568h-102l-26 -215h99q107 0 117 69l8 59q1 11 1 19q0 34 -22.5 51t-74.5 17z" />
    <glyph glyph-name="Q" unicode="Q" horiz-adv-x="605" 
d="M415 -174q-19 -18 -35 -2l-164 171q-88 9 -131.5 48t-43.5 94q0 5 2 25l44 363q9 72 70 117.5t189 45.5q115 0 171.5 -41.5t56.5 -103.5q0 -15 -1 -25l-44 -363q-15 -121 -157 -153l94 -94q17 -17 -1 -35zM395 179l40 315q2 16 2 19q0 63 -101 63q-49 0 -80.5 -19.5
t-35.5 -55.5l-39 -315q-2 -16 -2 -19q0 -63 101 -63q106 0 115 75z" />
    <glyph glyph-name="R" unicode="R" horiz-adv-x="594" 
d="M146 0h-87q-26 0 -22 26l77 628q3 26 28 26h203q116 0 172.5 -43t56.5 -110q0 -8 -2 -24l-9 -86q-11 -106 -127 -141l76 -250q4 -11 -4.5 -18.5t-21.5 -7.5h-90q-19 0 -26 26l-69 233h-100l-29 -233q-3 -26 -26 -26zM341 568h-101l-25 -197h99q110 0 118 70l5 41
q1 12 1 18q0 68 -97 68z" />
    <glyph glyph-name="S" unicode="S" horiz-adv-x="566" 
d="M405 484l2 21q1 10 1 14q0 61 -90 61q-95 0 -105 -73l-2 -15q-1 -8 -1 -12q0 -29 35 -41l165 -62q103 -39 103 -130q0 -6 -2 -24l-7 -68q-8 -72 -67.5 -117.5t-186.5 -45.5q-115 0 -169.5 41t-54.5 104q0 11 1 25l6 56q3 26 28 26h84q23 0 20 -26l-5 -38q-1 -8 -1 -19
q0 -61 99 -61q104 0 114 73l5 34q2 14 -3.5 25t-19.5 20.5t-24 14t-29 12.5l-140 55q-38 15 -61.5 46t-23.5 71q0 4 2 24l6 50q19 163 242 163q113 0 165 -40.5t52 -102.5q0 -9 -1 -20l-5 -41q-3 -25 -27 -25h-84q-24 0 -21 25z" />
    <glyph glyph-name="T" unicode="T" horiz-adv-x="494" 
d="M85 680h419q26 0 23 -24l-8 -63q-3 -25 -28 -25h-142l-67 -542q-3 -26 -26 -26h-88q-25 0 -22 26l68 542h-142q-26 0 -23 25l8 63q3 24 28 24z" />
    <glyph glyph-name="U" unicode="U" horiz-adv-x="619" 
d="M245 654l-56 -456q-3 -22 -3 -30q0 -64 100 -64q107 0 116 75l60 475q3 26 26 26h87q25 0 22 -26l-62 -499q-19 -163 -257 -163q-114 0 -172 42t-58 105q0 12 2 28l61 487q3 26 26 26h87q24 0 21 -26z" />
    <glyph glyph-name="V" unicode="V" horiz-adv-x="555" 
d="M198 0q-24 0 -28 25l-110 630q-5 25 22 25h94q21 0 26 -25l55 -340q8 -52 6 -145q26 99 44 144l140 341q9 25 32 25h89q26 0 15 -25l-264 -630q-10 -25 -33 -25h-88z" />
    <glyph glyph-name="W" unicode="W" horiz-adv-x="848" 
d="M543 655l43 -340q5 -45 5 -100q9 44 29 99l127 341q9 25 33 25h77q24 0 15 -25l-236 -630q-9 -25 -33 -25h-85q-23 0 -26 25l-44 349q-5 33 -3 92q-13 -58 -26 -93l-131 -348q-9 -25 -33 -25h-85q-23 0 -26 25l-81 630q-3 25 22 25h88q22 0 25 -25l43 -341q4 -33 6 -84
q8 28 28 84l128 341q9 25 33 25h81q23 0 26 -25z" />
    <glyph glyph-name="X" unicode="X" horiz-adv-x="556" 
d="M357 349l148 -324q5 -9 1 -17t-16 -8h-99q-21 0 -33 25l-95 206l-135 -206q-15 -25 -38 -25h-95q-8 0 -11 4.5t-2 11t6 13.5l221 323l-137 300q-13 28 14 28h99q22 0 33 -25l87 -191l128 191q17 25 40 25h94q25 0 8 -25z" />
    <glyph glyph-name="Y" unicode="Y" horiz-adv-x="543" 
d="M204 655l67 -228q5 -20 10 -53q17 40 25 53l133 228q14 25 32 25h88q14 0 18 -6.5t-3 -18.5l-237 -395l-29 -235q-3 -25 -27 -25h-87q-25 0 -22 25l27 219l-140 411q-8 25 21 25h97q20 0 27 -25z" />
    <glyph glyph-name="Z" unicode="Z" horiz-adv-x="497" 
d="M118 680h356q26 0 23 -24l-7 -56q-2 -16 -12 -31l-307 -457h250q26 0 23 -24l-8 -63q-3 -25 -27 -25h-391q-26 0 -23 25l7 56q3 16 12 30l307 457h-216q-26 0 -23 25l8 63q3 24 28 24z" />
    <glyph glyph-name="bracketleft" unicode="[" horiz-adv-x="364" 
d="M3 -185l106 858q3 26 27 26h229q25 0 22 -24l-8 -63q-3 -25 -28 -25h-117l-85 -686h117q26 0 23 -25l-8 -63q-3 -24 -27 -24h-229q-25 0 -22 26z" />
    <glyph glyph-name="backslash" unicode="\" horiz-adv-x="385" 
d="M172 -122l-100 795q-3 26 22 26h88q24 0 27 -26l100 -795q3 -26 -23 -26h-88q-23 0 -26 26z" />
    <glyph glyph-name="bracketright" unicode="]" horiz-adv-x="363" 
d="M349 673l-107 -858q-3 -26 -26 -26h-229q-25 0 -22 24l8 63q3 25 27 25h118l85 686h-118q-25 0 -22 25l8 63q3 24 27 24h229q25 0 22 -26z" />
    <glyph glyph-name="asciicircum" unicode="^" horiz-adv-x="524" 
d="M361 301l-96 250l-95 -250q-5 -14 -10.5 -20t-17.5 -6h-80q-14 0 -21 7t-2 19l153 356q9 23 27 23h93q8 0 13.5 -3.5t7.5 -7t6 -12.5l154 -356q5 -12 -2.5 -19t-21.5 -7h-80q-12 0 -17.5 6t-10.5 20z" />
    <glyph glyph-name="underscore" unicode="_" horiz-adv-x="422" 
d="M-23 -74h364q26 0 26 -23v-60q0 -25 -26 -25h-364q-25 0 -25 25v60q0 23 25 23z" />
    <glyph glyph-name="grave" unicode="`" horiz-adv-x="314" 
d="M203 577l-60 106q-6 11 -1.5 18t17.5 7h85q22 0 32 -25l36 -98q9 -24 -17 -24h-62q-22 0 -30 16z" />
    <glyph glyph-name="a" unicode="a" horiz-adv-x="540" 
d="M325 48q-79 -56 -163 -56q-64 0 -98 32t-34 89q0 9 2 25l27 222q18 146 159 146q89 0 154 -55l5 22q6 25 27 25h80q24 0 21 -25l-55 -447q-3 -26 -27 -26h-78q-22 0 -21 26zM188 340l-23 -182q-1 -9 -1 -14q0 -38 49 -38q52 0 121 45l25 195q-57 46 -110 46
q-55 0 -61 -52z" />
    <glyph glyph-name="b" unicode="b" horiz-adv-x="540" 
d="M123 0h-78q-24 0 -21 26l80 647q3 26 27 26h84q23 0 20 -26l-27 -221q76 54 159 54q63 0 98 -32.5t35 -89.5q0 -8 -2 -24l-27 -222q-18 -146 -162 -146q-88 0 -154 56l-5 -22q-6 -26 -27 -26zM341 158l24 182q1 7 1 13q0 39 -49 39q-56 0 -122 -46l-24 -195
q57 -45 110 -45q31 0 43.5 14t16.5 38z" />
    <glyph glyph-name="c" unicode="c" horiz-adv-x="494" 
d="M278 506q96 0 143 -34.5t47 -93.5q0 -8 -1 -21l-1 -15q-1 -24 -28 -24h-76q-24 0 -21 23l1 8q1 8 1 12q0 41 -72 41q-42 0 -60.5 -12.5t-22.5 -40.5l-23 -185q-2 -16 -2 -26q0 -42 71 -42q42 0 60.5 13t22.5 41l2 15q3 25 27 25h77q25 0 21 -25l-3 -25q-9 -72 -59.5 -110
t-160.5 -38q-96 0 -144 34t-48 94q0 10 1 20l27 219q18 147 221 147z" />
    <glyph glyph-name="d" unicode="d" horiz-adv-x="540" 
d="M325 48q-25 -17 -39 -25.5t-49.5 -19.5t-74.5 -11q-64 0 -98 32t-34 88q0 10 2 26l27 222q18 146 159 146q89 0 153 -54l27 221q3 26 27 26h84q24 0 21 -26l-80 -647q-3 -26 -27 -26h-78q-22 0 -21 26zM188 340l-22 -176q-2 -16 -2 -20q0 -38 49 -38q52 0 121 45l25 195
q-57 46 -110 46q-55 0 -61 -52z" />
    <glyph glyph-name="e" unicode="e" horiz-adv-x="501" 
d="M464 359l-14 -116q-3 -23 -26 -23h-256l-7 -62q-2 -16 -2 -23q0 -45 71 -45q80 0 85 51l1 10q3 25 28 25h70q23 0 21 -25l-1 -11q-6 -73 -54.5 -110.5t-157.5 -37.5q-96 0 -144.5 34t-48.5 94q0 10 1 20l27 219q18 147 220 147q93 0 140.5 -33.5t47.5 -93.5q0 -9 -1 -20z
M185 353l-6 -45h157l5 38q1 11 1 16q0 46 -73 46q-76 0 -84 -55z" />
    <glyph glyph-name="f" unicode="f" horiz-adv-x="349" 
d="M120 496l7 59q18 148 229 148h13q26 0 23 -25l-7 -58q-3 -25 -29 -25h-9q-83 0 -90 -54l-6 -45h83q26 0 23 -23l-7 -56q-3 -25 -28 -25h-83l-70 -568q-3 -25 -26 -25h-84q-24 0 -21 25l70 568h-54q-25 0 -22 25l6 50q2 21 28 24l51 5h3z" />
    <glyph glyph-name="g" unicode="g" horiz-adv-x="540" 
d="M163 -8q-64 0 -98.5 32.5t-34.5 88.5q0 9 2 25l27 222q18 146 159 146q91 0 157 -58l5 25q3 14 8.5 19.5t18.5 5.5h77q24 0 21 -25l-64 -527q-18 -147 -232 -147h-141q-26 0 -23 24l7 58q3 26 29 26h140q84 0 90 54l10 84q-78 -53 -158 -53zM187 340l-21 -173
q-2 -14 -2 -22q0 -39 49 -39q52 0 121 45l25 195q-57 46 -110 46q-56 0 -62 -52z" />
    <glyph glyph-name="h" unicode="h" horiz-adv-x="544" 
d="M235 673l-27 -219q73 52 159 52q60 0 96.5 -32.5t36.5 -84.5q0 -8 -1 -17l-42 -346q-3 -26 -28 -26h-81q-25 0 -22 26l38 313q1 8 1 15q0 38 -49 38q-56 0 -121 -45l-39 -321q-3 -26 -27 -26h-84q-24 0 -21 26l80 647q3 26 27 26h84q23 0 20 -26z" />
    <glyph glyph-name="i" unicode="i" horiz-adv-x="246" 
d="M235 673l-11 -86q-3 -24 -26 -24h-84q-24 0 -21 24l11 86q3 26 27 26h84q23 0 20 -26zM211 473l-55 -447q-3 -26 -27 -26h-84q-24 0 -21 26l56 447q3 25 26 25h83q25 0 22 -25z" />
    <glyph glyph-name="j" unicode="j" horiz-adv-x="246" 
d="M235 673l-10 -86q-2 -13 -7.5 -18.5t-18.5 -5.5h-83q-25 0 -22 24l10 86q3 26 28 26h83q23 0 20 -26zM211 473l-65 -527q-9 -73 -63 -110t-164 -37h-13q-26 0 -23 24l7 58q3 26 29 26h9q82 0 89 54l63 512q3 25 27 25h83q24 0 21 -25z" />
    <glyph glyph-name="k" unicode="k" horiz-adv-x="501" 
d="M129 0h-84q-24 0 -21 25l80 649q3 25 27 25h84q23 0 20 -25l-42 -346h17l137 145q25 25 43 25h99q13 0 15.5 -8t-6.5 -17l-184 -190l142 -258q6 -9 1.5 -17t-16.5 -8h-97q-19 0 -32 25l-110 204h-21l-25 -204q-3 -25 -27 -25z" />
    <glyph glyph-name="l" unicode="l" horiz-adv-x="246" 
d="M235 673l-79 -647q-3 -26 -27 -26h-84q-24 0 -21 26l80 647q3 26 27 26h84q23 0 20 -26z" />
    <glyph glyph-name="m" unicode="m" horiz-adv-x="833" 
d="M24 26l56 448q3 24 26 24h78q13 0 17.5 -5.5t3.5 -18.5l-1 -24q71 56 157 56q44 0 78 -18t46 -49q1 1 12.5 10t16.5 12.5t18 12t24.5 13t27 9.5t34 7.5t38.5 2.5q60 0 97 -32t37 -82q0 -10 -1 -20l-43 -346q-3 -26 -27 -26h-82q-25 0 -22 26l37 306q2 20 2 22
q0 38 -48 38q-57 0 -116 -45l-39 -321q-3 -26 -28 -26h-81q-25 0 -22 26l38 312q1 8 1 16q0 38 -48 38q-58 0 -116 -45l-39 -321q-3 -26 -27 -26h-84q-24 0 -21 26z" />
    <glyph glyph-name="n" unicode="n" horiz-adv-x="544" 
d="M106 498h78q23 0 22 -24l-1 -24q73 56 162 56q60 0 96.5 -32.5t36.5 -84.5q0 -8 -2 -24l-41 -339q-3 -26 -28 -26h-81q-26 0 -22 26l37 306q2 16 2 22q0 38 -48 38q-57 0 -122 -45l-39 -321q-3 -26 -27 -26h-84q-24 0 -21 26l56 448q3 24 26 24z" />
    <glyph glyph-name="o" unicode="o" horiz-adv-x="529" 
d="M30 140l27 219q18 147 231 147q97 0 149.5 -34.5t52.5 -94.5q0 -9 -1 -18l-27 -219q-18 -148 -230 -148q-98 0 -150.5 35t-52.5 96q0 8 1 17zM333 151l22 181q2 15 2 26q0 44 -78 44q-86 0 -92 -54l-22 -181q-2 -16 -2 -26q0 -45 78 -45q85 0 92 55z" />
    <glyph glyph-name="p" unicode="p" horiz-adv-x="540" 
d="M106 498h78q23 0 22 -25l-2 -24q80 57 163 57q64 0 98.5 -32t34.5 -90q0 -4 -2 -24l-27 -222q-18 -146 -159 -146q-88 0 -154 53l-27 -221q-3 -25 -27 -25h-83q-25 0 -22 25l81 649q3 25 26 25zM342 158l21 176q2 18 2 21q0 37 -48 37q-58 0 -121 -46l-25 -195
q57 -45 110 -45q55 0 61 52z" />
    <glyph glyph-name="q" unicode="q" horiz-adv-x="540" 
d="M406 498h78q24 0 21 -25l-80 -649q-3 -25 -27 -25h-83q-25 0 -21 25l27 221q-78 -53 -158 -53q-64 0 -98.5 32.5t-34.5 88.5q0 9 2 25l27 222q18 146 159 146q89 0 156 -57l5 24q3 14 9 19.5t18 5.5zM187 340l-21 -174q-2 -16 -2 -21q0 -39 49 -39q52 0 121 45l25 195
q-57 46 -110 46q-56 0 -62 -52z" />
    <glyph glyph-name="r" unicode="r" horiz-adv-x="370" 
d="M358 506q26 0 23 -25l-8 -64q-2 -22 -29 -25q-88 -8 -150 -59l-38 -307q-3 -26 -27 -26h-84q-24 0 -21 26l56 448q3 24 26 24h78q23 0 22 -24l-2 -35q69 67 154 67z" />
    <glyph glyph-name="s" unicode="s" horiz-adv-x="476" 
d="M318 354l1 12q1 9 1 14q0 34 -67 34q-73 0 -77 -38l-1 -9q-1 -9 -1 -11q0 -23 26 -32l139 -48q40 -14 61.5 -38.5t21.5 -53.5q0 -7 -1 -17l-6 -53q-6 -53 -57 -87.5t-154 -34.5q-94 0 -142.5 32.5t-48.5 79.5q0 6 1 18l2 22q1 23 26 23h75q22 0 19 -23l-1 -8
q-1 -9 -1 -16q0 -35 75 -35q82 0 87 40l2 15q2 14 -7 24t-33 19l-137 50q-32 11 -50 36.5t-18 58.5q0 6 1 18l4 33q16 127 201 127q91 0 136.5 -34.5t45.5 -84.5q0 -5 -1 -16l-2 -17q-3 -23 -26 -23h-74q-21 0 -20 23z" />
    <glyph glyph-name="t" unicode="t" horiz-adv-x="364" 
d="M232 392l-28 -223q-1 -8 -1 -18q0 -23 16.5 -33t57.5 -10h22q25 0 22 -25l-7 -58q-3 -25 -28 -25h-42q-93 0 -134 29t-41 89q0 10 2 30l29 244h-49q-24 0 -21 25l6 50q2 21 28 24l48 5h1l12 96q3 25 28 25h83q23 0 20 -25l-11 -96h91q24 0 21 -23l-6 -56q-3 -25 -29 -25
h-90z" />
    <glyph glyph-name="u" unicode="u" horiz-adv-x="538" 
d="M322 25l1 22q-69 -55 -157 -55q-61 0 -97 32t-36 84q0 9 1 18l43 347q3 25 27 25h82q24 0 22 -25l-38 -314q-1 -8 -1 -16q0 -19 11 -28t37 -9q53 0 116 44l39 323q3 25 27 25h83q24 0 21 -25l-55 -448q-3 -25 -28 -25h-76q-13 0 -18 5.5t-4 19.5z" />
    <glyph glyph-name="v" unicode="v" horiz-adv-x="478" 
d="M250 0h-94q-13 0 -16.5 4.5t-6.5 18.5l-98 450q-3 12 4.5 18.5t22.5 6.5h83q19 0 24 -25l44 -227q8 -41 8 -93q19 69 30 92l106 228q12 25 31 25h79q14 0 20.5 -6.5t0.5 -18.5l-209 -450q-7 -14 -11.5 -18.5t-17.5 -4.5z" />
    <glyph glyph-name="w" unicode="w" horiz-adv-x="723" 
d="M644 498h68q31 0 21 -25l-186 -450q-6 -14 -11 -18.5t-17 -4.5h-98q-13 0 -17 5t-6 18l-26 237q-3 30 -3 54q-7 -28 -19 -54l-99 -237q-6 -13 -11 -18t-17 -5h-98q-12 0 -16.5 5t-6.5 18l-63 450q-1 12 6.5 18.5t20.5 6.5h78q22 0 25 -25l34 -262q4 -38 4 -49q6 26 16 49
l105 262q10 25 31 25h79q23 0 26 -25l28 -265q2 -18 4 -46q3 14 15 46l103 265q10 25 30 25z" />
    <glyph glyph-name="x" unicode="x" horiz-adv-x="488" 
d="M156 498q19 0 33 -25l69 -128l96 128q20 25 40 25h83q12 0 14.5 -7.5t-6.5 -17.5l-176 -223l123 -224q6 -10 1.5 -18t-17.5 -8h-89q-19 0 -32 25l-75 137l-104 -137q-19 -25 -39 -25h-82q-12 0 -14.5 8t5.5 17l183 231l-119 217q-6 10 -2 17.5t18 7.5h90z" />
    <glyph glyph-name="y" unicode="y" horiz-adv-x="478" 
d="M488 473l-301 -649q-12 -25 -31 -25h-62q-30 0 -20 25l69 163l-109 486q-3 12 5 18.5t22 6.5h82q9 0 14 -3.5t7 -8t4 -13.5l46 -229q8 -40 8 -85q22 60 31 81l106 233q11 25 31 25h77q14 0 20.5 -6.5t0.5 -18.5z" />
    <glyph glyph-name="z" unicode="z" horiz-adv-x="445" 
d="M96 498h304q25 0 22 -23l-8 -59q-2 -12 -7 -19l-242 -290h204q26 0 23 -24l-7 -58q-3 -25 -29 -25h-338q-25 0 -22 25l7 58q1 12 8 19l240 289h-168q-26 0 -23 24l8 59q3 24 28 24z" />
    <glyph glyph-name="braceleft" unicode="{" horiz-adv-x="384" 
d="M119 357l25 203q18 148 224 148h17q26 0 23 -25l-7 -58q-3 -25 -29 -25h-9q-79 0 -86 -54l-25 -203q-5 -39 -22 -60.5t-50 -33.5q51 -23 51 -77q0 -2 -2 -20l-24 -194q-2 -15 -2 -26q0 -42 73 -42h10q24 0 21 -25l-7 -58q-3 -25 -28 -25h-6q-96 0 -148 34.5t-52 99.5
q0 13 2 29l24 193q1 8 1 17q0 40 -70 40h-1q-25 0 -22 25l6 57q3 26 28 26h2q76 0 83 54z" />
    <glyph glyph-name="bar" unicode="|" horiz-adv-x="303" 
d="M213 673v-858q0 -26 -23 -26h-87q-25 0 -25 26v858q0 26 25 26h87q23 0 23 -26z" />
    <glyph glyph-name="braceright" unicode="}" horiz-adv-x="384" 
d="M304 549l-23 -183q-2 -16 -2 -21q0 -42 71 -42h1q25 0 22 -26l-6 -57q-3 -25 -29 -25h-1q-76 0 -83 -54l-26 -211q-18 -148 -224 -148h-17q-26 0 -23 25l7 58q3 25 29 25h9q80 0 86 54l25 210q8 69 73 95q-51 21 -51 78q0 6 3 30l23 186q2 16 2 19q0 38 -74 38h-10
q-24 0 -21 25l7 58q3 25 28 25h9q95 0 145.5 -35t50.5 -99q0 -15 -1 -25z" />
    <glyph glyph-name="asciitilde" unicode="~" horiz-adv-x="491" 
d="M437 330l-4 -41q-5 -47 -28.5 -70.5t-54.5 -23.5q-33 0 -61 14l-90 42q-20 10 -33 10q-8 0 -12.5 -5t-6 -10t-3.5 -16l-1 -6q-2 -13 -8 -17.5t-19 -4.5h-42q-24 0 -21 28l5 48q5 45 29 66.5t54 21.5q31 0 55 -11l89 -41q28 -13 41 -13q9 0 12.5 7t7.5 24l1 5q4 22 27 22
h42q24 0 21 -29z" />
    <glyph glyph-name="uni00A0" unicode="&#xa0;" horiz-adv-x="194" 
 />
    <glyph glyph-name="exclamdown" unicode="&#xa1;" horiz-adv-x="250" 
d="M71 392l10 81q2 14 7.5 19.5t18.5 5.5h87q25 0 22 -25l-10 -81q-3 -25 -28 -25h-87q-13 0 -17.5 5.5t-2.5 19.5zM33 108l36 183q3 14 9 19.5t19 5.5h61q13 0 17.5 -5.5t3.5 -19.5l-9 -183l-32 -264q-3 -26 -28 -26h-88q-23 0 -20 26z" />
    <glyph glyph-name="cent" unicode="&#xa2;" horiz-adv-x="505" 
d="M294 26q-3 -26 -26 -26h-83q-25 0 -22 26l8 62q-128 21 -128 123q0 10 1 20l27 219q15 125 162 144l7 60q3 26 28 26h83q24 0 21 -26l-8 -63q118 -23 118 -122q0 -8 -1 -21l-1 -15q-1 -24 -28 -24h-76q-24 0 -21 23l1 8q1 8 1 12q0 41 -72 41q-42 0 -60.5 -12.5
t-22.5 -40.5l-23 -185q-2 -14 -2 -25q0 -23 16 -33t55 -10q42 0 60.5 13t22.5 41l2 15q3 25 27 25h77q25 0 21 -25l-3 -25q-7 -60 -43 -96.5t-110 -47.5z" />
    <glyph glyph-name="sterling" unicode="&#xa3;" horiz-adv-x="635" 
d="M270 389h109q26 0 23 -24l-8 -60q-3 -24 -28 -24h-109l-22 -173h151q62 0 69 79l1 11q3 25 28 25h79q24 0 21 -25l-1 -9q-11 -105 -55 -147t-120 -42h-377q-24 0 -21 25l7 59q3 24 28 24h55l22 173h-56q-24 0 -21 24l7 60q3 24 28 24h55l17 138q19 161 239 161
q107 0 158.5 -39.5t51.5 -100.5q0 -7 -2 -21l-4 -34q-3 -26 -27 -26h-80q-25 0 -22 26l1 10q1 10 1 16q0 57 -86 57q-89 0 -98 -73z" />
    <glyph glyph-name="currency" unicode="&#xa4;" horiz-adv-x="619" 
d="M98 87q-19 -17 -35 -1l-30 32q-15 15 6 35l85 76q-11 27 -7 56l14 110q5 33 20 57l-66 76q-16 18 3 34l37 32q19 16 35 -1l72 -82q42 15 103 15t104 -16l94 83q21 18 35 1l29 -32q15 -17 -5 -34l-86 -77q11 -26 7 -56l-14 -110q-4 -31 -19 -56l66 -76q15 -18 -4 -35
l-36 -32q-20 -17 -35 1l-73 83q-42 -15 -103 -15q-63 0 -104 16zM244 386l-11 -91q-3 -26 14.5 -38.5t55.5 -12.5q78 0 84 51l11 91q6 50 -71 50t-83 -50z" />
    <glyph glyph-name="yen" unicode="&#xa5;" horiz-adv-x="576" 
d="M322 25q-3 -25 -27 -25h-87q-25 0 -22 25l25 206h-134q-25 0 -22 24l4 35q3 24 29 24h101l-18 54h-77q-25 0 -22 25l4 35q3 24 28 24h38l-69 203q-8 25 21 25h97q20 0 27 -25l67 -228q5 -20 10 -53q17 40 25 53l133 228q14 25 32 25h88q14 0 18 -6.5t-3 -18.5l-122 -203
h45q23 0 22 -24l-3 -35q-3 -25 -29 -25h-85l-33 -54h111q14 0 18.5 -5.5t3.5 -18.5l-3 -35q-1 -24 -29 -24h-137z" />
    <glyph glyph-name="brokenbar" unicode="&#xa6;" horiz-adv-x="303" 
d="M210 654v-314q0 -26 -23 -26h-83q-25 0 -25 26v314q0 26 25 26h83q23 0 23 -26zM210 129v-314q0 -26 -23 -26h-83q-25 0 -25 26v314q0 26 25 26h83q23 0 23 -26z" />
    <glyph glyph-name="section" unicode="&#xa7;" horiz-adv-x="512" 
d="M436 203q-3 -24 -27 -24h-72q-25 0 -22 24l7 62q2 21 -5.5 30.5t-25.5 15.5l-125 40q-38 12 -66 42t-28 74q0 5 2 19l7 57q17 145 220 145q97 0 145 -32t48 -86q0 -5 -1 -18l-1 -16q-1 -25 -27 -25h-73q-13 0 -17.5 5.5t-3.5 19.5l1 13q2 30 -15 41.5t-59 11.5
q-43 0 -63 -12t-24 -40l-7 -56q-4 -34 42 -49l121 -39q80 -26 80 -102q0 -16 -1 -25zM54 206l9 76q3 24 27 24h73q25 0 22 -24l-7 -61q-3 -22 5 -31.5t26 -15.5l125 -40q38 -12 65.5 -41.5t27.5 -73.5q0 -11 -1 -19l-7 -58q-17 -145 -220 -145q-193 0 -193 123v13l1 17
q1 24 28 24h73q12 0 17 -5.5t4 -19.5l-1 -13q-2 -29 14 -41t60 -12q43 0 63 12t24 40l7 56q4 34 -42 49l-122 39q-80 26 -80 103q0 6 2 24z" />
    <glyph glyph-name="dieresis" unicode="&#xa8;" horiz-adv-x="381" 
d="M251 681l-12 -93q-3 -25 -26 -25h-49q-24 0 -21 25l11 93q3 25 28 25h48q24 0 21 -25zM391 681l-12 -93q-3 -25 -27 -25h-48q-24 0 -21 25l11 93q3 25 27 25h49q24 0 21 -25z" />
    <glyph glyph-name="copyright" unicode="&#xa9;" horiz-adv-x="762" 
d="M707 456v-231q0 -38 -6 -67.5t-25.5 -62t-53 -54t-93.5 -35.5t-142 -14q-81 0 -141 14t-93.5 35.5t-53 54t-25.5 62t-6 67.5v231q0 38 6 67.5t25.5 62t53 53.5t93.5 35t141 14q82 0 142 -14t93.5 -35t53 -53.5t25.5 -62t6 -67.5zM612 206v269q0 133 -225 133
q-224 0 -224 -134v-267q0 -134 224 -134q225 0 225 133zM389 546q92 0 130.5 -34.5t38.5 -104.5v-9q0 -24 -25 -24h-67q-24 0 -24 24v6q0 28 -12.5 41t-40.5 13t-40.5 -12.5t-12.5 -41.5v-128q0 -28 12.5 -41t40.5 -13q53 0 53 54v13q0 25 24 25h67q25 0 25 -25v-17
q0 -70 -38.5 -104.5t-131.5 -34.5q-92 0 -130.5 34.5t-38.5 104.5v135q0 70 39 104.5t131 34.5z" />
    <glyph glyph-name="ordfeminine" unicode="&#xaa;" horiz-adv-x="396" 
d="M252 411q-47 -34 -95 -34q-40 0 -64.5 20t-24.5 54q0 9 1 17l16 131q5 42 32.5 65.5t73.5 23.5q52 0 89 -32l4 11q3 9 6.5 12.5t11.5 3.5h69q13 0 12 -16l-32 -269q-1 -16 -17 -16h-69q-13 0 -13 16v13zM186 580l-11 -87q-1 -8 -1 -17q0 -23 27 -23q25 0 58 28l12 101
q-20 28 -51 28q-30 0 -34 -30z" />
    <glyph glyph-name="guillemotleft" unicode="&#xab;" horiz-adv-x="565" 
d="M135 244l97 -74q23 -18 21 -35l-10 -81q-1 -13 -10 -18t-17 2l-171 134q-20 16 -18 37l9 74q2 21 28 37l203 133q10 6 17 1.5t6 -17.5l-10 -85q-2 -18 -29 -35zM374 244l97 -74q23 -18 21 -35l-10 -81q-1 -13 -10 -18t-17 2l-171 134q-20 16 -18 37l9 74q2 21 28 37
l203 133q10 6 17 1.5t6 -17.5l-10 -85q-2 -18 -29 -35z" />
    <glyph glyph-name="logicalnot" unicode="&#xac;" 
d="M47 320q0 53 36.5 89.5t88.5 36.5t89 -37t37 -89t-36.5 -88.5t-89.5 -36.5q-52 0 -88.5 36.5t-36.5 88.5z" />
    <glyph glyph-name="uni00AD" unicode="&#xad;" horiz-adv-x="436" 
d="M84 342h267q25 0 25 -24v-59q0 -24 -25 -24h-267q-26 0 -26 24v59q0 24 26 24z" />
    <glyph glyph-name="registered" unicode="&#xae;" horiz-adv-x="628" 
d="M584 523v-185q0 -24 -4.5 -44t-20 -43.5t-41.5 -39.5t-74 -27t-113 -11t-113 11t-74.5 27t-42 39.5t-20 43.5t-4.5 44v185q0 24 4.5 44t20 43.5t42 39.5t74.5 27t113 11t113 -11t74 -27t41.5 -39.5t20 -43.5t4.5 -44zM498 329v202q0 38 -36.5 59.5t-130.5 21.5
q-167 0 -167 -81v-201q0 -82 167 -82t167 81zM287 294h-54q-17 0 -17 18v237q0 17 17 17h114q109 0 109 -83v-17q0 -49 -37 -69l33 -85q3 -8 -1.5 -13t-14.5 -5h-57q-11 0 -18 18l-28 70h-29v-70q0 -18 -17 -18zM337 503h-33v-57h33q11 0 20.5 6t9.5 16v12q0 23 -30 23z" />
    <glyph glyph-name="macron" unicode="&#xaf;" horiz-adv-x="406" 
d="M169 671h231q25 0 22 -23l-6 -52q-3 -24 -29 -24h-230q-25 0 -22 24l6 51q3 24 28 24z" />
    <glyph glyph-name="degree" unicode="&#xb0;" horiz-adv-x="415" 
d="M67 483l11 93q7 56 44.5 84t129.5 28q153 0 153 -96q0 -8 -1 -18l-11 -93q-7 -55 -44.5 -83t-128.5 -28q-154 0 -154 95q0 12 1 18zM283 486l11 84q4 32 -51 32q-51 0 -55 -30l-10 -84q-4 -33 50 -33q51 0 55 31z" />
    <glyph glyph-name="plusminus" unicode="&#xb1;" horiz-adv-x="566" 
d="M223 234v94h-142q-25 0 -25 24v60q0 23 25 23h142v94q0 25 23 25h59q25 0 25 -25v-94h142q26 0 26 -23v-60q0 -24 -26 -24h-142v-94q0 -25 -25 -25h-59q-23 0 -23 25zM81 153h391q26 0 26 -24v-59q0 -25 -26 -25h-391q-25 0 -25 25v59q0 24 25 24z" />
    <glyph glyph-name="twosuperior" unicode="&#xb2;" 
d="M165 535h162q16 0 13 -16l-6 -47q-3 -16 -18 -16h-244q-16 0 -15 16l11 91q6 46 52 64l110 43q10 4 15 6.5t10.5 9t6.5 16.5l2 16q1 10 1 13q0 26 -41 26q-44 0 -47 -31l-2 -19q-1 -15 -17 -15h-66q-15 0 -14 15l3 29q4 42 41 70t114 28q63 0 96 -26t33 -64q0 -7 -1 -15
l-4 -32q-5 -39 -23 -57t-48 -30l-105 -40q-16 -6 -17 -17z" />
    <glyph glyph-name="threesuperior" unicode="&#xb3;" 
d="M341 543q-10 -91 -150 -91q-63 0 -99 25t-36 62q0 5 1 17l1 8q1 17 18 17h65q13 0 13 -17v-12q0 -27 42 -27q44 0 49 32l2 12q1 9 1 12q0 32 -42 32h-39q-15 0 -14 14l5 39q1 14 17 14h35q46 0 49 38l1 12q3 31 -37 31q-23 0 -32.5 -7t-12.5 -25l-1 -6q-3 -16 -18 -16
h-64q-15 0 -14 16l2 16q11 95 151 95q66 0 98 -25.5t27 -65.5l-5 -39q-3 -24 -13 -35.5t-35 -20.5q40 -17 40 -53q0 -5 -1 -17z" />
    <glyph glyph-name="acute" unicode="&#xb4;" horiz-adv-x="314" 
d="M339 683l-85 -106q-12 -16 -34 -16h-67q-25 0 -11 24l61 98q15 25 37 25h90q13 0 15.5 -7t-6.5 -18z" />
    <glyph glyph-name="paragraph" unicode="&#xb6;" horiz-adv-x="649" 
d="M426 655l-102 -831q-3 -25 -28 -25h-87q-24 0 -21 25l56 458h-24q-90 0 -134 30.5t-44 82.5q0 6 2 20l16 134q8 63 52.5 97t156.5 34h134q26 0 23 -25zM628 654l-102 -830q-3 -25 -27 -25h-87q-13 0 -17.5 5.5t-3.5 19.5l102 830q3 26 27 26h87q24 0 21 -26z" />
    <glyph glyph-name="periodcentered" unicode="&#xb7;" horiz-adv-x="250" 
d="M195 317l-10 -81q-3 -25 -27 -25h-85q-24 0 -21 25l9 81q3 25 28 25h86q23 0 20 -25z" />
    <glyph glyph-name="cedilla" unicode="&#xb8;" horiz-adv-x="261" 
d="M125 -45h31q35 0 56 -19t21 -53q0 -46 -27 -70t-71 -24h-120q-24 0 -21 25l2 20q3 24 27 24h98q21 0 21 17q0 14 -18 14h-73q-40 0 -27 33l37 91q10 23 32 22l37 -3q11 -1 15 -11t-1 -19z" />
    <glyph glyph-name="onesuperior" unicode="&#xb9;" 
d="M125 812l154 22q7 1 11 -2t3 -14l-35 -283h65q16 0 15 -16l-5 -47q-1 -16 -19 -16h-231q-18 0 -15 16l6 47q3 16 18 16h67l25 206l-69 -8q-7 -1 -11 2.5t-3 10.5l6 48q3 16 18 18z" />
    <glyph glyph-name="ordmasculine" unicode="&#xba;" horiz-adv-x="373" 
d="M68 482l14 110q13 96 148 96q61 0 97.5 -23t36.5 -62q0 -3 -2 -21l-13 -110q-11 -95 -148 -95q-62 0 -98.5 23t-36.5 61q0 9 2 21zM247 481l11 92q0 4 0.5 7.5t1 6t0.5 3.5q0 20 -36 20q-37 0 -40 -24l-12 -94q-1 -10 -1 -16q0 -22 36 -22q37 0 40 27z" />
    <glyph glyph-name="guillemotright" unicode="&#xbb;" horiz-adv-x="570" 
d="M180 254l-97 74q-23 18 -21 35l10 81q1 13 10 18t17 -2l171 -134q20 -16 18 -37l-9 -74q-2 -21 -28 -37l-203 -133q-10 -6 -17 -1.5t-6 17.5l10 85q2 18 29 35zM424 254l-97 74q-23 18 -21 35l10 81q1 13 10 18t17 -2l171 -134q20 -16 18 -37l-9 -74q-2 -21 -28 -37
l-203 -133q-10 -6 -17 -1.5t-6 17.5l10 85q2 18 29 35z" />
    <glyph glyph-name="onequarter" unicode="&#xbc;" horiz-adv-x="817" 
d="M684 662l-407 -644q-16 -26 -38 -26h-65q-11 0 -13 9t4 17l406 644q17 26 40 26h65q11 0 13 -8t-5 -18zM99 662l154 22q7 1 11 -2t3 -14l-35 -283h65q16 0 15 -16l-5 -47q-1 -16 -19 -16h-231q-18 0 -15 16l6 47q3 16 18 16h67l25 206l-69 -8q-7 -1 -11 2.5t-3 10.5l6 48
q3 16 18 18zM648 358l-74 -189h85l24 189q1 16 17 16h66q15 0 14 -16l-42 -342q-1 -16 -17 -16h-67q-14 0 -13 16l9 77h-172q-17 0 -16 16l4 31q2 14 9 30l76 188q6 16 22 16h64q18 0 11 -16z" />
    <glyph glyph-name="onehalf" unicode="&#xbd;" horiz-adv-x="833" 
d="M686 662l-407 -644q-16 -26 -38 -26h-65q-11 0 -13 9t4 17l406 644q17 26 40 26h65q11 0 13 -8t-5 -18zM99 662l154 22q7 1 11 -2t3 -14l-35 -283h65q16 0 15 -16l-5 -47q-1 -16 -19 -16h-231q-18 0 -15 16l6 47q3 16 18 16h67l25 206l-69 -8q-7 -1 -11 2.5t-3 10.5l6 48
q3 16 18 18zM595 79h162q16 0 13 -16l-6 -47q-3 -16 -18 -16h-244q-16 0 -15 16l11 91q6 46 52 64l110 43q10 4 15 6.5t10.5 9t6.5 16.5l2 16q1 10 1 13q0 26 -41 26q-44 0 -47 -31l-2 -19q-1 -15 -17 -15h-66q-15 0 -14 15l3 29q4 42 41 70t114 28q63 0 96 -26t33 -64
q0 -7 -1 -15l-4 -32q-5 -39 -23 -57t-48 -30l-105 -40q-16 -6 -17 -17z" />
    <glyph glyph-name="threequarters" unicode="&#xbe;" horiz-adv-x="818" 
d="M681 662l-407 -644q-16 -26 -38 -26h-65q-11 0 -13 9t4 17l406 644q17 26 40 26h65q11 0 13 -8t-5 -18zM330 393q-10 -91 -150 -91q-63 0 -99 25t-36 62q0 5 1 17l1 8q1 17 18 17h65q13 0 13 -17v-12q0 -27 42 -27q44 0 49 32l2 12q1 9 1 12q0 32 -42 32h-39
q-15 0 -14 14l5 39q1 14 17 14h35q46 0 49 38l1 12q3 31 -37 31q-23 0 -32.5 -7t-12.5 -25l-1 -6q-3 -16 -18 -16h-64q-15 0 -14 16l2 16q11 95 151 95q66 0 98 -25.5t27 -65.5l-5 -39q-3 -24 -13 -35.5t-35 -20.5q40 -17 40 -53q0 -5 -1 -17zM649 358l-74 -189h85l24 189
q1 16 17 16h66q15 0 14 -16l-42 -342q-1 -16 -17 -16h-67q-14 0 -13 16l9 77h-172q-17 0 -16 16l4 31q2 14 9 30l76 188q6 16 22 16h64q18 0 11 -16z" />
    <glyph glyph-name="questiondown" unicode="&#xbf;" horiz-adv-x="520" 
d="M234 392l9 81q3 25 27 25h87q12 0 17 -5t4 -20l-9 -81q-3 -25 -28 -25h-87q-23 0 -20 25zM357 292l-9 -69q-3 -26 -16 -45t-25 -27t-33 -18l-98 -47q-38 -18 -45 -61l-4 -24q-2 -14 -2 -24q0 -57 92 -57q95 0 107 75l6 39q2 14 7.5 19.5t18.5 5.5h83q26 0 22 -25l-8 -61
q-21 -163 -246 -163q-110 0 -163.5 42.5t-53.5 104.5q0 9 1 22l5 47q7 64 37.5 97t74.5 52l60 26q24 10 34.5 21.5t14.5 34.5l5 35q2 14 7.5 19t18.5 5h87q25 0 22 -24z" />
    <glyph glyph-name="Agrave" unicode="&#xc0;" horiz-adv-x="554" 
d="M260 747l-60 106q-6 11 -1.5 18t17.5 7h85q21 0 31 -25l37 -98q10 -24 -16 -24h-63q-22 0 -30 16zM280 680h88q24 0 28 -25l110 -630q5 -25 -21 -25h-89q-22 0 -27 25l-19 122h-186l-51 -122q-11 -25 -32 -25h-83q-26 0 -15 25l263 630q10 25 34 25zM333 254l-18 111
q-10 63 -8 183q-32 -132 -53 -182l-47 -112h126z" />
    <glyph glyph-name="Aacute" unicode="&#xc1;" horiz-adv-x="554" 
d="M481 853l-84 -106q-12 -16 -35 -16h-67q-26 0 -10 24l61 98q16 25 37 25h89q13 0 15.5 -7t-6.5 -18zM280 680h88q24 0 28 -25l110 -630q5 -25 -21 -25h-89q-22 0 -27 25l-19 122h-186l-51 -122q-11 -25 -32 -25h-83q-26 0 -15 25l263 630q10 25 34 25zM333 254l-18 111
q-10 63 -8 183q-32 -132 -53 -182l-47 -112h126z" />
    <glyph glyph-name="Acircumflex" unicode="&#xc2;" horiz-adv-x="554" 
d="M329 800l-30 -45q-16 -24 -37 -24h-64q-13 0 -16.5 7t5.5 17l85 98q21 25 43 25h47q20 0 36 -25l62 -98q7 -11 2 -17.5t-19 -6.5h-62q-21 0 -32 24zM280 680h88q24 0 28 -25l110 -630q5 -25 -21 -25h-89q-22 0 -27 25l-19 122h-186l-51 -122q-11 -25 -32 -25h-83
q-26 0 -15 25l263 630q10 25 34 25zM333 254l-18 111q-10 63 -8 183q-32 -132 -53 -182l-47 -112h126z" />
    <glyph glyph-name="Atilde" unicode="&#xc3;" horiz-adv-x="554" 
d="M249 786q-14 0 -20 -20l-3 -10q-6 -22 -29 -22h-42q-24 0 -17 29l9 41q8 37 34 57.5t61 20.5q34 0 60 -14l40 -21q28 -14 33 -14q9 0 13 5t9 19l2 6q7 22 29 22h44q24 0 18 -29l-9 -38q-19 -79 -89 -79q-38 0 -66 14l-43 21q-24 12 -34 12zM280 680h88q24 0 28 -25
l110 -630q5 -25 -21 -25h-89q-22 0 -27 25l-19 122h-186l-51 -122q-11 -25 -32 -25h-83q-26 0 -15 25l263 630q10 25 34 25zM333 254l-18 111q-10 63 -8 183q-32 -132 -53 -182l-47 -112h126z" />
    <glyph glyph-name="Adieresis" unicode="&#xc4;" horiz-adv-x="554" 
d="M315 850l-11 -93q-3 -25 -27 -25h-49q-24 0 -21 25l11 93q3 26 29 26h48q23 0 20 -26zM455 850l-11 -93q-3 -25 -27 -25h-49q-24 0 -21 25l11 93q3 26 28 26h49q23 0 20 -26zM280 680h88q24 0 28 -25l110 -630q5 -25 -21 -25h-89q-22 0 -27 25l-19 122h-186l-51 -122
q-11 -25 -32 -25h-83q-26 0 -15 25l263 630q10 25 34 25zM333 254l-18 111q-10 63 -8 183q-32 -132 -53 -182l-47 -112h126z" />
    <glyph glyph-name="Aring" unicode="&#xc5;" horiz-adv-x="554" 
d="M444 819l-3 -31q-8 -75 -113 -75q-57 0 -83.5 22t-23.5 58l3 30q7 76 116 76q57 0 82 -21.5t22 -58.5zM372 798l1 15q1 18 -8 24t-30 6q-42 0 -43 -30l-1 -15q-1 -15 8.5 -22.5t29.5 -7.5q42 0 43 30zM280 680h88q24 0 28 -25l110 -630q5 -25 -21 -25h-89q-22 0 -27 25
l-19 122h-186l-51 -122q-11 -25 -32 -25h-83q-26 0 -15 25l263 630q10 25 34 25zM333 254l-18 111q-10 63 -8 183q-32 -132 -53 -182l-47 -112h126z" />
    <glyph glyph-name="AE" unicode="&#xc6;" horiz-adv-x="823" 
d="M-14 0q-13 0 -18.5 7t2.5 18l453 630q17 25 40 25h333q26 0 23 -24l-8 -61q-3 -24 -28 -24h-231l-21 -166h214q26 0 23 -24l-7 -57q-3 -25 -28 -25h-214l-24 -190h242q26 0 23 -23l-9 -61q-4 -25 -27 -25h-345q-27 0 -23 26l16 121h-183l-86 -122q-19 -25 -33 -25h-84z
M369 400l-104 -146h120l26 211q-18 -31 -42 -65z" />
    <glyph glyph-name="Ccedilla" unicode="&#xc7;" horiz-adv-x="568" 
d="M374 -117q0 -46 -27 -70t-71 -24h-120q-24 0 -21 25l2 20q3 24 27 24h98q21 0 21 17q0 14 -18 14h-73q-40 0 -27 33l30 74q-80 11 -117 49t-37 91q0 6 2 26l44 363q19 163 251 163q114 0 167 -40t53 -103q0 -6 -2 -26l-5 -42q-3 -25 -26 -25h-84q-24 0 -21 25l3 19
q1 9 1 19q0 61 -94 61q-101 0 -110 -75l-39 -315q-2 -18 -2 -21q0 -61 94 -61q103 0 111 75l4 38q3 25 28 25h83q23 0 20 -25l-7 -62q-17 -155 -231 -163l-15 -37h31q35 0 56 -19t21 -53z" />
    <glyph glyph-name="Egrave" unicode="&#xc8;" horiz-adv-x="511" 
d="M254 747l-60 106q-6 11 -1.5 18t17.5 7h85q21 0 31 -25l37 -98q10 -24 -16 -24h-63q-22 0 -30 16zM411 0h-352q-25 0 -22 26l77 628q3 26 28 26h342q25 0 22 -24l-8 -63q-3 -25 -27 -25h-231l-20 -162h214q14 0 18.5 -5.5t3.5 -18.5l-8 -60q-3 -24 -27 -24h-215l-23 -186
h241q26 0 23 -24l-8 -63q-3 -25 -28 -25z" />
    <glyph glyph-name="Eacute" unicode="&#xc9;" horiz-adv-x="511" 
d="M457 853l-84 -106q-12 -16 -35 -16h-67q-26 0 -10 24l61 98q16 25 37 25h89q13 0 15.5 -7t-6.5 -18zM411 0h-352q-25 0 -22 26l77 628q3 26 28 26h342q25 0 22 -24l-8 -63q-3 -25 -27 -25h-231l-20 -162h214q14 0 18.5 -5.5t3.5 -18.5l-8 -60q-3 -24 -27 -24h-215
l-23 -186h241q26 0 23 -24l-8 -63q-3 -25 -28 -25z" />
    <glyph glyph-name="Ecircumflex" unicode="&#xca;" horiz-adv-x="511" 
d="M322 800l-30 -45q-16 -24 -37 -24h-64q-13 0 -16.5 7t5.5 17l85 98q21 25 43 25h47q20 0 36 -25l62 -98q7 -11 2 -17.5t-19 -6.5h-62q-21 0 -32 24zM411 0h-352q-25 0 -22 26l77 628q3 26 28 26h342q25 0 22 -24l-8 -63q-3 -25 -27 -25h-231l-20 -162h214q14 0 18.5 -5.5
t3.5 -18.5l-8 -60q-3 -24 -27 -24h-215l-23 -186h241q26 0 23 -24l-8 -63q-3 -25 -28 -25z" />
    <glyph glyph-name="Edieresis" unicode="&#xcb;" horiz-adv-x="511" 
d="M309 850l-11 -93q-3 -25 -27 -25h-49q-24 0 -21 25l11 93q3 26 29 26h48q23 0 20 -26zM449 850l-11 -93q-3 -25 -27 -25h-49q-24 0 -21 25l11 93q3 26 28 26h49q23 0 20 -26zM411 0h-352q-25 0 -22 26l77 628q3 26 28 26h342q25 0 22 -24l-8 -63q-3 -25 -27 -25h-231
l-20 -162h214q14 0 18.5 -5.5t3.5 -18.5l-8 -60q-3 -24 -27 -24h-215l-23 -186h241q26 0 23 -24l-8 -63q-3 -25 -28 -25z" />
    <glyph glyph-name="Igrave" unicode="&#xcc;" horiz-adv-x="275" 
d="M126 747l-60 106q-6 11 -1.5 18t17.5 7h85q21 0 31 -25l37 -98q10 -24 -16 -24h-63q-22 0 -30 16zM249 654l-77 -628q-3 -26 -26 -26h-87q-25 0 -22 26l77 628q3 26 28 26h87q23 0 20 -26z" />
    <glyph glyph-name="Iacute" unicode="&#xcd;" horiz-adv-x="275" 
d="M339 853l-84 -106q-12 -16 -35 -16h-67q-26 0 -10 24l61 98q16 25 37 25h89q13 0 15.5 -7t-6.5 -18zM249 654l-77 -628q-3 -26 -26 -26h-87q-25 0 -22 26l77 628q3 26 28 26h87q23 0 20 -26z" />
    <glyph glyph-name="Icircumflex" unicode="&#xce;" horiz-adv-x="275" 
d="M198 800l-30 -45q-16 -24 -37 -24h-64q-13 0 -16.5 7t5.5 17l85 98q21 25 43 25h47q20 0 36 -25l62 -98q7 -11 2 -17.5t-19 -6.5h-62q-21 0 -32 24zM249 654l-77 -628q-3 -26 -26 -26h-87q-25 0 -22 26l77 628q3 26 28 26h87q23 0 20 -26z" />
    <glyph glyph-name="Idieresis" unicode="&#xcf;" horiz-adv-x="275" 
d="M183 850l-11 -93q-3 -25 -27 -25h-49q-24 0 -21 25l11 93q3 26 29 26h48q23 0 20 -26zM323 850l-11 -93q-3 -25 -27 -25h-49q-24 0 -21 25l11 93q3 26 28 26h49q23 0 20 -26zM249 654l-77 -628q-3 -26 -26 -26h-87q-25 0 -22 26l77 628q3 26 28 26h87q23 0 20 -26z" />
    <glyph glyph-name="Eth" unicode="&#xd0;" horiz-adv-x="636" 
d="M562 163q-19 -163 -256 -163h-229q-22 0 -19 26l33 267h-51q-14 0 -18.5 5.5t-3.5 18.5l5 51q3 23 29 23h51l32 263q3 26 28 26h212q117 0 174 -42t57 -105q0 -8 -3 -29zM204 112h109q107 0 116 75l36 295q2 14 2 23q0 63 -99 63h-107l-22 -177h80q14 0 18.5 -5t3.5 -18
l-5 -51q-3 -24 -29 -24h-80z" />
    <glyph glyph-name="Ntilde" unicode="&#xd1;" horiz-adv-x="623" 
d="M312 786q-14 0 -20 -20l-3 -10q-6 -22 -29 -22h-42q-24 0 -17 29l9 41q8 37 34 57.5t61 20.5q34 0 60 -14l40 -21q28 -14 33 -14q9 0 13 5t9 19l2 6q7 22 29 22h44q24 0 18 -29l-9 -38q-19 -79 -89 -79q-38 0 -66 14l-43 21q-24 12 -34 12zM597 655l-77 -630
q-3 -25 -26 -25h-76q-17 0 -23 12l-152 331q-18 37 -30 82l-50 -400q-3 -25 -25 -25h-80q-25 0 -22 25l78 630q3 25 27 25h76q16 0 21 -10l159 -345q19 -41 25 -70l48 400q3 25 28 25h79q23 0 20 -25z" />
    <glyph glyph-name="Ograve" unicode="&#xd2;" horiz-adv-x="605" 
d="M286 747l-60 106q-6 11 -1.5 18t17.5 7h85q21 0 31 -25l37 -98q10 -24 -16 -24h-63q-22 0 -30 16zM43 162l44 363q9 72 70 117.5t189 45.5q115 0 171.5 -41.5t56.5 -103.5q0 -14 -1 -25l-44 -363q-8 -71 -70 -117t-190 -46q-115 0 -171.5 41t-56.5 104q0 7 2 25zM395 179
l40 315q2 16 2 19q0 63 -101 63q-49 0 -80.5 -19.5t-35.5 -55.5l-39 -315q-2 -16 -2 -19q0 -63 101 -63q106 0 115 75z" />
    <glyph glyph-name="Oacute" unicode="&#xd3;" horiz-adv-x="605" 
d="M496 853l-84 -106q-12 -16 -35 -16h-67q-26 0 -10 24l61 98q16 25 37 25h89q13 0 15.5 -7t-6.5 -18zM43 162l44 363q9 72 70 117.5t189 45.5q115 0 171.5 -41.5t56.5 -103.5q0 -14 -1 -25l-44 -363q-8 -71 -70 -117t-190 -46q-115 0 -171.5 41t-56.5 104q0 7 2 25z
M395 179l40 315q2 16 2 19q0 63 -101 63q-49 0 -80.5 -19.5t-35.5 -55.5l-39 -315q-2 -16 -2 -19q0 -63 101 -63q106 0 115 75z" />
    <glyph glyph-name="Ocircumflex" unicode="&#xd4;" horiz-adv-x="605" 
d="M363 800l-30 -45q-16 -24 -37 -24h-64q-13 0 -16.5 7t5.5 17l85 98q21 25 43 25h47q20 0 36 -25l62 -98q7 -11 2 -17.5t-19 -6.5h-62q-21 0 -32 24zM43 162l44 363q9 72 70 117.5t189 45.5q115 0 171.5 -41.5t56.5 -103.5q0 -14 -1 -25l-44 -363q-8 -71 -70 -117
t-190 -46q-115 0 -171.5 41t-56.5 104q0 7 2 25zM395 179l40 315q2 16 2 19q0 63 -101 63q-49 0 -80.5 -19.5t-35.5 -55.5l-39 -315q-2 -16 -2 -19q0 -63 101 -63q106 0 115 75z" />
    <glyph glyph-name="Otilde" unicode="&#xd5;" horiz-adv-x="605" 
d="M298 786q-14 0 -20 -20l-3 -10q-6 -22 -29 -22h-42q-24 0 -17 29l9 41q8 37 34 57.5t61 20.5q34 0 60 -14l40 -21q28 -14 33 -14q9 0 13 5t9 19l2 6q7 22 29 22h44q24 0 18 -29l-9 -38q-19 -79 -89 -79q-38 0 -66 14l-43 21q-24 12 -34 12zM43 162l44 363q9 72 70 117.5
t189 45.5q115 0 171.5 -41.5t56.5 -103.5q0 -14 -1 -25l-44 -363q-8 -71 -70 -117t-190 -46q-115 0 -171.5 41t-56.5 104q0 7 2 25zM395 179l40 315q2 16 2 19q0 63 -101 63q-49 0 -80.5 -19.5t-35.5 -55.5l-39 -315q-2 -16 -2 -19q0 -63 101 -63q106 0 115 75z" />
    <glyph glyph-name="Odieresis" unicode="&#xd6;" horiz-adv-x="605" 
d="M349 850l-11 -93q-3 -25 -27 -25h-49q-24 0 -21 25l11 93q3 26 29 26h48q23 0 20 -26zM489 850l-11 -93q-3 -25 -27 -25h-49q-24 0 -21 25l11 93q3 26 28 26h49q23 0 20 -26zM43 162l44 363q9 72 70 117.5t189 45.5q115 0 171.5 -41.5t56.5 -103.5q0 -14 -1 -25l-44 -363
q-8 -71 -70 -117t-190 -46q-115 0 -171.5 41t-56.5 104q0 7 2 25zM395 179l40 315q2 16 2 19q0 63 -101 63q-49 0 -80.5 -19.5t-35.5 -55.5l-39 -315q-2 -16 -2 -19q0 -63 101 -63q106 0 115 75z" />
    <glyph glyph-name="multiply" unicode="&#xd7;" horiz-adv-x="472" 
d="M165 342l-100 100q-17 18 -1 34l41 43q17 18 36 -1l100 -100l101 101q19 19 35 1l42 -43q17 -17 -1 -34l-101 -101l101 -100q18 -18 0 -36l-42 -42q-15 -15 -34 2l-101 100l-99 -100q-18 -18 -35 -1l-43 43q-17 17 1 35z" />
    <glyph glyph-name="Oslash" unicode="&#xd8;" horiz-adv-x="605" 
d="M131 -7q-11 -17 -19 -23.5t-23 -6.5h-34q-11 0 -12.5 9t6.5 21l33 52q-41 38 -41 92q0 5 2 25l44 363q9 72 70 117.5t189 45.5q74 0 126 -19l12 19q19 30 40 30h36q25 0 6 -30l-33 -53q41 -38 41 -92q0 -14 -1 -25l-44 -363q-8 -71 -70 -117t-190 -46q-75 0 -127 19z
M220 501l-36 -293l222 355q-25 13 -70 13q-49 0 -80.5 -19.5t-35.5 -55.5zM395 179l38 296l-224 -357q26 -14 71 -14q106 0 115 75z" />
    <glyph glyph-name="Ugrave" unicode="&#xd9;" horiz-adv-x="619" 
d="M301 747l-60 106q-6 11 -1.5 18t17.5 7h85q21 0 31 -25l37 -98q10 -24 -16 -24h-63q-22 0 -30 16zM245 654l-56 -456q-3 -22 -3 -30q0 -64 100 -64q107 0 116 75l60 475q3 26 26 26h87q25 0 22 -26l-62 -499q-19 -163 -257 -163q-114 0 -172 42t-58 105q0 12 2 28l61 487
q3 26 26 26h87q24 0 21 -26z" />
    <glyph glyph-name="Uacute" unicode="&#xda;" horiz-adv-x="619" 
d="M507 853l-84 -106q-12 -16 -35 -16h-67q-26 0 -10 24l61 98q16 25 37 25h89q13 0 15.5 -7t-6.5 -18zM245 654l-56 -456q-3 -22 -3 -30q0 -64 100 -64q107 0 116 75l60 475q3 26 26 26h87q25 0 22 -26l-62 -499q-19 -163 -257 -163q-114 0 -172 42t-58 105q0 12 2 28
l61 487q3 26 26 26h87q24 0 21 -26z" />
    <glyph glyph-name="Ucircumflex" unicode="&#xdb;" horiz-adv-x="619" 
d="M365 800l-30 -45q-16 -24 -37 -24h-64q-13 0 -16.5 7t5.5 17l85 98q21 25 43 25h47q20 0 36 -25l62 -98q7 -11 2 -17.5t-19 -6.5h-62q-21 0 -32 24zM245 654l-56 -456q-3 -22 -3 -30q0 -64 100 -64q107 0 116 75l60 475q3 26 26 26h87q25 0 22 -26l-62 -499
q-19 -163 -257 -163q-114 0 -172 42t-58 105q0 12 2 28l61 487q3 26 26 26h87q24 0 21 -26z" />
    <glyph glyph-name="Udieresis" unicode="&#xdc;" horiz-adv-x="619" 
d="M352 850l-11 -93q-3 -25 -27 -25h-49q-24 0 -21 25l11 93q3 26 29 26h48q23 0 20 -26zM492 850l-11 -93q-3 -25 -27 -25h-49q-24 0 -21 25l11 93q3 26 28 26h49q23 0 20 -26zM245 654l-56 -456q-3 -22 -3 -30q0 -64 100 -64q107 0 116 75l60 475q3 26 26 26h87
q25 0 22 -26l-62 -499q-19 -163 -257 -163q-114 0 -172 42t-58 105q0 12 2 28l61 487q3 26 26 26h87q24 0 21 -26z" />
    <glyph glyph-name="Yacute" unicode="&#xdd;" horiz-adv-x="543" 
d="M479 853l-84 -106q-12 -16 -35 -16h-67q-26 0 -10 24l61 98q16 25 37 25h89q13 0 15.5 -7t-6.5 -18zM204 655l67 -228q5 -20 10 -53q17 40 25 53l133 228q14 25 32 25h88q14 0 18 -6.5t-3 -18.5l-237 -395l-29 -235q-3 -25 -27 -25h-87q-25 0 -22 25l27 219l-140 411
q-8 25 21 25h97q20 0 27 -25z" />
    <glyph glyph-name="Thorn" unicode="&#xde;" horiz-adv-x="585" 
d="M249 655l-18 -157h95q115 0 171 -41.5t56 -103.5q0 -13 -1 -20l-10 -84q-8 -72 -68.5 -117t-189.5 -45h-104l-8 -62q-3 -25 -26 -25h-87q-25 0 -22 25l77 630q3 25 28 25h87q23 0 20 -25zM316 387h-99l-23 -189h99q51 0 82.5 19t35.5 56l4 39q1 6 1 11q0 64 -100 64z" />
    <glyph glyph-name="germandbls" unicode="&#xdf;" horiz-adv-x="644" 
d="M259 554l-65 -528q-3 -26 -27 -26h-83q-24 0 -21 26l45 366h-54q-25 0 -22 25l6 50q2 21 28 24l53 5h1l8 64q18 148 243 148q102 0 154.5 -34t52.5 -93q0 -6 -2 -22l-4 -34q-4 -32 -26 -56.5t-53 -37.5l-71 -29q-30 -13 -30 -27v-4q0 -18 27 -30l110 -53q76 -36 76 -95
q0 -7 -1 -16l-5 -43q-8 -69 -51 -105.5t-141 -36.5q-159 0 -159 112q0 7 1 20l1 12q3 25 29 25h56q23 0 21 -25l-1 -11q-1 -10 -1 -12q0 -38 58 -38q32 0 47 12.5t19 38.5l4 28q4 28 -33 45l-102 45q-76 34 -66 111l3 23q8 63 75 89l48 19q42 16 45 47l2 19q1 8 1 11
q0 53 -92 53q-96 0 -104 -62z" />
    <glyph glyph-name="agrave" unicode="&#xe0;" horiz-adv-x="540" 
d="M241 577l-60 106q-6 11 -1.5 18t17.5 7h85q22 0 32 -25l36 -98q9 -24 -17 -24h-62q-22 0 -30 16zM325 48q-79 -56 -163 -56q-64 0 -98 32t-34 89q0 9 2 25l27 222q18 146 159 146q89 0 154 -55l5 22q6 25 27 25h80q24 0 21 -25l-55 -447q-3 -26 -27 -26h-78q-22 0 -21 26
zM188 340l-23 -182q-1 -9 -1 -14q0 -38 49 -38q52 0 121 45l25 195q-57 46 -110 46q-55 0 -61 -52z" />
    <glyph glyph-name="aacute" unicode="&#xe1;" horiz-adv-x="540" 
d="M439 683l-85 -106q-12 -16 -34 -16h-67q-25 0 -11 24l61 98q15 25 37 25h90q13 0 15.5 -7t-6.5 -18zM325 48q-79 -56 -163 -56q-64 0 -98 32t-34 89q0 9 2 25l27 222q18 146 159 146q89 0 154 -55l5 22q6 25 27 25h80q24 0 21 -25l-55 -447q-3 -26 -27 -26h-78
q-22 0 -21 26zM188 340l-23 -182q-1 -9 -1 -14q0 -38 49 -38q52 0 121 45l25 195q-57 46 -110 46q-55 0 -61 -52z" />
    <glyph glyph-name="acircumflex" unicode="&#xe2;" horiz-adv-x="540" 
d="M305 630l-30 -45q-16 -24 -38 -24h-64q-13 0 -16.5 7t5.5 17l85 98q21 25 43 25h48q20 0 36 -25l61 -98q7 -11 2 -17.5t-19 -6.5h-62q-20 0 -31 24zM325 48q-79 -56 -163 -56q-64 0 -98 32t-34 89q0 9 2 25l27 222q18 146 159 146q89 0 154 -55l5 22q6 25 27 25h80
q24 0 21 -25l-55 -447q-3 -26 -27 -26h-78q-22 0 -21 26zM188 340l-23 -182q-1 -9 -1 -14q0 -38 49 -38q52 0 121 45l25 195q-57 46 -110 46q-55 0 -61 -52z" />
    <glyph glyph-name="atilde" unicode="&#xe3;" horiz-adv-x="540" 
d="M242 607q-14 0 -20 -20l-3 -10q-6 -22 -29 -22h-42q-24 0 -17 29l9 42q8 37 34 57t61 20q34 0 60 -14l40 -21q26 -13 33 -13q9 0 13 4.5t9 18.5l2 6q7 22 29 22h44q24 0 18 -29l-9 -38q-19 -78 -89 -78q-38 0 -66 14l-43 21q-22 11 -34 11zM325 48q-79 -56 -163 -56
q-64 0 -98 32t-34 89q0 9 2 25l27 222q18 146 159 146q89 0 154 -55l5 22q6 25 27 25h80q24 0 21 -25l-55 -447q-3 -26 -27 -26h-78q-22 0 -21 26zM188 340l-23 -182q-1 -9 -1 -14q0 -38 49 -38q52 0 121 45l25 195q-57 46 -110 46q-55 0 -61 -52z" />
    <glyph glyph-name="adieresis" unicode="&#xe4;" horiz-adv-x="540" 
d="M292 681l-12 -93q-3 -25 -26 -25h-49q-24 0 -21 25l11 93q3 25 28 25h48q24 0 21 -25zM432 681l-12 -93q-3 -25 -27 -25h-48q-24 0 -21 25l11 93q3 25 27 25h49q24 0 21 -25zM325 48q-79 -56 -163 -56q-64 0 -98 32t-34 89q0 9 2 25l27 222q18 146 159 146q89 0 154 -55
l5 22q6 25 27 25h80q24 0 21 -25l-55 -447q-3 -26 -27 -26h-78q-22 0 -21 26zM188 340l-23 -182q-1 -9 -1 -14q0 -38 49 -38q52 0 121 45l25 195q-57 46 -110 46q-55 0 -61 -52z" />
    <glyph glyph-name="aring" unicode="&#xe5;" horiz-adv-x="540" 
d="M423 650l-3 -30q-7 -76 -113 -76q-57 0 -84 21.5t-23 58.5l3 30q7 76 116 76q56 0 82 -21.5t22 -58.5zM351 629l1 15q1 16 -8.5 23t-29.5 7q-42 0 -43 -30l-1 -15q-1 -16 8.5 -23t29.5 -7q42 0 43 30zM325 48q-79 -56 -163 -56q-64 0 -98 32t-34 89q0 9 2 25l27 222
q18 146 159 146q89 0 154 -55l5 22q6 25 27 25h80q24 0 21 -25l-55 -447q-3 -26 -27 -26h-78q-22 0 -21 26zM188 340l-23 -182q-1 -9 -1 -14q0 -38 49 -38q52 0 121 45l25 195q-57 46 -110 46q-55 0 -61 -52z" />
    <glyph glyph-name="ae" unicode="&#xe6;" horiz-adv-x="780" 
d="M742 359l-13 -116q-3 -23 -26 -23h-256l-9 -72q-1 -9 -1 -14q0 -44 73 -44q41 0 59.5 12.5t23.5 38.5l2 10q4 25 27 25h70q25 0 21 -25l-2 -14q-10 -71 -56.5 -108t-152.5 -37q-131 0 -174 63q-76 -63 -167 -63q-65 0 -104.5 29t-39.5 79q0 9 1 17l5 47q6 54 48 89
t118 35h137l8 60q1 9 1 17q0 45 -69 45q-43 0 -61.5 -11.5t-20.5 -38.5l-1 -11q-3 -25 -28 -25h-73q-26 0 -22 25l2 13q11 71 59.5 107.5t152.5 36.5q92 0 133 -43q52 43 149 43q93 0 140 -33.5t47 -93.5q0 -12 -1 -20zM463 353l-6 -45h157l5 37q1 8 1 17q0 46 -73 46
q-76 0 -84 -55zM193 95q49 0 115 45l7 56h-113q-46 0 -52 -43l-1 -8q-1 -9 -1 -15q0 -35 45 -35z" />
    <glyph glyph-name="ccedilla" unicode="&#xe7;" horiz-adv-x="494" 
d="M339 -117q0 -46 -27 -70t-71 -24h-120q-24 0 -21 25l2 20q3 24 27 24h98q21 0 21 17q0 14 -18 14h-73q-40 0 -27 33l30 74q-131 21 -131 124q0 10 1 20l27 219q18 147 221 147q96 0 143 -34.5t47 -93.5q0 -8 -1 -21l-1 -15q-1 -24 -28 -24h-76q-24 0 -21 23l1 8q1 8 1 12
q0 41 -72 41q-42 0 -60.5 -12.5t-22.5 -40.5l-23 -185q-2 -16 -2 -26q0 -42 71 -42q42 0 60.5 13t22.5 41l2 15q3 25 27 25h77q25 0 21 -25l-3 -25q-8 -67 -53.5 -105t-141.5 -42l-15 -38h31q35 0 56 -19t21 -53z" />
    <glyph glyph-name="egrave" unicode="&#xe8;" horiz-adv-x="501" 
d="M220 577l-60 106q-6 11 -1.5 18t17.5 7h85q22 0 32 -25l36 -98q9 -24 -17 -24h-62q-22 0 -30 16zM464 359l-14 -116q-3 -23 -26 -23h-256l-7 -62q-2 -16 -2 -23q0 -45 71 -45q80 0 85 51l1 10q3 25 28 25h70q23 0 21 -25l-1 -11q-6 -73 -54.5 -110.5t-157.5 -37.5
q-96 0 -144.5 34t-48.5 94q0 10 1 20l27 219q18 147 220 147q93 0 140.5 -33.5t47.5 -93.5q0 -9 -1 -20zM185 353l-6 -45h157l5 38q1 11 1 16q0 46 -73 46q-76 0 -84 -55z" />
    <glyph glyph-name="eacute" unicode="&#xe9;" horiz-adv-x="501" 
d="M425 683l-85 -106q-12 -16 -34 -16h-67q-25 0 -11 24l61 98q15 25 37 25h90q13 0 15.5 -7t-6.5 -18zM464 359l-14 -116q-3 -23 -26 -23h-256l-7 -62q-2 -16 -2 -23q0 -45 71 -45q80 0 85 51l1 10q3 25 28 25h70q23 0 21 -25l-1 -11q-6 -73 -54.5 -110.5t-157.5 -37.5
q-96 0 -144.5 34t-48.5 94q0 10 1 20l27 219q18 147 220 147q93 0 140.5 -33.5t47.5 -93.5q0 -9 -1 -20zM185 353l-6 -45h157l5 38q1 11 1 16q0 46 -73 46q-76 0 -84 -55z" />
    <glyph glyph-name="ecircumflex" unicode="&#xea;" horiz-adv-x="501" 
d="M290 630l-30 -45q-16 -24 -38 -24h-64q-13 0 -16.5 7t5.5 17l85 98q21 25 43 25h48q20 0 36 -25l61 -98q7 -11 2 -17.5t-19 -6.5h-62q-20 0 -31 24zM464 359l-14 -116q-3 -23 -26 -23h-256l-7 -62q-2 -16 -2 -23q0 -45 71 -45q80 0 85 51l1 10q3 25 28 25h70q23 0 21 -25
l-1 -11q-6 -73 -54.5 -110.5t-157.5 -37.5q-96 0 -144.5 34t-48.5 94q0 10 1 20l27 219q18 147 220 147q93 0 140.5 -33.5t47.5 -93.5q0 -9 -1 -20zM185 353l-6 -45h157l5 38q1 11 1 16q0 46 -73 46q-76 0 -84 -55z" />
    <glyph glyph-name="edieresis" unicode="&#xeb;" horiz-adv-x="501" 
d="M270 681l-12 -93q-3 -25 -26 -25h-49q-24 0 -21 25l11 93q3 25 28 25h48q24 0 21 -25zM410 681l-12 -93q-3 -25 -27 -25h-48q-24 0 -21 25l11 93q3 25 27 25h49q24 0 21 -25zM464 359l-14 -116q-3 -23 -26 -23h-256l-7 -62q-2 -16 -2 -23q0 -45 71 -45q80 0 85 51l1 10
q3 25 28 25h70q23 0 21 -25l-1 -11q-6 -73 -54.5 -110.5t-157.5 -37.5q-96 0 -144.5 34t-48.5 94q0 10 1 20l27 219q18 147 220 147q93 0 140.5 -33.5t47.5 -93.5q0 -9 -1 -20zM185 353l-6 -45h157l5 38q1 11 1 16q0 46 -73 46q-76 0 -84 -55z" />
    <glyph glyph-name="igrave" unicode="&#xec;" horiz-adv-x="246" 
d="M91 577l-60 106q-6 11 -1.5 18t17.5 7h85q22 0 32 -25l36 -98q9 -24 -17 -24h-62q-22 0 -30 16zM210 473l-54 -448q-3 -25 -28 -25h-83q-24 0 -21 25l55 448q3 25 28 25h83q13 0 17.5 -5.5t2.5 -19.5z" />
    <glyph glyph-name="iacute" unicode="&#xed;" horiz-adv-x="246" 
d="M303 683l-85 -106q-12 -16 -34 -16h-67q-25 0 -11 24l61 98q15 25 37 25h90q13 0 15.5 -7t-6.5 -18zM210 473l-54 -448q-3 -25 -28 -25h-83q-24 0 -21 25l55 448q3 25 28 25h83q13 0 17.5 -5.5t2.5 -19.5z" />
    <glyph glyph-name="icircumflex" unicode="&#xee;" horiz-adv-x="246" 
d="M165 630l-30 -45q-16 -24 -38 -24h-64q-13 0 -16.5 7t5.5 17l85 98q21 25 43 25h48q20 0 36 -25l61 -98q7 -11 2 -17.5t-19 -6.5h-62q-20 0 -31 24zM210 473l-54 -448q-3 -25 -28 -25h-83q-24 0 -21 25l55 448q3 25 28 25h83q13 0 17.5 -5.5t2.5 -19.5z" />
    <glyph glyph-name="idieresis" unicode="&#xef;" horiz-adv-x="246" 
d="M152 681l-12 -93q-3 -25 -26 -25h-49q-24 0 -21 25l11 93q3 25 28 25h48q24 0 21 -25zM292 681l-12 -93q-3 -25 -27 -25h-48q-24 0 -21 25l11 93q3 25 27 25h49q24 0 21 -25zM210 473l-54 -448q-3 -25 -28 -25h-83q-24 0 -21 25l55 448q3 25 28 25h83q13 0 17.5 -5.5
t2.5 -19.5z" />
    <glyph glyph-name="eth" unicode="&#xf0;" horiz-adv-x="530" 
d="M456 139q-18 -147 -222 -147q-98 0 -150.5 35t-52.5 95q0 9 1 17l26 221q16 146 160 146q89 0 153 -54l11 92l-41 -19q-23 -10 -32 9l-7 15q-9 19 15 32l46 23q-18 11 -55 11h-98q-24 0 -21 25l4 41q3 25 29 25h98q107 0 154 -43l47 24q23 12 33 -9l7 -15q9 -20 -15 -33
l-40 -21q5 -21 2 -52zM334 150l25 197q-57 46 -110 46q-56 0 -62 -52l-22 -183q-1 -8 -1 -16q0 -47 78 -47q85 0 92 55z" />
    <glyph glyph-name="ntilde" unicode="&#xf1;" horiz-adv-x="544" 
d="M248 607q-14 0 -20 -20l-3 -10q-6 -22 -29 -22h-42q-24 0 -17 29l9 42q8 37 34 57t61 20q34 0 60 -14l40 -21q26 -13 33 -13q9 0 13 4.5t9 18.5l2 6q7 22 29 22h44q24 0 18 -29l-9 -38q-19 -78 -89 -78q-38 0 -66 14l-43 21q-22 11 -34 11zM106 498h78q23 0 22 -24
l-1 -24q73 56 162 56q60 0 96.5 -32.5t36.5 -84.5q0 -8 -2 -24l-41 -339q-3 -26 -28 -26h-81q-26 0 -22 26l37 306q2 16 2 22q0 38 -48 38q-57 0 -122 -45l-39 -321q-3 -26 -27 -26h-84q-24 0 -21 26l56 448q3 24 26 24z" />
    <glyph glyph-name="ograve" unicode="&#xf2;" horiz-adv-x="529" 
d="M235 577l-60 106q-6 11 -1.5 18t17.5 7h85q22 0 32 -25l36 -98q9 -24 -17 -24h-62q-22 0 -30 16zM30 140l27 219q18 147 231 147q97 0 149.5 -34.5t52.5 -94.5q0 -9 -1 -18l-27 -219q-18 -148 -230 -148q-98 0 -150.5 35t-52.5 96q0 8 1 17zM333 151l22 181q2 15 2 26
q0 44 -78 44q-86 0 -92 -54l-22 -181q-2 -16 -2 -26q0 -45 78 -45q85 0 92 55z" />
    <glyph glyph-name="oacute" unicode="&#xf3;" horiz-adv-x="529" 
d="M437 683l-85 -106q-12 -16 -34 -16h-67q-25 0 -11 24l61 98q15 25 37 25h90q13 0 15.5 -7t-6.5 -18zM30 140l27 219q18 147 231 147q97 0 149.5 -34.5t52.5 -94.5q0 -9 -1 -18l-27 -219q-18 -148 -230 -148q-98 0 -150.5 35t-52.5 96q0 8 1 17zM333 151l22 181q2 15 2 26
q0 44 -78 44q-86 0 -92 -54l-22 -181q-2 -16 -2 -26q0 -45 78 -45q85 0 92 55z" />
    <glyph glyph-name="ocircumflex" unicode="&#xf4;" horiz-adv-x="529" 
d="M306 630l-30 -45q-16 -24 -38 -24h-64q-13 0 -16.5 7t5.5 17l85 98q21 25 43 25h48q20 0 36 -25l61 -98q7 -11 2 -17.5t-19 -6.5h-62q-20 0 -31 24zM30 140l27 219q18 147 231 147q97 0 149.5 -34.5t52.5 -94.5q0 -9 -1 -18l-27 -219q-18 -148 -230 -148q-98 0 -150.5 35
t-52.5 96q0 8 1 17zM333 151l22 181q2 15 2 26q0 44 -78 44q-86 0 -92 -54l-22 -181q-2 -16 -2 -26q0 -45 78 -45q85 0 92 55z" />
    <glyph glyph-name="otilde" unicode="&#xf5;" horiz-adv-x="529" 
d="M226 607q-14 0 -20 -20l-3 -10q-6 -22 -29 -22h-42q-24 0 -17 29l9 42q8 37 34 57t61 20q34 0 60 -14l40 -21q26 -13 33 -13q9 0 13 4.5t9 18.5l2 6q7 22 29 22h44q24 0 18 -29l-9 -38q-19 -78 -89 -78q-38 0 -66 14l-43 21q-22 11 -34 11zM30 140l27 219q18 147 231 147
q97 0 149.5 -34.5t52.5 -94.5q0 -9 -1 -18l-27 -219q-18 -148 -230 -148q-98 0 -150.5 35t-52.5 96q0 8 1 17zM333 151l22 181q2 15 2 26q0 44 -78 44q-86 0 -92 -54l-22 -181q-2 -16 -2 -26q0 -45 78 -45q85 0 92 55z" />
    <glyph glyph-name="odieresis" unicode="&#xf6;" horiz-adv-x="529" 
d="M289 681l-12 -93q-3 -25 -26 -25h-49q-24 0 -21 25l11 93q3 25 28 25h48q24 0 21 -25zM429 681l-12 -93q-3 -25 -27 -25h-48q-24 0 -21 25l11 93q3 25 27 25h49q24 0 21 -25zM30 140l27 219q18 147 231 147q97 0 149.5 -34.5t52.5 -94.5q0 -9 -1 -18l-27 -219
q-18 -148 -230 -148q-98 0 -150.5 35t-52.5 96q0 8 1 17zM333 151l22 181q2 15 2 26q0 44 -78 44q-86 0 -92 -54l-22 -181q-2 -16 -2 -26q0 -45 78 -45q85 0 92 55z" />
    <glyph glyph-name="divide" unicode="&#xf7;" horiz-adv-x="539" 
d="M337 517v-81q0 -25 -24 -25h-85q-25 0 -25 25v81q0 25 25 25h85q24 0 24 -25zM64 352h412q25 0 25 -24v-60q0 -24 -25 -24h-412q-25 0 -25 24v60q0 24 25 24zM337 161v-82q0 -24 -24 -24h-85q-25 0 -25 24v82q0 25 25 25h85q24 0 24 -25z" />
    <glyph glyph-name="oslash" unicode="&#xf8;" horiz-adv-x="529" 
d="M131 -8q-11 -17 -19.5 -23.5t-23.5 -6.5h-32q-8 0 -10.5 5t0 11.5t6.5 13.5l25 38q-48 34 -48 93q0 9 1 17l27 219q18 147 231 147q52 0 94 -11l8 13q20 30 39 30h35q26 0 5 -30l-26 -40q47 -33 47 -91q0 -11 -1 -18l-27 -219q-18 -148 -230 -148q-52 0 -94 11zM187 348
l-22 -184l153 234q-15 4 -39 4q-85 0 -92 -54zM241 96q85 0 92 55l23 184l-155 -235q15 -4 40 -4z" />
    <glyph glyph-name="ugrave" unicode="&#xf9;" horiz-adv-x="538" 
d="M237 577l-60 106q-6 11 -1.5 18t17.5 7h85q22 0 32 -25l36 -98q9 -24 -17 -24h-62q-22 0 -30 16zM322 25l1 22q-69 -55 -157 -55q-61 0 -97 32t-36 84q0 9 1 18l43 347q3 25 27 25h82q24 0 22 -25l-38 -314q-1 -8 -1 -16q0 -19 11 -28t37 -9q53 0 116 44l39 323
q3 25 27 25h83q24 0 21 -25l-55 -448q-3 -25 -28 -25h-76q-13 0 -18 5.5t-4 19.5z" />
    <glyph glyph-name="uacute" unicode="&#xfa;" horiz-adv-x="538" 
d="M446 683l-85 -106q-12 -16 -34 -16h-67q-25 0 -11 24l61 98q15 25 37 25h90q13 0 15.5 -7t-6.5 -18zM322 25l1 22q-69 -55 -157 -55q-61 0 -97 32t-36 84q0 9 1 18l43 347q3 25 27 25h82q24 0 22 -25l-38 -314q-1 -8 -1 -16q0 -19 11 -28t37 -9q53 0 116 44l39 323
q3 25 27 25h83q24 0 21 -25l-55 -448q-3 -25 -28 -25h-76q-13 0 -18 5.5t-4 19.5z" />
    <glyph glyph-name="ucircumflex" unicode="&#xfb;" horiz-adv-x="538" 
d="M306 630l-30 -45q-16 -24 -38 -24h-64q-13 0 -16.5 7t5.5 17l85 98q21 25 43 25h48q20 0 36 -25l61 -98q7 -11 2 -17.5t-19 -6.5h-62q-20 0 -31 24zM322 25l1 22q-69 -55 -157 -55q-61 0 -97 32t-36 84q0 9 1 18l43 347q3 25 27 25h82q24 0 22 -25l-38 -314q-1 -8 -1 -16
q0 -19 11 -28t37 -9q53 0 116 44l39 323q3 25 27 25h83q24 0 21 -25l-55 -448q-3 -25 -28 -25h-76q-13 0 -18 5.5t-4 19.5z" />
    <glyph glyph-name="udieresis" unicode="&#xfc;" horiz-adv-x="538" 
d="M290 681l-12 -93q-3 -25 -26 -25h-49q-24 0 -21 25l11 93q3 25 28 25h48q24 0 21 -25zM430 681l-12 -93q-3 -25 -27 -25h-48q-24 0 -21 25l11 93q3 25 27 25h49q24 0 21 -25zM322 25l1 22q-69 -55 -157 -55q-61 0 -97 32t-36 84q0 9 1 18l43 347q3 25 27 25h82
q24 0 22 -25l-38 -314q-1 -8 -1 -16q0 -19 11 -28t37 -9q53 0 116 44l39 323q3 25 27 25h83q24 0 21 -25l-55 -448q-3 -25 -28 -25h-76q-13 0 -18 5.5t-4 19.5z" />
    <glyph glyph-name="yacute" unicode="&#xfd;" horiz-adv-x="478" 
d="M419 683l-85 -106q-12 -16 -34 -16h-67q-25 0 -11 24l61 98q15 25 37 25h90q13 0 15.5 -7t-6.5 -18zM488 473l-301 -649q-12 -25 -31 -25h-62q-30 0 -20 25l69 163l-109 486q-3 12 5 18.5t22 6.5h82q9 0 14 -3.5t7 -8t4 -13.5l46 -229q8 -40 8 -85q22 60 31 81l106 233
q11 25 31 25h77q14 0 20.5 -6.5t0.5 -18.5z" />
    <glyph glyph-name="thorn" unicode="&#xfe;" horiz-adv-x="541" 
d="M312 -8q-88 0 -154 53l-26 -221q-3 -25 -27 -25h-83q-24 0 -22 25l105 850q3 25 27 25h83q24 0 21 -25l-27 -222q76 54 159 54q63 0 98 -32t35 -89q0 -10 -2 -26l-28 -221q-18 -146 -159 -146zM281 105q56 0 62 53l22 178q2 14 2 18q0 39 -50 39q-55 0 -121 -46l-24 -197
q54 -45 109 -45z" />
    <glyph glyph-name="ydieresis" unicode="&#xff;" horiz-adv-x="478" 
d="M256 681l-12 -93q-3 -25 -26 -25h-49q-24 0 -21 25l11 93q3 25 28 25h48q24 0 21 -25zM396 681l-12 -93q-3 -25 -27 -25h-48q-24 0 -21 25l11 93q3 25 27 25h49q24 0 21 -25zM488 473l-301 -649q-12 -25 -31 -25h-62q-30 0 -20 25l69 163l-109 486q-3 12 5 18.5t22 6.5
h82q9 0 14 -3.5t7 -8t4 -13.5l46 -229q8 -40 8 -85q22 60 31 81l106 233q11 25 31 25h77q14 0 20.5 -6.5t0.5 -18.5z" />
    <glyph glyph-name="Amacron" unicode="&#x100;" horiz-adv-x="554" 
d="M219 849h230q25 0 22 -23l-5 -51q-3 -25 -29 -25h-230q-25 0 -22 25l5 51q3 23 29 23zM280 680h88q24 0 28 -25l110 -630q5 -25 -21 -25h-89q-22 0 -27 25l-19 122h-186l-51 -122q-11 -25 -32 -25h-83q-26 0 -15 25l263 630q10 25 34 25zM333 254l-18 111q-10 63 -8 183
q-32 -132 -53 -182l-47 -112h126z" />
    <glyph glyph-name="amacron" unicode="&#x101;" horiz-adv-x="540" 
d="M196 671h231q25 0 22 -23l-6 -52q-3 -24 -29 -24h-230q-25 0 -22 24l6 51q3 24 28 24zM325 48q-79 -56 -163 -56q-64 0 -98 32t-34 89q0 9 2 25l27 222q18 146 159 146q89 0 154 -55l5 22q6 25 27 25h80q24 0 21 -25l-55 -447q-3 -26 -27 -26h-78q-22 0 -21 26zM188 340
l-23 -182q-1 -9 -1 -14q0 -38 49 -38q52 0 121 45l25 195q-57 46 -110 46q-55 0 -61 -52z" />
    <glyph glyph-name="Abreve" unicode="&#x102;" horiz-adv-x="554" 
d="M288 871l-2 -14q-1 -8 -1 -12q0 -35 42 -35q47 0 50 45l1 16q1 20 25 20h50q22 0 19 -20l-2 -13q-9 -63 -44 -94.5t-104 -31.5q-60 0 -95.5 27t-35.5 76q0 12 1 20l2 16q3 20 25 20h49q23 0 20 -20zM280 680h88q24 0 28 -25l110 -630q5 -25 -21 -25h-89q-22 0 -27 25
l-19 122h-186l-51 -122q-11 -25 -32 -25h-83q-26 0 -15 25l263 630q10 25 34 25zM333 254l-18 111q-10 63 -8 183q-32 -132 -53 -182l-47 -112h126z" />
    <glyph glyph-name="abreve" unicode="&#x103;" horiz-adv-x="540" 
d="M266 685l-2 -14q-1 -8 -1 -12q0 -35 42 -35q47 0 50 45l1 16q1 21 25 21h50q23 0 19 -21l-2 -12q-10 -63 -44.5 -94.5t-103.5 -31.5q-60 0 -95.5 26.5t-35.5 75.5q0 12 1 20l2 16q3 21 25 21h49q23 0 20 -21zM325 48q-79 -56 -163 -56q-64 0 -98 32t-34 89q0 9 2 25
l27 222q18 146 159 146q89 0 154 -55l5 22q6 25 27 25h80q24 0 21 -25l-55 -447q-3 -26 -27 -26h-78q-22 0 -21 26zM188 340l-23 -182q-1 -9 -1 -14q0 -38 49 -38q52 0 121 45l25 195q-57 46 -110 46q-55 0 -61 -52z" />
    <glyph glyph-name="Aogonek" unicode="&#x104;" horiz-adv-x="554" 
d="M280 680h88q24 0 28 -25l110 -630q5 -25 -21 -25h-33q-48 0 -48 -59q0 -29 37 -29h25q14 0 20 -5.5t5 -18.5l-4 -34q-3 -25 -33 -25h-53q-36 0 -65.5 18.5t-29.5 64.5q0 71 60 128l-16 107h-186l-51 -122q-11 -25 -32 -25h-83q-26 0 -15 25l263 630q10 25 34 25zM333 254
l-18 111q-11 69 -8 182q-29 -122 -53 -181l-47 -112h126z" />
    <glyph glyph-name="aogonek" unicode="&#x105;" horiz-adv-x="540" 
d="M436 -146q-3 -25 -33 -25h-36q-37 0 -66.5 19t-29.5 65q0 63 54 111v24q-79 -56 -163 -56q-64 0 -98 32t-34 89q0 7 2 25l27 222q18 146 159 146q89 0 154 -55l5 22q6 25 27 25h80q24 0 21 -25l-55 -447q-3 -26 -27 -26h-8q-20 0 -33.5 -17t-13.5 -40q0 -31 39 -31h8
q13 0 19.5 -5.5t5.5 -18.5zM188 340l-23 -182q-1 -6 -1 -14q0 -38 49 -38q52 0 121 45l25 195q-57 46 -110 46q-55 0 -61 -52z" />
    <glyph glyph-name="Cacute" unicode="&#x106;" horiz-adv-x="569" 
d="M494 853l-84 -106q-12 -16 -35 -16h-67q-26 0 -10 24l61 98q16 25 37 25h89q13 0 15.5 -7t-6.5 -18zM519 217l-7 -62q-17 -163 -251 -163q-114 0 -167 40.5t-53 103.5q0 6 2 26l44 363q19 163 251 163q114 0 167 -40t53 -103q0 -6 -2 -26l-5 -42q-3 -25 -26 -25h-84
q-24 0 -21 25l3 19q1 9 1 19q0 61 -94 61q-101 0 -110 -75l-39 -315q-2 -18 -2 -21q0 -61 94 -61q103 0 111 75l4 38q3 25 28 25h83q23 0 20 -25z" />
    <glyph glyph-name="cacute" unicode="&#x107;" horiz-adv-x="494" 
d="M432 683l-85 -106q-12 -16 -34 -16h-67q-25 0 -11 24l61 98q15 25 37 25h90q13 0 15.5 -7t-6.5 -18zM278 506q96 0 143 -34.5t47 -93.5q0 -8 -1 -21l-1 -15q-1 -24 -28 -24h-76q-24 0 -21 23l1 8q1 8 1 12q0 41 -72 41q-42 0 -60.5 -12.5t-22.5 -40.5l-23 -185
q-2 -16 -2 -26q0 -42 71 -42q42 0 60.5 13t22.5 41l2 15q3 25 27 25h77q25 0 21 -25l-3 -25q-9 -72 -59.5 -110t-160.5 -38q-96 0 -144 34t-48 94q0 10 1 20l27 219q18 147 221 147z" />
    <glyph glyph-name="Ccircumflex" unicode="&#x108;" horiz-adv-x="569" 
d="M352 800l-30 -45q-16 -24 -37 -24h-64q-13 0 -16.5 7t5.5 17l85 98q21 25 43 25h47q20 0 36 -25l62 -98q7 -11 2 -17.5t-19 -6.5h-62q-21 0 -32 24zM519 217l-7 -62q-17 -163 -251 -163q-114 0 -167 40.5t-53 103.5q0 6 2 26l44 363q19 163 251 163q114 0 167 -40
t53 -103q0 -6 -2 -26l-5 -42q-3 -25 -26 -25h-84q-24 0 -21 25l3 19q1 9 1 19q0 61 -94 61q-101 0 -110 -75l-39 -315q-2 -18 -2 -21q0 -61 94 -61q103 0 111 75l4 38q3 25 28 25h83q23 0 20 -25z" />
    <glyph glyph-name="ccircumflex" unicode="&#x109;" horiz-adv-x="494" 
d="M297 630l-30 -45q-16 -24 -38 -24h-64q-13 0 -16.5 7t5.5 17l85 98q21 25 43 25h48q20 0 36 -25l61 -98q7 -11 2 -17.5t-19 -6.5h-62q-20 0 -31 24zM278 506q96 0 143 -34.5t47 -93.5q0 -8 -1 -21l-1 -15q-1 -24 -28 -24h-76q-24 0 -21 23l1 8q1 8 1 12q0 41 -72 41
q-42 0 -60.5 -12.5t-22.5 -40.5l-23 -185q-2 -16 -2 -26q0 -42 71 -42q42 0 60.5 13t22.5 41l2 15q3 25 27 25h77q25 0 21 -25l-3 -25q-9 -72 -59.5 -110t-160.5 -38q-96 0 -144 34t-48 94q0 10 1 20l27 219q18 147 221 147z" />
    <glyph glyph-name="Cdotaccent" unicode="&#x10a;" horiz-adv-x="569" 
d="M420 839l-10 -82q-3 -24 -26 -24h-86q-13 0 -18 5t-3 19l10 82q3 25 27 25h86q23 0 20 -25zM519 217l-7 -62q-17 -163 -251 -163q-114 0 -167 40.5t-53 103.5q0 6 2 26l44 363q19 163 251 163q114 0 167 -40t53 -103q0 -6 -2 -26l-5 -42q-3 -25 -26 -25h-84q-24 0 -21 25
l3 19q1 9 1 19q0 61 -94 61q-101 0 -110 -75l-39 -315q-2 -18 -2 -21q0 -61 94 -61q103 0 111 75l4 38q3 25 28 25h83q23 0 20 -25z" />
    <glyph glyph-name="cdotaccent" unicode="&#x10b;" horiz-adv-x="494" 
d="M357 677l-9 -81q-3 -25 -28 -25h-85q-24 0 -21 25l9 81q3 25 28 25h86q13 0 17.5 -5.5t2.5 -19.5zM278 506q96 0 143 -34.5t47 -93.5q0 -8 -1 -21l-1 -15q-1 -24 -28 -24h-76q-24 0 -21 23l1 8q1 8 1 12q0 41 -72 41q-42 0 -60.5 -12.5t-22.5 -40.5l-23 -185
q-2 -16 -2 -26q0 -42 71 -42q42 0 60.5 13t22.5 41l2 15q3 25 27 25h77q25 0 21 -25l-3 -25q-9 -72 -59.5 -110t-160.5 -38q-96 0 -144 34t-48 94q0 10 1 20l27 219q18 147 221 147z" />
    <glyph glyph-name="Ccaron" unicode="&#x10c;" horiz-adv-x="569" 
d="M333 853l20 -44l30 44q17 25 38 25h64q13 0 16 -7t-6 -18l-84 -98q-19 -24 -43 -24h-48q-21 0 -36 25l-61 97q-7 11 -2 18t19 7h62q21 0 31 -25zM519 217l-7 -62q-17 -163 -251 -163q-114 0 -167 40.5t-53 103.5q0 6 2 26l44 363q19 163 251 163q114 0 167 -40t53 -103
q0 -6 -2 -26l-5 -42q-3 -25 -26 -25h-84q-24 0 -21 25l3 19q1 9 1 19q0 61 -94 61q-101 0 -110 -75l-39 -315q-2 -18 -2 -21q0 -61 94 -61q103 0 111 75l4 38q3 25 28 25h83q23 0 20 -25z" />
    <glyph glyph-name="ccaron" unicode="&#x10d;" horiz-adv-x="494" 
d="M273 683l19 -44l31 44q18 25 37 25h65q13 0 16 -7t-6 -18l-85 -98q-21 -24 -43 -24h-47q-21 0 -36 25l-62 97q-6 11 -1 18t18 7h63q21 0 31 -25zM278 506q96 0 143 -34.5t47 -93.5q0 -8 -1 -21l-1 -15q-1 -24 -28 -24h-76q-24 0 -21 23l1 8q1 8 1 12q0 41 -72 41
q-42 0 -60.5 -12.5t-22.5 -40.5l-23 -185q-2 -16 -2 -26q0 -42 71 -42q42 0 60.5 13t22.5 41l2 15q3 25 27 25h77q25 0 21 -25l-3 -25q-9 -72 -59.5 -110t-160.5 -38q-96 0 -144 34t-48 94q0 10 1 20l27 219q18 147 221 147z" />
    <glyph glyph-name="Dcaron" unicode="&#x10e;" horiz-adv-x="615" 
d="M326 853l20 -44l30 44q17 25 38 25h64q13 0 16 -7t-6 -18l-84 -98q-19 -24 -43 -24h-48q-21 0 -36 25l-61 97q-7 11 -2 18t19 7h62q21 0 31 -25zM285 0h-229q-22 0 -19 26l77 628q3 26 28 26h212q117 0 174 -42t57 -105q0 -8 -3 -29l-41 -341q-19 -163 -256 -163z
M347 568h-107l-57 -456h109q107 0 116 75l36 295q2 14 2 23q0 63 -99 63z" />
    <glyph glyph-name="dcaron" unicode="&#x10f;" horiz-adv-x="562" 
d="M591 685l4 31q3 25 27 25h62q23 0 20 -25l-5 -38q-5 -42 -19 -69.5t-41 -63.5q-13 -18 -34 -13l-45 11q-23 6 -8 33q20 34 27 53t12 56zM325 48q-25 -17 -39 -25.5t-49.5 -19.5t-74.5 -11q-64 0 -98 32t-34 88q0 10 2 26l27 222q18 146 159 146q89 0 153 -54l27 221
q3 26 27 26h84q24 0 21 -26l-80 -647q-3 -26 -27 -26h-78q-22 0 -21 26zM188 340l-22 -176q-2 -16 -2 -20q0 -38 49 -38q52 0 121 45l25 195q-57 46 -110 46q-55 0 -61 -52z" />
    <glyph glyph-name="Dcroat" unicode="&#x110;" horiz-adv-x="636" 
d="M562 163q-19 -163 -256 -163h-229q-22 0 -19 26l33 267h-51q-14 0 -18.5 5.5t-3.5 18.5l5 51q3 23 29 23h51l32 263q3 26 28 26h212q117 0 174 -42t57 -105q0 -8 -3 -29zM204 112h109q107 0 116 75l36 295q2 14 2 23q0 63 -99 63h-107l-22 -177h80q14 0 18.5 -5t3.5 -18
l-5 -51q-3 -24 -29 -24h-80z" />
    <glyph glyph-name="dcroat" unicode="&#x111;" horiz-adv-x="541" 
d="M325 48q-25 -17 -39 -25.5t-49.5 -19.5t-74.5 -11q-64 0 -98 32t-34 88q0 10 2 26l27 222q18 146 159 146q89 0 153 -54l11 88h-85q-25 0 -22 24l5 43q3 23 27 23h86l5 43q3 26 27 26h84q24 0 21 -26l-5 -43h32q25 0 22 -23l-5 -43q-3 -24 -28 -24h-32l-64 -514
q-3 -26 -27 -26h-78q-22 0 -21 26zM188 340l-22 -176q-2 -16 -2 -20q0 -38 49 -38q52 0 121 45l25 195q-57 46 -110 46q-55 0 -61 -52z" />
    <glyph glyph-name="Emacron" unicode="&#x112;" horiz-adv-x="511" 
d="M212 849h230q25 0 22 -23l-5 -51q-3 -25 -29 -25h-230q-25 0 -22 25l5 51q3 23 29 23zM411 0h-352q-25 0 -22 26l77 628q3 26 28 26h342q25 0 22 -24l-8 -63q-3 -25 -27 -25h-231l-20 -162h214q14 0 18.5 -5.5t3.5 -18.5l-8 -60q-3 -24 -27 -24h-215l-23 -186h241
q26 0 23 -24l-8 -63q-3 -25 -28 -25z" />
    <glyph glyph-name="emacron" unicode="&#x113;" horiz-adv-x="501" 
d="M184 671h231q25 0 22 -23l-6 -52q-3 -24 -29 -24h-230q-25 0 -22 24l6 51q3 24 28 24zM464 359l-14 -116q-3 -23 -26 -23h-256l-7 -62q-2 -16 -2 -23q0 -45 71 -45q80 0 85 51l1 10q3 25 28 25h70q23 0 21 -25l-1 -11q-6 -73 -54.5 -110.5t-157.5 -37.5q-96 0 -144.5 34
t-48.5 94q0 10 1 20l27 219q18 147 220 147q93 0 140.5 -33.5t47.5 -93.5q0 -9 -1 -20zM185 353l-6 -45h157l5 38q1 11 1 16q0 46 -73 46q-76 0 -84 -55z" />
    <glyph glyph-name="Ebreve" unicode="&#x114;" horiz-adv-x="511" 
d="M277 871l-2 -14q-1 -8 -1 -12q0 -35 42 -35q47 0 50 45l1 16q1 20 25 20h50q22 0 19 -20l-2 -13q-9 -63 -44 -94.5t-104 -31.5q-60 0 -95.5 27t-35.5 76q0 12 1 20l2 16q3 20 25 20h49q23 0 20 -20zM411 0h-352q-25 0 -22 26l77 628q3 26 28 26h342q25 0 22 -24l-8 -63
q-3 -25 -27 -25h-231l-20 -162h214q14 0 18.5 -5.5t3.5 -18.5l-8 -60q-3 -24 -27 -24h-215l-23 -186h241q26 0 23 -24l-8 -63q-3 -25 -28 -25z" />
    <glyph glyph-name="ebreve" unicode="&#x115;" horiz-adv-x="501" 
d="M254 685l-2 -14q-1 -8 -1 -12q0 -35 42 -35q47 0 50 45l1 16q1 21 25 21h50q23 0 19 -21l-2 -12q-10 -63 -44.5 -94.5t-103.5 -31.5q-60 0 -95.5 26.5t-35.5 75.5q0 12 1 20l2 16q3 21 25 21h49q23 0 20 -21zM464 359l-14 -116q-3 -23 -26 -23h-256l-7 -62q-2 -16 -2 -23
q0 -45 71 -45q80 0 85 51l1 10q3 25 28 25h70q23 0 21 -25l-1 -11q-6 -73 -54.5 -110.5t-157.5 -37.5q-96 0 -144.5 34t-48.5 94q0 10 1 20l27 219q18 147 220 147q93 0 140.5 -33.5t47.5 -93.5q0 -9 -1 -20zM185 353l-6 -45h157l5 38q1 11 1 16q0 46 -73 46q-76 0 -84 -55z
" />
    <glyph glyph-name="Edotaccent" unicode="&#x116;" horiz-adv-x="511" 
d="M391 839l-10 -82q-3 -24 -26 -24h-86q-13 0 -18 5t-3 19l10 82q3 25 27 25h86q23 0 20 -25zM411 0h-352q-25 0 -22 26l77 628q3 26 28 26h342q25 0 22 -24l-8 -63q-3 -25 -27 -25h-231l-20 -162h214q14 0 18.5 -5.5t3.5 -18.5l-8 -60q-3 -24 -27 -24h-215l-23 -186h241
q26 0 23 -24l-8 -63q-3 -25 -28 -25z" />
    <glyph glyph-name="edotaccent" unicode="&#x117;" horiz-adv-x="501" 
d="M354 677l-9 -81q-3 -25 -28 -25h-85q-24 0 -21 25l9 81q3 25 28 25h86q13 0 17.5 -5.5t2.5 -19.5zM464 359l-14 -116q-3 -23 -26 -23h-256l-7 -62q-2 -16 -2 -23q0 -45 71 -45q80 0 85 51l1 10q3 25 28 25h70q23 0 21 -25l-1 -11q-6 -73 -54.5 -110.5t-157.5 -37.5
q-96 0 -144.5 34t-48.5 94q0 10 1 20l27 219q18 147 220 147q93 0 140.5 -33.5t47.5 -93.5q0 -9 -1 -20zM185 353l-6 -45h157l5 38q1 11 1 16q0 46 -73 46q-76 0 -84 -55z" />
    <glyph glyph-name="Eogonek" unicode="&#x118;" horiz-adv-x="511" 
d="M411 0h-32q-44 -3 -44 -59q0 -29 37 -29h27q13 0 19.5 -5.5t5.5 -18.5l-4 -34q-3 -25 -33 -25h-55q-36 0 -65.5 18.5t-29.5 64.5q0 50 26 88h-204q-25 0 -22 26l77 628q3 26 28 26h342q25 0 22 -24l-8 -63q-3 -25 -27 -25h-231l-20 -162h214q14 0 18.5 -5.5t3.5 -18.5
l-8 -60q-3 -24 -27 -24h-215l-23 -186h241q26 0 23 -24l-8 -63q-3 -25 -28 -25z" />
    <glyph glyph-name="eogonek" unicode="&#x119;" horiz-adv-x="502" 
d="M464 359l-14 -116q-3 -23 -26 -23h-256l-7 -62q-2 -14 -2 -25q0 -43 71 -43q80 0 85 51l1 10q3 25 28 25h70q23 0 21 -25l-1 -11q-7 -64 -51 -105q-20 -19 -27 -27t-16.5 -26.5t-9.5 -39.5q0 -30 38 -30h20q14 0 20 -5.5t5 -18.5l-4 -34q-3 -25 -33 -25h-48
q-37 0 -66.5 19t-29.5 64q0 41 22 81q-10 -1 -32 -1q-96 0 -144.5 34t-48.5 94q0 13 1 20l27 219q18 147 220 147q93 0 140.5 -33.5t47.5 -93.5q0 -12 -1 -20zM185 353l-6 -45h157l5 38q1 7 1 16q0 46 -73 46q-76 0 -84 -55z" />
    <glyph glyph-name="Ecaron" unicode="&#x11a;" horiz-adv-x="511" 
d="M302 853l20 -44l30 44q17 25 38 25h64q13 0 16 -7t-6 -18l-84 -98q-19 -24 -43 -24h-48q-21 0 -36 25l-61 97q-7 11 -2 18t19 7h62q21 0 31 -25zM411 0h-352q-25 0 -22 26l77 628q3 26 28 26h342q25 0 22 -24l-8 -63q-3 -25 -27 -25h-231l-20 -162h214q14 0 18.5 -5.5
t3.5 -18.5l-8 -60q-3 -24 -27 -24h-215l-23 -186h241q26 0 23 -24l-8 -63q-3 -25 -28 -25z" />
    <glyph glyph-name="ecaron" unicode="&#x11b;" horiz-adv-x="501" 
d="M266 683l19 -44l31 44q18 25 37 25h65q13 0 16 -7t-6 -18l-85 -98q-21 -24 -43 -24h-47q-21 0 -36 25l-62 97q-6 11 -1 18t18 7h63q21 0 31 -25zM464 359l-14 -116q-3 -23 -26 -23h-256l-7 -62q-2 -16 -2 -23q0 -45 71 -45q80 0 85 51l1 10q3 25 28 25h70q23 0 21 -25
l-1 -11q-6 -73 -54.5 -110.5t-157.5 -37.5q-96 0 -144.5 34t-48.5 94q0 10 1 20l27 219q18 147 220 147q93 0 140.5 -33.5t47.5 -93.5q0 -9 -1 -20zM185 353l-6 -45h157l5 38q1 11 1 16q0 46 -73 46q-76 0 -84 -55z" />
    <glyph glyph-name="Gcircumflex" unicode="&#x11c;" horiz-adv-x="583" 
d="M352 800l-30 -45q-16 -24 -37 -24h-64q-13 0 -16.5 7t5.5 17l85 98q21 25 43 25h47q20 0 36 -25l62 -98q7 -11 2 -17.5t-19 -6.5h-62q-21 0 -32 24zM307 357h204q26 0 23 -24l-22 -178q-19 -163 -251 -163q-114 0 -167 40.5t-53 103.5q0 8 2 26l44 363q19 163 251 163
q114 0 167 -40.5t53 -104.5q0 -6 -2 -26l-3 -32q-3 -25 -28 -25h-83q-24 0 -21 25l2 16q1 8 1 17q0 58 -92 58q-103 0 -112 -75l-39 -316q-2 -16 -2 -20q0 -61 93 -61q102 0 111 74l8 67h-98q-25 0 -22 24l8 64q3 24 28 24z" />
    <glyph glyph-name="gcircumflex" unicode="&#x11d;" horiz-adv-x="540" 
d="M304 630l-30 -45q-16 -24 -38 -24h-64q-13 0 -16.5 7t5.5 17l85 98q21 25 43 25h48q20 0 36 -25l61 -98q7 -11 2 -17.5t-19 -6.5h-62q-20 0 -31 24zM163 -8q-64 0 -98.5 32.5t-34.5 88.5q0 9 2 25l27 222q18 146 159 146q91 0 157 -58l5 25q3 14 8.5 19.5t18.5 5.5h77
q24 0 21 -25l-64 -527q-18 -147 -232 -147h-141q-26 0 -23 24l7 58q3 26 29 26h140q84 0 90 54l10 84q-78 -53 -158 -53zM187 340l-21 -173q-2 -14 -2 -22q0 -39 49 -39q52 0 121 45l25 195q-57 46 -110 46q-56 0 -62 -52z" />
    <glyph glyph-name="Gbreve" unicode="&#x11e;" horiz-adv-x="583" 
d="M306 871l-2 -14q-1 -8 -1 -12q0 -35 42 -35q47 0 50 45l1 16q1 20 25 20h50q22 0 19 -20l-2 -13q-9 -63 -44 -94.5t-104 -31.5q-60 0 -95.5 27t-35.5 76q0 12 1 20l2 16q3 20 25 20h49q23 0 20 -20zM307 357h204q26 0 23 -24l-22 -178q-19 -163 -251 -163
q-114 0 -167 40.5t-53 103.5q0 8 2 26l44 363q19 163 251 163q114 0 167 -40.5t53 -104.5q0 -6 -2 -26l-3 -32q-3 -25 -28 -25h-83q-24 0 -21 25l2 16q1 8 1 17q0 58 -92 58q-103 0 -112 -75l-39 -316q-2 -16 -2 -20q0 -61 93 -61q102 0 111 74l8 67h-98q-25 0 -22 24l8 64
q3 24 28 24z" />
    <glyph glyph-name="gbreve" unicode="&#x11f;" horiz-adv-x="540" 
d="M259 685l-2 -14q-1 -8 -1 -12q0 -35 42 -35q47 0 50 45l1 16q1 21 25 21h50q23 0 19 -21l-2 -12q-10 -63 -44.5 -94.5t-103.5 -31.5q-60 0 -95.5 26.5t-35.5 75.5q0 12 1 20l2 16q3 21 25 21h49q23 0 20 -21zM163 -8q-64 0 -98.5 32.5t-34.5 88.5q0 9 2 25l27 222
q18 146 159 146q91 0 157 -58l5 25q3 14 8.5 19.5t18.5 5.5h77q24 0 21 -25l-64 -527q-18 -147 -232 -147h-141q-26 0 -23 24l7 58q3 26 29 26h140q84 0 90 54l10 84q-78 -53 -158 -53zM187 340l-21 -173q-2 -14 -2 -22q0 -39 49 -39q52 0 121 45l25 195q-57 46 -110 46
q-56 0 -62 -52z" />
    <glyph glyph-name="Gdotaccent" unicode="&#x120;" horiz-adv-x="583" 
d="M413 836l-10 -82q-3 -24 -26 -24h-86q-13 0 -18 5t-3 19l10 82q3 25 27 25h86q23 0 20 -25zM307 357h204q26 0 23 -24l-22 -178q-19 -163 -251 -163q-114 0 -167 40.5t-53 103.5q0 8 2 26l44 363q19 163 251 163q114 0 167 -40.5t53 -104.5q0 -6 -2 -26l-3 -32
q-3 -25 -28 -25h-83q-24 0 -21 25l2 16q1 8 1 17q0 58 -92 58q-103 0 -112 -75l-39 -316q-2 -16 -2 -20q0 -61 93 -61q102 0 111 74l8 67h-98q-25 0 -22 24l8 64q3 24 28 24z" />
    <glyph glyph-name="gdotaccent" unicode="&#x121;" horiz-adv-x="540" 
d="M357 677l-9 -81q-3 -25 -28 -25h-85q-24 0 -21 25l9 81q3 25 28 25h86q13 0 17.5 -5.5t2.5 -19.5zM163 -8q-64 0 -98.5 32.5t-34.5 88.5q0 9 2 25l27 222q18 146 159 146q91 0 157 -58l5 25q3 14 8.5 19.5t18.5 5.5h77q24 0 21 -25l-64 -527q-18 -147 -232 -147h-141
q-26 0 -23 24l7 58q3 26 29 26h140q84 0 90 54l10 84q-78 -53 -158 -53zM187 340l-21 -173q-2 -14 -2 -22q0 -39 49 -39q52 0 121 45l25 195q-57 46 -110 46q-56 0 -62 -52z" />
    <glyph glyph-name="Gcommaaccent" unicode="&#x122;" horiz-adv-x="583" 
d="M307 357h204q26 0 23 -24l-22 -178q-19 -163 -251 -163q-114 0 -167 40.5t-53 103.5q0 8 2 26l44 363q19 163 251 163q114 0 167 -40.5t53 -104.5q0 -6 -2 -26l-3 -32q-3 -25 -28 -25h-83q-24 0 -21 25l2 16q1 8 1 17q0 58 -92 58q-103 0 -112 -75l-39 -316
q-2 -16 -2 -20q0 -61 93 -61q102 0 111 74l8 67h-98q-25 0 -22 24l8 64q3 24 28 24zM195 -106l4 31q3 25 27 25h62q23 0 20 -25l-5 -38q-5 -42 -19 -69.5t-41 -63.5q-13 -18 -34 -13l-45 11q-23 6 -8 33q20 34 27 53t12 56z" />
    <glyph glyph-name="gcommaaccent" unicode="&#x123;" horiz-adv-x="540" 
d="M348 624l-4 -31q-3 -25 -27 -25h-62q-23 0 -20 25l5 38q5 42 19 69.5t41 63.5q13 18 34 13l45 -11q23 -6 8 -33q-20 -34 -27 -53t-12 -56zM163 -8q-64 0 -98.5 32.5t-34.5 88.5q0 9 2 25l27 222q18 146 159 146q91 0 157 -58l5 25q3 14 8.5 19.5t18.5 5.5h77q24 0 21 -25
l-64 -527q-18 -147 -232 -147h-141q-26 0 -23 24l7 58q3 26 29 26h140q84 0 90 54l10 84q-78 -53 -158 -53zM187 340l-21 -173q-2 -14 -2 -22q0 -39 49 -39q52 0 121 45l25 195q-57 46 -110 46q-56 0 -62 -52z" />
    <glyph glyph-name="Hcircumflex" unicode="&#x124;" horiz-adv-x="625" 
d="M364 800l-30 -45q-16 -24 -37 -24h-64q-13 0 -16.5 7t5.5 17l85 98q21 25 43 25h47q20 0 36 -25l62 -98q7 -11 2 -17.5t-19 -6.5h-62q-21 0 -32 24zM249 654l-30 -249h215l31 249q3 26 28 26h87q23 0 20 -26l-78 -628q-3 -26 -25 -26h-87q-25 0 -22 26l33 267h-216
l-33 -267q-3 -26 -27 -26h-87q-25 0 -22 26l78 628q3 26 27 26h87q24 0 21 -26z" />
    <glyph glyph-name="hcircumflex" unicode="&#x125;" horiz-adv-x="544" 
d="M185 800l-30 -45q-16 -24 -37 -24h-64q-13 0 -16.5 7t5.5 17l85 98q21 25 43 25h47q20 0 36 -25l62 -98q7 -11 2 -17.5t-19 -6.5h-62q-21 0 -32 24zM235 673l-27 -219q73 52 159 52q60 0 96.5 -32.5t36.5 -84.5q0 -8 -1 -17l-42 -346q-3 -26 -28 -26h-81q-25 0 -22 26
l38 313q1 8 1 15q0 38 -49 38q-56 0 -121 -45l-39 -321q-3 -26 -27 -26h-84q-24 0 -21 26l80 647q3 26 27 26h84q23 0 20 -26z" />
    <glyph glyph-name="Hbar" unicode="&#x126;" horiz-adv-x="642" 
d="M182 26q-3 -26 -27 -26h-87q-25 0 -22 26l56 449h-33q-27 0 -23 24l6 43q4 24 27 24h34l11 88q3 26 27 26h87q24 0 21 -26l-11 -88h216l11 88q3 26 28 26h87q23 0 20 -26l-11 -88h29q26 0 23 -24l-5 -43q-3 -24 -28 -24h-30l-56 -449q-3 -26 -25 -26h-87q-25 0 -22 26
l33 267h-216zM229 405h215l9 70h-216z" />
    <glyph glyph-name="hbar" unicode="&#x127;" horiz-adv-x="545" 
d="M156 26q-3 -26 -27 -26h-84q-24 0 -21 26l64 514h-37q-26 0 -23 24l5 43q1 13 7.5 18t20.5 5h38l5 43q3 26 27 26h84q23 0 20 -26l-5 -43h80q27 0 23 -23l-6 -43q-4 -24 -27 -24h-81l-11 -86q73 52 159 52q60 0 96.5 -32.5t36.5 -84.5q0 -8 -1 -17l-42 -346
q-3 -26 -28 -26h-81q-25 0 -22 26l38 313q1 8 1 15q0 38 -49 38q-56 0 -121 -45z" />
    <glyph glyph-name="Itilde" unicode="&#x128;" horiz-adv-x="275" 
d="M125 786q-14 0 -20 -20l-3 -10q-6 -22 -29 -22h-42q-24 0 -17 29l9 41q8 37 34 57.5t61 20.5q34 0 60 -14l40 -21q28 -14 33 -14q9 0 13 5t9 19l2 6q7 22 29 22h44q24 0 18 -29l-9 -38q-19 -79 -89 -79q-38 0 -66 14l-43 21q-24 12 -34 12zM249 654l-77 -628
q-3 -26 -26 -26h-87q-25 0 -22 26l77 628q3 26 28 26h87q23 0 20 -26z" />
    <glyph glyph-name="itilde" unicode="&#x129;" horiz-adv-x="246" 
d="M95 607q-14 0 -20 -20l-3 -10q-6 -22 -29 -22h-42q-24 0 -17 29l9 42q8 37 34 57t61 20q34 0 60 -14l40 -21q26 -13 33 -13q9 0 13 4.5t9 18.5l2 6q7 22 29 22h44q24 0 18 -29l-9 -38q-19 -78 -89 -78q-38 0 -66 14l-43 21q-22 11 -34 11zM210 473l-54 -448
q-3 -25 -28 -25h-83q-24 0 -21 25l55 448q3 25 28 25h83q13 0 17.5 -5.5t2.5 -19.5z" />
    <glyph glyph-name="Imacron" unicode="&#x12a;" horiz-adv-x="275" 
d="M87 849h230q25 0 22 -23l-5 -51q-3 -25 -29 -25h-230q-25 0 -22 25l5 51q3 23 29 23zM249 654l-77 -628q-3 -26 -26 -26h-87q-25 0 -22 26l77 628q3 26 28 26h87q23 0 20 -26z" />
    <glyph glyph-name="imacron" unicode="&#x12b;" horiz-adv-x="246" 
d="M54 671h231q25 0 22 -23l-6 -52q-3 -24 -29 -24h-230q-25 0 -22 24l6 51q3 24 28 24zM210 473l-54 -448q-3 -25 -28 -25h-83q-24 0 -21 25l55 448q3 25 28 25h83q13 0 17.5 -5.5t2.5 -19.5z" />
    <glyph glyph-name="Ibreve" unicode="&#x12c;" horiz-adv-x="275" 
d="M153 871l-2 -14q-1 -8 -1 -12q0 -35 42 -35q47 0 50 45l1 16q1 20 25 20h50q22 0 19 -20l-2 -13q-9 -63 -44 -94.5t-104 -31.5q-60 0 -95.5 27t-35.5 76q0 12 1 20l2 16q3 20 25 20h49q23 0 20 -20zM249 654l-77 -628q-3 -26 -26 -26h-87q-25 0 -22 26l77 628q3 26 28 26
h87q23 0 20 -26z" />
    <glyph glyph-name="ibreve" unicode="&#x12d;" horiz-adv-x="246" 
d="M123 685l-2 -14q-1 -8 -1 -12q0 -35 42 -35q47 0 50 45l1 16q1 21 25 21h50q23 0 19 -21l-2 -12q-10 -63 -44.5 -94.5t-103.5 -31.5q-60 0 -95.5 26.5t-35.5 75.5q0 12 1 20l2 16q3 21 25 21h49q23 0 20 -21zM210 473l-54 -448q-3 -25 -28 -25h-83q-24 0 -21 25l55 448
q3 25 28 25h83q13 0 17.5 -5.5t2.5 -19.5z" />
    <glyph glyph-name="Iogonek" unicode="&#x12e;" horiz-adv-x="276" 
d="M251 654l-77 -628q-3 -26 -27 -26h-23q-24 -1 -36 -17.5t-12 -41.5q0 -29 37 -29h25q28 0 25 -24l-4 -34q-3 -25 -33 -25h-52q-36 0 -66 18.5t-30 64.5q0 72 62 126l76 616q3 26 27 26h87q24 0 21 -26z" />
    <glyph glyph-name="iogonek" unicode="&#x12f;" horiz-adv-x="252" 
d="M241 673l-11 -86q-3 -24 -26 -24h-84q-24 0 -21 24l11 86q3 26 27 26h84q23 0 20 -26zM217 473l-55 -447q-3 -26 -27 -26h-22q-23 0 -35.5 -17.5t-12.5 -42.5q0 -28 37 -28h24q14 0 21 -5.5t5 -18.5l-5 -34q-4 -25 -32 -25h-52q-36 0 -66.5 18.5t-30.5 64.5q0 74 66 131
l54 430q3 25 26 25h83q25 0 22 -25z" />
    <glyph glyph-name="Idotaccent" unicode="&#x130;" horiz-adv-x="275" 
d="M271 839l-10 -82q-3 -24 -26 -24h-86q-13 0 -18 5t-3 19l10 82q3 25 27 25h86q23 0 20 -25zM249 654l-77 -628q-3 -26 -26 -26h-87q-25 0 -22 26l77 628q3 26 28 26h87q23 0 20 -26z" />
    <glyph glyph-name="dotlessi" unicode="&#x131;" horiz-adv-x="246" 
d="M210 473l-54 -448q-3 -25 -28 -25h-83q-24 0 -21 25l55 448q3 25 28 25h83q13 0 17.5 -5.5t2.5 -19.5z" />
    <glyph glyph-name="IJ" unicode="&#x132;" horiz-adv-x="790" 
d="M249 654l-77 -628q-3 -26 -26 -26h-87q-25 0 -22 26l77 628q3 26 28 26h87q23 0 20 -26zM412 215l-4 -32q-1 -9 -1 -21q0 -58 79 -58q43 0 62.5 18t24.5 57l60 475q3 26 27 26h87q24 0 21 -26l-62 -499q-9 -74 -59 -118.5t-169 -44.5q-106 0 -156.5 40t-50.5 103
q0 12 2 28l7 52q3 25 28 25h84q23 0 20 -25z" />
    <glyph glyph-name="ij" unicode="&#x133;" horiz-adv-x="496" 
d="M235 673l-11 -86q-3 -24 -26 -24h-84q-24 0 -21 24l11 86q3 26 27 26h84q23 0 20 -26zM485 673l-10 -86q-2 -13 -7.5 -18.5t-18.5 -5.5h-83q-25 0 -22 24l10 86q3 26 28 26h83q23 0 20 -26zM211 473l-55 -447q-3 -26 -27 -26h-84q-24 0 -21 26l56 447q3 25 26 25h83
q25 0 22 -25zM461 473l-65 -527q-9 -73 -63 -110t-164 -37h-13q-26 0 -23 24l7 58q3 26 29 26h9q82 0 89 54l63 512q3 25 27 25h83q24 0 21 -25z" />
    <glyph glyph-name="Jcircumflex" unicode="&#x134;" horiz-adv-x="516" 
d="M436 800l-30 -45q-16 -24 -37 -24h-64q-13 0 -16.5 7t5.5 17l85 98q21 25 43 25h47q20 0 36 -25l62 -98q7 -11 2 -17.5t-19 -6.5h-62q-21 0 -32 24zM138 215l-4 -32q-1 -9 -1 -21q0 -58 79 -58q43 0 62.5 18t24.5 57l60 475q3 26 27 26h87q24 0 21 -26l-62 -499
q-9 -74 -59 -118.5t-169 -44.5q-106 0 -156.5 40t-50.5 103q0 12 2 28l7 52q3 25 28 25h84q23 0 20 -25z" />
    <glyph glyph-name="jcircumflex" unicode="&#x135;" horiz-adv-x="246" 
d="M162 630l-30 -45q-16 -24 -38 -24h-64q-13 0 -16.5 7t5.5 17l85 98q21 25 43 25h48q20 0 36 -25l61 -98q7 -11 2 -17.5t-19 -6.5h-62q-20 0 -31 24zM211 473l-65 -527q-9 -73 -63 -110t-164 -37h-13q-26 0 -23 24l7 58q3 25 29 25h9q82 0 89 54l63 513q3 25 27 25h83
q24 0 21 -25z" />
    <glyph glyph-name="Kcommaaccent" unicode="&#x136;" horiz-adv-x="578" 
d="M342 346l195 -321q6 -9 2 -17t-16 -8h-113q-18 0 -33 25l-155 262h-18l-32 -262q-3 -25 -26 -25h-87q-25 0 -22 25l77 630q3 25 28 25h87q23 0 20 -25l-32 -269h12l210 269q20 25 43 25h98q13 0 15 -7t-7 -18zM193 -106l4 31q3 25 27 25h62q23 0 20 -25l-5 -38
q-5 -42 -19 -69.5t-41 -63.5q-13 -18 -34 -13l-45 11q-23 6 -8 33q20 34 27 53t12 56z" />
    <glyph glyph-name="kcommaaccent" unicode="&#x137;" horiz-adv-x="501" 
d="M129 0h-84q-24 0 -21 25l80 649q3 25 27 25h84q23 0 20 -25l-42 -346h17l137 145q25 25 43 25h99q13 0 15.5 -8t-6.5 -17l-184 -190l142 -258q6 -9 1.5 -17t-16.5 -8h-97q-19 0 -32 25l-110 204h-21l-25 -204q-3 -25 -27 -25zM161 -106l4 31q3 25 27 25h62q23 0 20 -25
l-5 -38q-5 -42 -19 -69.5t-41 -63.5q-13 -18 -34 -13l-45 11q-23 6 -8 33q20 34 27 53t12 56z" />
    <glyph glyph-name="kgreenlandic" unicode="&#x138;" horiz-adv-x="502" 
d="M129 0h-83q-24 0 -21 25l55 448q3 25 27 25h84q23 0 20 -25l-17 -145h17l137 145q25 25 42 25h99q13 0 15.5 -8t-6.5 -17l-184 -190l143 -258q6 -9 1 -17t-17 -8h-96q-20 0 -33 25l-110 204h-21l-25 -204q-3 -25 -27 -25z" />
    <glyph glyph-name="Lacute" unicode="&#x139;" horiz-adv-x="463" 
d="M340 853l-84 -106q-12 -16 -35 -16h-67q-26 0 -10 24l61 98q16 25 37 25h89q13 0 15.5 -7t-6.5 -18zM249 654l-66 -542h223q25 0 22 -24l-8 -63q-3 -25 -28 -25h-336q-22 0 -19 26l77 628q3 26 28 26h87q23 0 20 -26z" />
    <glyph glyph-name="lacute" unicode="&#x13a;" horiz-adv-x="246" 
d="M324 853l-84 -106q-12 -16 -35 -16h-67q-26 0 -10 24l61 98q16 25 37 25h89q13 0 15.5 -7t-6.5 -18zM235 673l-79 -647q-3 -26 -27 -26h-84q-24 0 -21 26l80 647q3 26 27 26h84q23 0 20 -26z" />
    <glyph glyph-name="Lcommaaccent" unicode="&#x13b;" horiz-adv-x="463" 
d="M249 654l-66 -542h223q25 0 22 -24l-8 -63q-3 -25 -28 -25h-336q-22 0 -19 26l77 628q3 26 28 26h87q23 0 20 -26zM154 -105l4 31q3 25 27 25h62q23 0 20 -25l-5 -38q-5 -42 -19 -69.5t-41 -63.5q-13 -18 -34 -13l-45 11q-23 6 -8 33q20 34 27 53t12 56z" />
    <glyph glyph-name="lcommaaccent" unicode="&#x13c;" horiz-adv-x="246" 
d="M235 673l-79 -647q-3 -26 -27 -26h-84q-24 0 -21 26l80 647q3 26 27 26h84q23 0 20 -26zM22 -106l4 31q3 25 27 25h62q23 0 20 -25l-5 -38q-5 -42 -19 -69.5t-41 -63.5q-13 -18 -34 -13l-45 11q-23 6 -8 33q20 34 27 53t12 56z" />
    <glyph glyph-name="Lcaron" unicode="&#x13d;" horiz-adv-x="468" 
d="M359 681l4 31q3 25 27 25h62q23 0 20 -25l-5 -38q-5 -42 -19 -69.5t-41 -63.5q-13 -18 -34 -13l-45 11q-23 6 -8 33q20 34 27 53t12 56zM249 654l-66 -542h223q25 0 22 -24l-8 -63q-3 -25 -28 -25h-336q-22 0 -19 26l77 628q3 26 28 26h87q23 0 20 -26z" />
    <glyph glyph-name="lcaron" unicode="&#x13e;" horiz-adv-x="268" 
d="M297 685l4 31q3 25 27 25h62q23 0 20 -25l-5 -38q-5 -42 -19 -69.5t-41 -63.5q-13 -18 -34 -13l-45 11q-23 6 -8 33q20 34 27 53t12 56zM235 673l-79 -647q-3 -26 -27 -26h-84q-24 0 -21 26l80 647q3 26 27 26h84q23 0 20 -26z" />
    <glyph glyph-name="Ldot" unicode="&#x13f;" horiz-adv-x="463" 
d="M249 654l-66 -542h223q25 0 22 -24l-8 -63q-3 -25 -28 -25h-336q-22 0 -19 26l77 628q3 26 28 26h87q23 0 20 -26zM448 393l-10 -81q-3 -25 -27 -25h-85q-24 0 -21 25l9 81q3 25 28 25h86q23 0 20 -25z" />
    <glyph glyph-name="ldot" unicode="&#x140;" horiz-adv-x="370" 
d="M235 673l-79 -647q-3 -26 -27 -26h-84q-24 0 -21 26l80 647q3 26 27 26h84q23 0 20 -26zM387 393l-10 -81q-3 -25 -27 -25h-85q-24 0 -21 25l9 81q3 25 28 25h86q23 0 20 -25z" />
    <glyph glyph-name="Lslash" unicode="&#x141;" horiz-adv-x="482" 
d="M440 25q-3 -25 -28 -25h-336q-22 0 -19 26l30 248l-34 -13q-22 -8 -30 14l-10 28q-8 20 18 31l67 26l36 294q3 26 28 26h87q23 0 20 -26l-29 -239l36 14q24 9 31 -14l9 -28q6 -21 -18 -31l-69 -27l-26 -217h223q25 0 22 -24z" />
    <glyph glyph-name="lslash" unicode="&#x142;" horiz-adv-x="307" 
d="M183 26q-3 -26 -27 -26h-84q-24 0 -21 26l31 248l-35 -13q-24 -9 -30 14l-7 29q-5 23 16 31l66 26l39 312q3 26 27 26h84q23 0 20 -26l-32 -259l40 15q24 9 31 -14l9 -28q6 -21 -18 -31l-72 -28z" />
    <glyph glyph-name="Nacute" unicode="&#x143;" horiz-adv-x="623" 
d="M504 853l-84 -106q-12 -16 -35 -16h-67q-26 0 -10 24l61 98q16 25 37 25h89q13 0 15.5 -7t-6.5 -18zM597 655l-77 -630q-3 -25 -26 -25h-76q-17 0 -23 12l-152 331q-18 37 -30 82l-50 -400q-3 -25 -25 -25h-80q-25 0 -22 25l78 630q3 25 27 25h76q16 0 21 -10l159 -345
q19 -41 25 -70l48 400q3 25 28 25h79q23 0 20 -25z" />
    <glyph glyph-name="nacute" unicode="&#x144;" horiz-adv-x="544" 
d="M456 683l-85 -106q-12 -16 -34 -16h-67q-25 0 -11 24l61 98q15 25 37 25h90q13 0 15.5 -7t-6.5 -18zM106 498h78q23 0 22 -24l-1 -24q73 56 162 56q60 0 96.5 -32.5t36.5 -84.5q0 -8 -2 -24l-41 -339q-3 -26 -28 -26h-81q-26 0 -22 26l37 306q2 16 2 22q0 38 -48 38
q-57 0 -122 -45l-39 -321q-3 -26 -27 -26h-84q-24 0 -21 26l56 448q3 24 26 24z" />
    <glyph glyph-name="Ncommaaccent" unicode="&#x145;" horiz-adv-x="623" 
d="M597 655l-77 -630q-3 -25 -26 -25h-76q-17 0 -23 12l-152 331q-18 37 -30 82l-50 -400q-3 -25 -25 -25h-80q-25 0 -22 25l78 630q3 25 27 25h76q16 0 21 -10l159 -345q19 -41 25 -70l48 400q3 25 28 25h79q23 0 20 -25zM226 -106l4 31q3 25 27 25h62q23 0 20 -25l-5 -38
q-5 -42 -19 -69.5t-41 -63.5q-13 -18 -34 -13l-45 11q-23 6 -8 33q20 34 27 53t12 56z" />
    <glyph glyph-name="ncommaaccent" unicode="&#x146;" horiz-adv-x="544" 
d="M106 498h78q23 0 22 -24l-1 -24q73 56 162 56q60 0 96.5 -32.5t36.5 -84.5q0 -8 -2 -24l-41 -339q-3 -26 -28 -26h-81q-26 0 -22 26l37 306q2 16 2 22q0 38 -48 38q-57 0 -122 -45l-39 -321q-3 -26 -27 -26h-84q-24 0 -21 26l56 448q3 24 26 24zM167 -106l4 31
q3 25 27 25h62q23 0 20 -25l-5 -38q-5 -42 -19 -69.5t-41 -63.5q-13 -18 -34 -13l-45 11q-23 6 -8 33q20 34 27 53t12 56z" />
    <glyph glyph-name="Ncaron" unicode="&#x147;" horiz-adv-x="623" 
d="M346 853l20 -44l30 44q17 25 38 25h64q13 0 16 -7t-6 -18l-84 -98q-19 -24 -43 -24h-48q-21 0 -36 25l-61 97q-7 11 -2 18t19 7h62q21 0 31 -25zM597 655l-77 -630q-3 -25 -26 -25h-76q-17 0 -23 12l-152 331q-18 37 -30 82l-50 -400q-3 -25 -25 -25h-80q-25 0 -22 25
l78 630q3 25 27 25h76q16 0 21 -10l159 -345q19 -41 25 -70l48 400q3 25 28 25h79q23 0 20 -25z" />
    <glyph glyph-name="ncaron" unicode="&#x148;" horiz-adv-x="544" 
d="M290 683l19 -44l31 44q18 25 37 25h65q13 0 16 -7t-6 -18l-85 -98q-21 -24 -43 -24h-47q-21 0 -36 25l-62 97q-6 11 -1 18t18 7h63q21 0 31 -25zM106 498h78q23 0 22 -24l-1 -24q73 56 162 56q60 0 96.5 -32.5t36.5 -84.5q0 -8 -2 -24l-41 -339q-3 -26 -28 -26h-81
q-26 0 -22 26l37 306q2 16 2 22q0 38 -48 38q-57 0 -122 -45l-39 -321q-3 -26 -27 -26h-84q-24 0 -21 26l56 448q3 24 26 24z" />
    <glyph glyph-name="napostrophe" unicode="&#x149;" horiz-adv-x="544" 
d="M97 685l4 31q3 25 27 25h62q23 0 20 -25l-5 -38q-5 -42 -19 -69.5t-41 -63.5q-13 -18 -34 -13l-45 11q-23 6 -8 33q20 34 27 53t12 56zM106 498h78q23 0 22 -24l-1 -24q73 56 162 56q60 0 96.5 -32.5t36.5 -84.5q0 -8 -2 -24l-41 -339q-3 -26 -28 -26h-81q-26 0 -22 26
l37 306q2 16 2 22q0 38 -48 38q-57 0 -122 -45l-39 -321q-3 -26 -27 -26h-84q-24 0 -21 26l56 448q3 24 26 24z" />
    <glyph glyph-name="Eng" unicode="&#x14a;" horiz-adv-x="623" 
d="M598 655l-88 -709q-9 -73 -63 -110t-164 -37h-13q-26 0 -23 24l7 58q3 25 28 25h10q86 0 93 54l7 59l-149 324q-20 46 -30 82l-49 -400q-3 -25 -26 -25h-79q-25 0 -22 25l77 630q3 25 28 25h75q16 0 21 -10l159 -345q19 -41 25 -70l49 400q3 25 27 25h79q24 0 21 -25z
" />
    <glyph glyph-name="eng" unicode="&#x14b;" horiz-adv-x="544" 
d="M500 390q0 -9 -2 -25l-51 -419q-9 -73 -63 -110t-164 -37h-13q-26 0 -23 24l7 58q3 25 29 25h9q81 0 88 54l46 373q2 16 2 21q0 39 -49 39q-59 0 -121 -45l-39 -323q-3 -25 -28 -25h-83q-24 0 -21 25l55 449q3 24 27 24h77q13 0 18 -5.5t4 -18.5l-1 -24q75 56 163 56
q60 0 96.5 -32.5t36.5 -83.5z" />
    <glyph glyph-name="Omacron" unicode="&#x14c;" horiz-adv-x="605" 
d="M255 849h230q25 0 22 -23l-5 -51q-3 -25 -29 -25h-230q-25 0 -22 25l5 51q3 23 29 23zM43 162l44 363q9 72 70 117.5t189 45.5q115 0 171.5 -41.5t56.5 -103.5q0 -14 -1 -25l-44 -363q-8 -71 -70 -117t-190 -46q-115 0 -171.5 41t-56.5 104q0 7 2 25zM395 179l40 315
q2 16 2 19q0 63 -101 63q-49 0 -80.5 -19.5t-35.5 -55.5l-39 -315q-2 -16 -2 -19q0 -63 101 -63q106 0 115 75z" />
    <glyph glyph-name="omacron" unicode="&#x14d;" horiz-adv-x="529" 
d="M196 671h231q25 0 22 -23l-6 -52q-3 -24 -29 -24h-230q-25 0 -22 24l6 51q3 24 28 24zM30 140l27 219q18 147 231 147q97 0 149.5 -34.5t52.5 -94.5q0 -9 -1 -18l-27 -219q-18 -148 -230 -148q-98 0 -150.5 35t-52.5 96q0 8 1 17zM333 151l22 181q2 15 2 26q0 44 -78 44
q-86 0 -92 -54l-22 -181q-2 -16 -2 -26q0 -45 78 -45q85 0 92 55z" />
    <glyph glyph-name="Obreve" unicode="&#x14e;" horiz-adv-x="605" 
d="M327 871l-2 -14q-1 -8 -1 -12q0 -35 42 -35q47 0 50 45l1 16q1 20 25 20h50q22 0 19 -20l-2 -13q-9 -63 -44 -94.5t-104 -31.5q-60 0 -95.5 27t-35.5 76q0 12 1 20l2 16q3 20 25 20h49q23 0 20 -20zM43 162l44 363q9 72 70 117.5t189 45.5q115 0 171.5 -41.5t56.5 -103.5
q0 -14 -1 -25l-44 -363q-8 -71 -70 -117t-190 -46q-115 0 -171.5 41t-56.5 104q0 7 2 25zM395 179l40 315q2 16 2 19q0 63 -101 63q-49 0 -80.5 -19.5t-35.5 -55.5l-39 -315q-2 -16 -2 -19q0 -63 101 -63q106 0 115 75z" />
    <glyph glyph-name="obreve" unicode="&#x14f;" horiz-adv-x="529" 
d="M267 685l-2 -14q-1 -8 -1 -12q0 -35 42 -35q47 0 50 45l1 16q1 21 25 21h50q23 0 19 -21l-2 -12q-10 -63 -44.5 -94.5t-103.5 -31.5q-60 0 -95.5 26.5t-35.5 75.5q0 12 1 20l2 16q3 21 25 21h49q23 0 20 -21zM30 140l27 219q18 147 231 147q97 0 149.5 -34.5t52.5 -94.5
q0 -9 -1 -18l-27 -219q-18 -148 -230 -148q-98 0 -150.5 35t-52.5 96q0 8 1 17zM333 151l22 181q2 15 2 26q0 44 -78 44q-86 0 -92 -54l-22 -181q-2 -16 -2 -26q0 -45 78 -45q85 0 92 55z" />
    <glyph glyph-name="Ohungarumlaut" unicode="&#x150;" horiz-adv-x="605" 
d="M568 853l-81 -99q-18 -23 -40 -23h-62q-25 0 -9 24l68 98q17 25 41 25h73q13 0 15.5 -7t-5.5 -18zM407 853l-66 -98q-16 -24 -37 -24h-61q-27 0 -13 24l53 98q14 25 38 25h72q13 0 17.5 -7t-3.5 -18zM43 162l44 363q9 72 70 117.5t189 45.5q115 0 171.5 -41.5
t56.5 -103.5q0 -14 -1 -25l-44 -363q-8 -71 -70 -117t-190 -46q-115 0 -171.5 41t-56.5 104q0 7 2 25zM395 179l40 315q2 16 2 19q0 63 -101 63q-49 0 -80.5 -19.5t-35.5 -55.5l-39 -315q-2 -16 -2 -19q0 -63 101 -63q106 0 115 75z" />
    <glyph glyph-name="ohungarumlaut" unicode="&#x151;" horiz-adv-x="529" 
d="M510 683l-81 -99q-18 -23 -40 -23h-61q-26 0 -10 24l69 98q17 25 41 25h73q13 0 15.5 -7t-6.5 -18zM349 683l-66 -98q-16 -24 -36 -24h-61q-28 0 -14 24l54 98q14 25 37 25h73q13 0 17 -7t-4 -18zM30 140l27 219q18 147 231 147q97 0 149.5 -34.5t52.5 -94.5q0 -9 -1 -18
l-27 -219q-18 -148 -230 -148q-98 0 -150.5 35t-52.5 96q0 8 1 17zM333 151l22 181q2 15 2 26q0 44 -78 44q-86 0 -92 -54l-22 -181q-2 -16 -2 -26q0 -45 78 -45q85 0 92 55z" />
    <glyph glyph-name="OE" unicode="&#x152;" horiz-adv-x="850" 
d="M399 0q-19 0 -22 14q-49 -22 -111 -22q-114 0 -169.5 40.5t-55.5 103.5q0 7 2 25l44 364q9 71 66 117.5t175 46.5q71 0 128 -26q4 17 26 17h342q25 0 22 -24l-8 -62q-3 -25 -28 -25h-230l-20 -163h214q25 0 22 -24l-8 -59q-3 -24 -27 -24h-215l-23 -188h241q26 0 23 -24
l-8 -62q-3 -25 -28 -25h-352zM395 178l39 317q5 42 -17.5 62t-80.5 20q-49 0 -80.5 -19.5t-35.5 -55.5l-39 -317q-2 -14 -2 -19q0 -63 101 -63q106 0 115 75z" />
    <glyph glyph-name="oe" unicode="&#x153;" horiz-adv-x="803" 
d="M733 137q-10 -71 -56 -108t-153 -37q-94 0 -145 34q-48 -34 -147 -34q-98 0 -150.5 35t-52.5 95q0 8 1 17l27 220q18 147 223 147q104 0 148 -40q52 40 148 40q95 0 142.5 -33.5t47.5 -93.5q0 -11 -1 -20l-14 -114q-3 -23 -26 -23h-256l-9 -76q-1 -7 -1 -12q0 -44 73 -44
q74 0 83 50l2 11q4 24 28 24h69q25 0 21 -24zM636 307l5 39q1 9 1 17q0 46 -72 46q-76 0 -84 -56l-6 -46h156zM332 150l24 198q6 55 -78 55t-91 -55l-24 -190q-1 -8 -1 -17q0 -46 79 -46q84 0 91 55z" />
    <glyph glyph-name="Racute" unicode="&#x154;" horiz-adv-x="594" 
d="M465 853l-84 -106q-12 -16 -35 -16h-67q-26 0 -10 24l61 98q16 25 37 25h89q13 0 15.5 -7t-6.5 -18zM146 0h-87q-26 0 -22 26l77 628q3 26 28 26h203q116 0 172.5 -43t56.5 -110q0 -8 -2 -24l-9 -86q-11 -106 -127 -141l76 -250q4 -11 -4.5 -18.5t-21.5 -7.5h-90
q-19 0 -26 26l-69 233h-100l-29 -233q-3 -26 -26 -26zM341 568h-101l-25 -197h99q110 0 118 70l5 41q1 12 1 18q0 68 -97 68z" />
    <glyph glyph-name="racute" unicode="&#x155;" horiz-adv-x="370" 
d="M367 683l-85 -106q-12 -16 -34 -16h-67q-25 0 -11 24l61 98q15 25 37 25h90q13 0 15.5 -7t-6.5 -18zM358 506q26 0 23 -25l-8 -64q-2 -22 -29 -25q-88 -8 -150 -59l-38 -307q-3 -26 -27 -26h-84q-24 0 -21 26l56 448q3 24 26 24h78q23 0 22 -24l-2 -35q69 67 154 67z" />
    <glyph glyph-name="Rcommaaccent" unicode="&#x156;" horiz-adv-x="594" 
d="M146 0h-87q-26 0 -22 26l77 628q3 26 28 26h203q116 0 172.5 -43t56.5 -110q0 -8 -2 -24l-9 -86q-11 -106 -127 -141l76 -250q4 -11 -4.5 -18.5t-21.5 -7.5h-90q-19 0 -26 26l-69 233h-100l-29 -233q-3 -26 -26 -26zM341 568h-101l-25 -197h99q110 0 118 70l5 41
q1 12 1 18q0 68 -97 68zM199 -106l4 31q3 25 27 25h62q23 0 20 -25l-5 -38q-5 -42 -19 -69.5t-41 -63.5q-13 -18 -34 -13l-45 11q-23 6 -8 33q20 34 27 53t12 56z" />
    <glyph glyph-name="rcommaaccent" unicode="&#x157;" horiz-adv-x="370" 
d="M358 506q26 0 23 -25l-8 -64q-2 -22 -29 -25q-88 -8 -150 -59l-38 -307q-3 -26 -27 -26h-84q-24 0 -21 26l56 448q3 24 26 24h78q23 0 22 -24l-2 -35q69 67 154 67zM19 -106l4 31q3 25 27 25h62q23 0 20 -25l-5 -38q-5 -42 -19 -69.5t-41 -63.5q-13 -18 -34 -13l-45 11
q-23 6 -8 33q20 34 27 53t12 56z" />
    <glyph glyph-name="Rcaron" unicode="&#x158;" horiz-adv-x="594" 
d="M302 853l20 -44l30 44q17 25 38 25h64q13 0 16 -7t-6 -18l-84 -98q-19 -24 -43 -24h-48q-21 0 -36 25l-61 97q-7 11 -2 18t19 7h62q21 0 31 -25zM146 0h-87q-26 0 -22 26l77 628q3 26 28 26h203q116 0 172.5 -43t56.5 -110q0 -8 -2 -24l-9 -86q-11 -106 -127 -141
l76 -250q4 -11 -4.5 -18.5t-21.5 -7.5h-90q-19 0 -26 26l-69 233h-100l-29 -233q-3 -26 -26 -26zM341 568h-101l-25 -197h99q110 0 118 70l5 41q1 12 1 18q0 68 -97 68z" />
    <glyph glyph-name="rcaron" unicode="&#x159;" horiz-adv-x="370" 
d="M204 683l19 -44l31 44q18 25 37 25h65q13 0 16 -7t-6 -18l-85 -98q-21 -24 -43 -24h-47q-21 0 -36 25l-62 97q-6 11 -1 18t18 7h63q21 0 31 -25zM358 506q26 0 23 -25l-8 -64q-2 -22 -29 -25q-88 -8 -150 -59l-38 -307q-3 -26 -27 -26h-84q-24 0 -21 26l56 448
q3 24 26 24h78q23 0 22 -24l-2 -35q69 67 154 67z" />
    <glyph glyph-name="Sacute" unicode="&#x15a;" horiz-adv-x="566" 
d="M477 853l-84 -106q-12 -16 -35 -16h-67q-26 0 -10 24l61 98q16 25 37 25h89q13 0 15.5 -7t-6.5 -18zM405 484l2 21q1 10 1 14q0 61 -90 61q-95 0 -105 -73l-2 -15q-1 -8 -1 -12q0 -29 35 -41l165 -62q103 -39 103 -130q0 -6 -2 -24l-7 -68q-8 -72 -67.5 -117.5
t-186.5 -45.5q-115 0 -169.5 41t-54.5 104q0 11 1 25l6 56q3 26 28 26h84q23 0 20 -26l-5 -38q-1 -8 -1 -19q0 -61 99 -61q104 0 114 73l5 34q2 14 -3.5 25t-19.5 20.5t-24 14t-29 12.5l-140 55q-38 15 -61.5 46t-23.5 71q0 4 2 24l6 50q19 163 242 163q113 0 165 -40.5
t52 -102.5q0 -9 -1 -20l-5 -41q-3 -25 -27 -25h-84q-24 0 -21 25z" />
    <glyph glyph-name="sacute" unicode="&#x15b;" horiz-adv-x="476" 
d="M410 683l-85 -106q-12 -16 -34 -16h-67q-25 0 -11 24l61 98q15 25 37 25h90q13 0 15.5 -7t-6.5 -18zM318 354l1 12q1 9 1 14q0 34 -67 34q-73 0 -77 -38l-1 -9q-1 -9 -1 -11q0 -23 26 -32l139 -48q40 -14 61.5 -38.5t21.5 -53.5q0 -7 -1 -17l-6 -53q-6 -53 -57 -87.5
t-154 -34.5q-94 0 -142.5 32.5t-48.5 79.5q0 6 1 18l2 22q1 23 26 23h75q22 0 19 -23l-1 -8q-1 -9 -1 -16q0 -35 75 -35q82 0 87 40l2 15q2 14 -7 24t-33 19l-137 50q-32 11 -50 36.5t-18 58.5q0 6 1 18l4 33q16 127 201 127q91 0 136.5 -34.5t45.5 -84.5q0 -5 -1 -16
l-2 -17q-3 -23 -26 -23h-74q-21 0 -20 23z" />
    <glyph glyph-name="Scircumflex" unicode="&#x15c;" horiz-adv-x="566" 
d="M337 800l-30 -45q-16 -24 -37 -24h-64q-13 0 -16.5 7t5.5 17l85 98q21 25 43 25h47q20 0 36 -25l62 -98q7 -11 2 -17.5t-19 -6.5h-62q-21 0 -32 24zM405 484l2 21q1 10 1 14q0 61 -90 61q-95 0 -105 -73l-2 -15q-1 -8 -1 -12q0 -29 35 -41l165 -62q103 -39 103 -130
q0 -6 -2 -24l-7 -68q-8 -72 -67.5 -117.5t-186.5 -45.5q-115 0 -169.5 41t-54.5 104q0 11 1 25l6 56q3 26 28 26h84q23 0 20 -26l-5 -38q-1 -8 -1 -19q0 -61 99 -61q104 0 114 73l5 34q2 14 -3.5 25t-19.5 20.5t-24 14t-29 12.5l-140 55q-38 15 -61.5 46t-23.5 71q0 4 2 24
l6 50q19 163 242 163q113 0 165 -40.5t52 -102.5q0 -9 -1 -20l-5 -41q-3 -25 -27 -25h-84q-24 0 -21 25z" />
    <glyph glyph-name="scircumflex" unicode="&#x15d;" horiz-adv-x="476" 
d="M271 630l-30 -45q-16 -24 -38 -24h-64q-13 0 -16.5 7t5.5 17l85 98q21 25 43 25h48q20 0 36 -25l61 -98q7 -11 2 -17.5t-19 -6.5h-62q-20 0 -31 24zM318 354l1 12q1 9 1 14q0 34 -67 34q-73 0 -77 -38l-1 -9q-1 -9 -1 -11q0 -23 26 -32l139 -48q40 -14 61.5 -38.5
t21.5 -53.5q0 -7 -1 -17l-6 -53q-6 -53 -57 -87.5t-154 -34.5q-94 0 -142.5 32.5t-48.5 79.5q0 6 1 18l2 22q1 23 26 23h75q22 0 19 -23l-1 -8q-1 -9 -1 -16q0 -35 75 -35q82 0 87 40l2 15q2 14 -7 24t-33 19l-137 50q-32 11 -50 36.5t-18 58.5q0 6 1 18l4 33
q16 127 201 127q91 0 136.5 -34.5t45.5 -84.5q0 -5 -1 -16l-2 -17q-3 -23 -26 -23h-74q-21 0 -20 23z" />
    <glyph glyph-name="Scedilla" unicode="&#x15e;" horiz-adv-x="566" 
d="M373 -117q0 -46 -27 -70t-71 -24h-120q-24 0 -21 25l2 20q3 24 27 24h98q21 0 21 17q0 14 -18 14h-73q-40 0 -27 33l30 73q-86 10 -127 48.5t-41 93.5q0 11 1 25l6 56q3 26 28 26h84q23 0 20 -26l-5 -38q-1 -8 -1 -19q0 -61 99 -61q104 0 114 73l5 34q2 14 -3.5 25
t-19.5 20.5t-24 14t-29 12.5l-140 55q-38 15 -61.5 46t-23.5 71q0 4 2 24l6 50q19 163 242 163q113 0 165 -40.5t52 -102.5q0 -9 -1 -20l-5 -41q-3 -25 -27 -25h-84q-24 0 -21 25l2 21q1 10 1 14q0 61 -90 61q-95 0 -105 -73l-2 -15q-1 -8 -1 -12q0 -29 35 -41l165 -62
q103 -39 103 -130q0 -6 -2 -24l-7 -68q-7 -67 -60 -111.5t-164 -50.5l-15 -38h31q35 0 56 -19t21 -53z" />
    <glyph glyph-name="scedilla" unicode="&#x15f;" horiz-adv-x="476" 
d="M327 -117q0 -46 -27 -70t-71 -24h-120q-24 0 -21 25l2 20q3 24 27 24h98q21 0 21 17q0 14 -18 14h-73q-40 0 -27 33l30 74q-67 9 -101 39t-34 69q0 6 1 18l2 22q1 23 26 23h75q22 0 19 -23l-1 -8q-1 -9 -1 -16q0 -35 75 -35q82 0 87 40l2 15q2 14 -7 24t-33 19l-137 50
q-32 11 -50 36.5t-18 58.5q0 6 1 18l4 33q16 127 201 127q91 0 136.5 -34.5t45.5 -84.5q0 -5 -1 -16l-2 -17q-3 -23 -26 -23h-74q-21 0 -20 23l1 12q1 9 1 14q0 34 -67 34q-73 0 -77 -38l-1 -9q-1 -9 -1 -11q0 -23 26 -32l139 -48q40 -14 61.5 -38.5t21.5 -53.5q0 -7 -1 -17
l-6 -53q-5 -49 -49 -82.5t-132 -38.5l-15 -38h31q35 0 56 -19t21 -53z" />
    <glyph glyph-name="Scaron" unicode="&#x160;" horiz-adv-x="566" 
d="M313 853l20 -44l30 44q17 25 38 25h64q13 0 16 -7t-6 -18l-84 -98q-19 -24 -43 -24h-48q-21 0 -36 25l-61 97q-7 11 -2 18t19 7h62q21 0 31 -25zM405 484l2 21q1 10 1 14q0 61 -90 61q-95 0 -105 -73l-2 -15q-1 -8 -1 -12q0 -29 35 -41l165 -62q103 -39 103 -130
q0 -6 -2 -24l-7 -68q-8 -72 -67.5 -117.5t-186.5 -45.5q-115 0 -169.5 41t-54.5 104q0 11 1 25l6 56q3 26 28 26h84q23 0 20 -26l-5 -38q-1 -8 -1 -19q0 -61 99 -61q104 0 114 73l5 34q2 14 -3.5 25t-19.5 20.5t-24 14t-29 12.5l-140 55q-38 15 -61.5 46t-23.5 71q0 4 2 24
l6 50q19 163 242 163q113 0 165 -40.5t52 -102.5q0 -9 -1 -20l-5 -41q-3 -25 -27 -25h-84q-24 0 -21 25z" />
    <glyph glyph-name="scaron" unicode="&#x161;" horiz-adv-x="476" 
d="M242 683l19 -44l31 44q18 25 37 25h65q13 0 16 -7t-6 -18l-85 -98q-21 -24 -43 -24h-47q-21 0 -36 25l-62 97q-6 11 -1 18t18 7h63q21 0 31 -25zM318 354l1 12q1 9 1 14q0 34 -67 34q-73 0 -77 -38l-1 -9q-1 -9 -1 -11q0 -23 26 -32l139 -48q40 -14 61.5 -38.5
t21.5 -53.5q0 -7 -1 -17l-6 -53q-6 -53 -57 -87.5t-154 -34.5q-94 0 -142.5 32.5t-48.5 79.5q0 6 1 18l2 22q1 23 26 23h75q22 0 19 -23l-1 -8q-1 -9 -1 -16q0 -35 75 -35q82 0 87 40l2 15q2 14 -7 24t-33 19l-137 50q-32 11 -50 36.5t-18 58.5q0 6 1 18l4 33
q16 127 201 127q91 0 136.5 -34.5t45.5 -84.5q0 -5 -1 -16l-2 -17q-3 -23 -26 -23h-74q-21 0 -20 23z" />
    <glyph glyph-name="uni0162" unicode="&#x162;" horiz-adv-x="494" 
d="M313 -117q0 -46 -27 -70t-72 -24h-119q-25 0 -22 25l3 20q3 24 27 24h98q21 0 21 17q0 14 -19 14h-72q-19 0 -26.5 8.5t-0.5 24.5l43 106l67 540h-142q-26 0 -23 25l8 63q4 24 28 24h419q26 0 23 -24l-8 -63q-3 -25 -28 -25h-142l-67 -542q-4 -26 -26 -26h-34l-17 -45h30
q35 0 56.5 -19t21.5 -53z" />
    <glyph glyph-name="uni0163" unicode="&#x163;" horiz-adv-x="364" 
d="M277 -117q0 -46 -27 -70t-71 -24h-120q-26 0 -21 25l2 20q3 24 27 24h98q21 0 21 17q0 14 -18 14h-73q-39 0 -27 33l42 107q-41 28 -41 89q0 10 2 30l29 244h-49q-23 0 -21 25l6 50q1 21 28 24l48 5h1l12 96q4 25 28 25h83q23 0 20 -25l-11 -96h91q24 0 21 -23l-6 -56
q-1 -25 -29 -25h-90l-28 -223q-1 -8 -1 -17q0 -24 16.5 -34t57.5 -10h22q25 0 22 -25l-7 -58q-3 -25 -28 -25h-42q-32 0 -57 3l-18 -48h30q36 0 57 -19t21 -53z" />
    <glyph glyph-name="Tcaron" unicode="&#x164;" horiz-adv-x="494" 
d="M280 853l20 -44l30 44q17 25 38 25h64q13 0 16 -7t-6 -18l-84 -98q-19 -24 -43 -24h-48q-21 0 -36 25l-61 97q-7 11 -2 18t19 7h62q21 0 31 -25zM85 680h419q26 0 23 -24l-8 -63q-3 -25 -28 -25h-142l-67 -542q-3 -26 -26 -26h-88q-25 0 -22 26l68 542h-142q-26 0 -23 25
l8 63q3 24 28 24z" />
    <glyph glyph-name="tcaron" unicode="&#x165;" horiz-adv-x="365" 
d="M334 685l4 31q3 25 27 25h62q23 0 20 -25l-5 -38q-5 -42 -19 -69.5t-41 -63.5q-13 -18 -34 -13l-45 11q-23 6 -8 33q20 34 27 53t12 56zM232 392l-28 -223q-1 -8 -1 -18q0 -23 16.5 -33t57.5 -10h22q25 0 22 -25l-7 -58q-3 -25 -28 -25h-42q-93 0 -134 29t-41 89
q0 10 2 30l29 244h-49q-24 0 -21 25l6 50q2 21 28 24l48 5h1l12 96q3 25 28 25h83q23 0 20 -25l-11 -96h91q24 0 21 -23l-6 -56q-3 -25 -29 -25h-90z" />
    <glyph glyph-name="Tbar" unicode="&#x166;" horiz-adv-x="518" 
d="M292 26q-3 -26 -26 -26h-88q-25 0 -22 26l38 306h-102q-27 0 -23 25l6 43q3 23 28 23h103l18 145h-142q-26 0 -23 25l8 63q3 24 28 24h419q26 0 23 -24l-8 -63q-3 -25 -28 -25h-142l-18 -145h108q25 0 22 -23l-6 -43q-4 -25 -27 -25h-108z" />
    <glyph glyph-name="tbar" unicode="&#x167;" horiz-adv-x="370" 
d="M318 25q-3 -25 -28 -25h-42q-93 0 -134 29t-41 89q0 10 2 30l10 86h-47q-26 0 -23 25l5 43q3 23 28 23h48l8 67h-49q-24 0 -21 25l6 50q2 21 28 24l48 5h1l12 96q3 25 28 25h83q23 0 20 -25l-11 -96h91q24 0 21 -23l-6 -56q-3 -25 -29 -25h-90l-8 -67h91q25 0 22 -23
l-5 -43q-3 -25 -28 -25h-92l-8 -65q-1 -8 -1 -18q0 -23 16.5 -33t57.5 -10h22q25 0 22 -25z" />
    <glyph glyph-name="Utilde" unicode="&#x168;" horiz-adv-x="619" 
d="M303 786q-14 0 -20 -20l-3 -10q-6 -22 -29 -22h-42q-24 0 -17 29l9 41q8 37 34 57.5t61 20.5q34 0 60 -14l40 -21q28 -14 33 -14q9 0 13 5t9 19l2 6q7 22 29 22h44q24 0 18 -29l-9 -38q-19 -79 -89 -79q-38 0 -66 14l-43 21q-24 12 -34 12zM245 654l-56 -456
q-3 -22 -3 -30q0 -64 100 -64q107 0 116 75l60 475q3 26 26 26h87q25 0 22 -26l-62 -499q-19 -163 -257 -163q-114 0 -172 42t-58 105q0 12 2 28l61 487q3 26 26 26h87q24 0 21 -26z" />
    <glyph glyph-name="utilde" unicode="&#x169;" horiz-adv-x="538" 
d="M242 607q-14 0 -20 -20l-3 -10q-6 -22 -29 -22h-42q-24 0 -17 29l9 42q8 37 34 57t61 20q34 0 60 -14l40 -21q26 -13 33 -13q9 0 13 4.5t9 18.5l2 6q7 22 29 22h44q24 0 18 -29l-9 -38q-19 -78 -89 -78q-38 0 -66 14l-43 21q-22 11 -34 11zM322 25l1 22q-69 -55 -157 -55
q-61 0 -97 32t-36 84q0 9 1 18l43 347q3 25 27 25h82q24 0 22 -25l-38 -314q-1 -8 -1 -16q0 -19 11 -28t37 -9q53 0 116 44l39 323q3 25 27 25h83q24 0 21 -25l-55 -448q-3 -25 -28 -25h-76q-13 0 -18 5.5t-4 19.5z" />
    <glyph glyph-name="Umacron" unicode="&#x16a;" horiz-adv-x="619" 
d="M259 849h230q25 0 22 -23l-5 -51q-3 -25 -29 -25h-230q-25 0 -22 25l5 51q3 23 29 23zM245 654l-56 -456q-3 -22 -3 -30q0 -64 100 -64q107 0 116 75l60 475q3 26 26 26h87q25 0 22 -26l-62 -499q-19 -163 -257 -163q-114 0 -172 42t-58 105q0 12 2 28l61 487q3 26 26 26
h87q24 0 21 -26z" />
    <glyph glyph-name="umacron" unicode="&#x16b;" horiz-adv-x="538" 
d="M195 671h231q25 0 22 -23l-6 -52q-3 -24 -29 -24h-230q-25 0 -22 24l6 51q3 24 28 24zM322 25l1 22q-69 -55 -157 -55q-61 0 -97 32t-36 84q0 9 1 18l43 347q3 25 27 25h82q24 0 22 -25l-38 -314q-1 -8 -1 -16q0 -19 11 -28t37 -9q53 0 116 44l39 323q3 25 27 25h83
q24 0 21 -25l-55 -448q-3 -25 -28 -25h-76q-13 0 -18 5.5t-4 19.5z" />
    <glyph glyph-name="Ubreve" unicode="&#x16c;" horiz-adv-x="619" 
d="M329 871l-2 -14q-1 -8 -1 -12q0 -35 42 -35q47 0 50 45l1 16q1 20 25 20h50q22 0 19 -20l-2 -13q-9 -63 -44 -94.5t-104 -31.5q-60 0 -95.5 27t-35.5 76q0 12 1 20l2 16q3 20 25 20h49q23 0 20 -20zM245 654l-56 -456q-3 -22 -3 -30q0 -64 100 -64q107 0 116 75l60 475
q3 26 26 26h87q25 0 22 -26l-62 -499q-19 -163 -257 -163q-114 0 -172 42t-58 105q0 12 2 28l61 487q3 26 26 26h87q24 0 21 -26z" />
    <glyph glyph-name="ubreve" unicode="&#x16d;" horiz-adv-x="538" 
d="M265 685l-2 -14q-1 -8 -1 -12q0 -35 42 -35q47 0 50 45l1 16q1 21 25 21h50q23 0 19 -21l-2 -12q-10 -63 -44.5 -94.5t-103.5 -31.5q-60 0 -95.5 26.5t-35.5 75.5q0 12 1 20l2 16q3 21 25 21h49q23 0 20 -21zM322 25l1 22q-69 -55 -157 -55q-61 0 -97 32t-36 84q0 9 1 18
l43 347q3 25 27 25h82q24 0 22 -25l-38 -314q-1 -8 -1 -16q0 -19 11 -28t37 -9q53 0 116 44l39 323q3 25 27 25h83q24 0 21 -25l-55 -448q-3 -25 -28 -25h-76q-13 0 -18 5.5t-4 19.5z" />
    <glyph glyph-name="Uring" unicode="&#x16e;" horiz-adv-x="619" 
d="M480 819l-3 -31q-8 -75 -113 -75q-57 0 -83.5 22t-23.5 58l3 30q7 76 116 76q57 0 82 -21.5t22 -58.5zM408 798l1 15q1 18 -8 24t-30 6q-42 0 -43 -30l-1 -15q-1 -15 8.5 -22.5t29.5 -7.5q42 0 43 30zM245 654l-56 -456q-3 -22 -3 -30q0 -64 100 -64q107 0 116 75l60 475
q3 26 26 26h87q25 0 22 -26l-62 -499q-19 -163 -257 -163q-114 0 -172 42t-58 105q0 12 2 28l61 487q3 26 26 26h87q24 0 21 -26z" />
    <glyph glyph-name="uring" unicode="&#x16f;" horiz-adv-x="538" 
d="M419 650l-3 -30q-7 -76 -113 -76q-57 0 -84 21.5t-23 58.5l3 30q7 76 116 76q56 0 82 -21.5t22 -58.5zM347 629l1 15q1 16 -8.5 23t-29.5 7q-42 0 -43 -30l-1 -15q-1 -16 8.5 -23t29.5 -7q42 0 43 30zM322 25l1 22q-69 -55 -157 -55q-61 0 -97 32t-36 84q0 9 1 18l43 347
q3 25 27 25h82q24 0 22 -25l-38 -314q-1 -8 -1 -16q0 -19 11 -28t37 -9q53 0 116 44l39 323q3 25 27 25h83q24 0 21 -25l-55 -448q-3 -25 -28 -25h-76q-13 0 -18 5.5t-4 19.5z" />
    <glyph glyph-name="Uhungarumlaut" unicode="&#x170;" horiz-adv-x="619" 
d="M574 853l-81 -99q-18 -23 -40 -23h-62q-25 0 -9 24l68 98q17 25 41 25h73q13 0 15.5 -7t-5.5 -18zM413 853l-66 -98q-16 -24 -37 -24h-61q-27 0 -13 24l53 98q14 25 38 25h72q13 0 17.5 -7t-3.5 -18zM245 654l-56 -456q-3 -22 -3 -30q0 -64 100 -64q107 0 116 75l60 475
q3 26 26 26h87q25 0 22 -26l-62 -499q-19 -163 -257 -163q-114 0 -172 42t-58 105q0 12 2 28l61 487q3 26 26 26h87q24 0 21 -26z" />
    <glyph glyph-name="uhungarumlaut" unicode="&#x171;" horiz-adv-x="538" 
d="M511 683l-81 -99q-18 -23 -40 -23h-61q-27 0 -10 24l69 98q17 25 41 25h73q13 0 15.5 -7t-6.5 -18zM350 683l-66 -98q-16 -24 -36 -24h-61q-27 0 -14 24l54 98q14 25 37 25h73q13 0 17 -7t-4 -18zM322 25l1 22q-69 -55 -157 -55q-61 0 -97 32t-36 84q0 9 1 18l43 347
q3 25 27 25h82q24 0 22 -25l-38 -314q-1 -8 -1 -16q0 -19 11 -28t37 -9q53 0 116 44l39 323q3 25 27 25h83q24 0 21 -25l-55 -448q-3 -25 -28 -25h-76q-13 0 -18 5.5t-4 19.5z" />
    <glyph glyph-name="Uogonek" unicode="&#x172;" horiz-adv-x="619" 
d="M245 654l-56 -456q-3 -24 -3 -30q0 -64 100 -64q107 0 116 75l60 475q3 26 26 26h87q25 0 22 -26l-62 -499q-8 -63 -49 -101q-46 -43 -58 -68q-11 -22 -11 -45q0 -29 38 -29h26q28 0 25 -24l-4 -34q-3 -25 -33 -25h-54q-37 0 -66.5 18.5t-29.5 64.5q0 45 24 84
q-40 -4 -65 -4q-114 0 -172 42t-58 105q0 12 2 28l61 487q3 26 26 26h87q24 0 21 -26z" />
    <glyph glyph-name="uogonek" unicode="&#x173;" horiz-adv-x="538" 
d="M399 -171h-35q-37 0 -66.5 19t-29.5 65q0 65 55 112v22q-69 -55 -157 -55q-61 0 -97 32t-36 84q0 9 1 18l43 347q3 25 27 25h82q24 0 22 -25l-38 -314q-1 -7 -1 -16q0 -19 11 -28t37 -9q53 0 116 44l39 323q3 25 27 25h83q24 0 21 -25l-55 -448q-3 -25 -28 -25h-6
q-21 0 -35 -17t-14 -41q0 -30 39 -30h7q28 0 25 -24l-4 -34q-3 -25 -33 -25z" />
    <glyph glyph-name="Wcircumflex" unicode="&#x174;" horiz-adv-x="848" 
d="M487 800l-30 -45q-16 -24 -37 -24h-64q-13 0 -16.5 7t5.5 17l85 98q21 25 43 25h47q20 0 36 -25l62 -98q7 -11 2 -17.5t-19 -6.5h-62q-21 0 -32 24zM543 655l43 -340q5 -45 5 -100q9 44 29 99l127 341q9 25 33 25h77q24 0 15 -25l-236 -630q-9 -25 -33 -25h-85
q-23 0 -26 25l-44 349q-5 33 -3 92q-13 -58 -26 -93l-131 -348q-9 -25 -33 -25h-85q-23 0 -26 25l-81 630q-3 25 22 25h88q22 0 25 -25l43 -341q4 -33 6 -84q8 28 28 84l128 341q9 25 33 25h81q23 0 26 -25z" />
    <glyph glyph-name="wcircumflex" unicode="&#x175;" horiz-adv-x="723" 
d="M407 630l-30 -45q-16 -24 -38 -24h-64q-13 0 -16.5 7t5.5 17l85 98q21 25 43 25h48q20 0 36 -25l61 -98q7 -11 2 -17.5t-19 -6.5h-62q-20 0 -31 24zM644 498h68q31 0 21 -25l-186 -450q-6 -14 -11 -18.5t-17 -4.5h-98q-13 0 -17 5t-6 18l-26 237q-3 30 -3 54
q-7 -28 -19 -54l-99 -237q-6 -13 -11 -18t-17 -5h-98q-12 0 -16.5 5t-6.5 18l-63 450q-1 12 6.5 18.5t20.5 6.5h78q22 0 25 -25l34 -262q4 -38 4 -49q6 26 16 49l105 262q10 25 31 25h79q23 0 26 -25l28 -265q2 -18 4 -46q3 14 15 46l103 265q10 25 30 25z" />
    <glyph glyph-name="Ycircumflex" unicode="&#x176;" horiz-adv-x="543" 
d="M336 800l-30 -45q-16 -24 -37 -24h-64q-13 0 -16.5 7t5.5 17l85 98q21 25 43 25h47q20 0 36 -25l62 -98q7 -11 2 -17.5t-19 -6.5h-62q-21 0 -32 24zM204 655l67 -228q5 -20 10 -53q17 40 25 53l133 228q14 25 32 25h88q14 0 18 -6.5t-3 -18.5l-237 -395l-29 -235
q-3 -25 -27 -25h-87q-25 0 -22 25l27 219l-140 411q-8 25 21 25h97q20 0 27 -25z" />
    <glyph glyph-name="ycircumflex" unicode="&#x177;" horiz-adv-x="478" 
d="M277 630l-30 -45q-16 -24 -38 -24h-64q-13 0 -16.5 7t5.5 17l85 98q21 25 43 25h48q20 0 36 -25l61 -98q7 -11 2 -17.5t-19 -6.5h-62q-20 0 -31 24zM488 473l-301 -649q-12 -25 -31 -25h-62q-30 0 -20 25l69 163l-109 486q-3 12 5 18.5t22 6.5h82q9 0 14 -3.5t7 -8
t4 -13.5l46 -229q8 -40 8 -85q22 60 31 81l106 233q11 25 31 25h77q14 0 20.5 -6.5t0.5 -18.5z" />
    <glyph glyph-name="Ydieresis" unicode="&#x178;" horiz-adv-x="543" 
d="M312 850l-11 -93q-3 -25 -27 -25h-49q-24 0 -21 25l11 93q3 26 29 26h48q23 0 20 -26zM452 850l-11 -93q-3 -25 -27 -25h-49q-24 0 -21 25l11 93q3 26 28 26h49q23 0 20 -26zM204 655l67 -228q5 -20 10 -53q17 40 25 53l133 228q14 25 32 25h88q14 0 18 -6.5t-3 -18.5
l-237 -395l-29 -235q-3 -25 -27 -25h-87q-25 0 -22 25l27 219l-140 411q-8 25 21 25h97q20 0 27 -25z" />
    <glyph glyph-name="Zacute" unicode="&#x179;" horiz-adv-x="497" 
d="M442 853l-84 -106q-12 -16 -35 -16h-67q-26 0 -10 24l61 98q16 25 37 25h89q13 0 15.5 -7t-6.5 -18zM118 680h356q26 0 23 -24l-7 -56q-2 -16 -12 -31l-307 -457h250q26 0 23 -24l-8 -63q-3 -25 -27 -25h-391q-26 0 -23 25l7 56q3 16 12 30l307 457h-216q-26 0 -23 25
l8 63q3 24 28 24z" />
    <glyph glyph-name="zacute" unicode="&#x17a;" horiz-adv-x="445" 
d="M392 683l-85 -106q-12 -16 -34 -16h-67q-25 0 -11 24l61 98q15 25 37 25h90q13 0 15.5 -7t-6.5 -18zM96 498h304q25 0 22 -23l-8 -59q-2 -12 -7 -19l-242 -290h204q26 0 23 -24l-7 -58q-3 -25 -29 -25h-338q-25 0 -22 25l7 58q1 12 8 19l240 289h-168q-26 0 -23 24l8 59
q3 24 28 24z" />
    <glyph glyph-name="Zdotaccent" unicode="&#x17b;" horiz-adv-x="497" 
d="M377 839l-10 -82q-3 -24 -26 -24h-86q-13 0 -18 5t-3 19l10 82q3 25 27 25h86q23 0 20 -25zM118 680h356q26 0 23 -24l-7 -56q-2 -16 -12 -31l-307 -457h250q26 0 23 -24l-8 -63q-3 -25 -27 -25h-391q-26 0 -23 25l7 56q3 16 12 30l307 457h-216q-26 0 -23 25l8 63
q3 24 28 24z" />
    <glyph glyph-name="zdotaccent" unicode="&#x17c;" horiz-adv-x="445" 
d="M332 677l-9 -81q-3 -25 -28 -25h-85q-24 0 -21 25l9 81q3 25 28 25h86q13 0 17.5 -5.5t2.5 -19.5zM96 498h304q25 0 22 -23l-8 -59q-2 -12 -7 -19l-242 -290h204q26 0 23 -24l-7 -58q-3 -25 -29 -25h-338q-25 0 -22 25l7 58q1 12 8 19l240 289h-168q-26 0 -23 24l8 59
q3 24 28 24z" />
    <glyph glyph-name="Zcaron" unicode="&#x17d;" horiz-adv-x="497" 
d="M285 853l20 -44l30 44q17 25 38 25h64q13 0 16 -7t-6 -18l-84 -98q-19 -24 -43 -24h-48q-21 0 -36 25l-61 97q-7 11 -2 18t19 7h62q21 0 31 -25zM118 680h356q26 0 23 -24l-7 -56q-2 -16 -12 -31l-307 -457h250q26 0 23 -24l-8 -63q-3 -25 -27 -25h-391q-26 0 -23 25
l7 56q3 16 12 30l307 457h-216q-26 0 -23 25l8 63q3 24 28 24z" />
    <glyph glyph-name="zcaron" unicode="&#x17e;" horiz-adv-x="445" 
d="M229 683l19 -44l31 44q18 25 37 25h65q13 0 16 -7t-6 -18l-85 -98q-21 -24 -43 -24h-47q-21 0 -36 25l-62 97q-6 11 -1 18t18 7h63q21 0 31 -25zM96 498h304q25 0 22 -23l-8 -59q-2 -12 -7 -19l-242 -290h204q26 0 23 -24l-7 -58q-3 -25 -29 -25h-338q-25 0 -22 25l7 58
q1 12 8 19l240 289h-168q-26 0 -23 24l8 59q3 24 28 24z" />
    <glyph glyph-name="longs" unicode="&#x17f;" horiz-adv-x="304" 
d="M257 541l-89 -717q-2 -14 -7.5 -19.5t-18.5 -5.5h-83q-25 0 -22 25l71 569h-54q-25 0 -22 25l6 49q1 12 7 17t20 7l51 5h4l7 60q17 147 229 147h13q25 0 22 -25l-7 -57q-3 -25 -28 -25h-10q-82 0 -89 -55z" />
    <glyph glyph-name="florin" unicode="&#x192;" horiz-adv-x="438" 
d="M53 -49l88 379h-61q-24 0 -21 24l6 55q3 25 27 25h72l29 126q35 148 232 148h25q26 0 23 -25l-7 -58q-3 -25 -29 -25h-20q-82 0 -95 -54l-27 -112h72q26 0 23 -24l-7 -56q-3 -24 -28 -24h-82l-91 -394q-35 -147 -232 -147h-25q-25 0 -22 24l8 58q3 25 27 25h19
q83 0 96 55z" />
    <glyph glyph-name="Aringacute" unicode="&#x1fa;" horiz-adv-x="554" 
d="M328 713q-58 0 -85.5 22t-22.5 58l4 30q7 57 72 72l26 44q15 25 37 25h89q13 0 15.5 -7t-6.5 -18l-46 -55q37 -19 33 -65l-3 -30q-7 -76 -113 -76zM372 798l1 15q1 17 -9 23.5t-29 6.5q-42 0 -43 -30l-1 -15q-1 -16 9.5 -23t28.5 -7q42 0 43 30zM281 680h87q24 0 28 -25
l110 -630q5 -25 -21 -25h-88q-22 0 -27 25l-20 122h-186l-50 -122q-9 -25 -32 -25h-83q-27 0 -16 25l263 630q10 25 35 25zM333 254l-18 111q-11 70 -8 183q-27 -120 -53 -182l-47 -112h126z" />
    <glyph glyph-name="aringacute" unicode="&#x1fb;" horiz-adv-x="540" 
d="M307 544q-57 0 -84 21t-23 59l3 32q3 24 21.5 44t54.5 27l43 70q16 25 37 25h90q13 0 15.5 -7t-6.5 -18l-66 -83q35 -20 31 -64l-3 -30q-7 -76 -113 -76zM351 629l1 15q1 16 -9.5 23t-28.5 7q-42 0 -43 -30l-1 -15q-3 -30 38 -30q42 0 43 30zM325 48q-79 -56 -163 -56
q-64 0 -98 32t-34 89q0 9 2 25l27 222q18 146 159 146q89 0 154 -55l5 22q6 25 27 25h80q24 0 21 -25l-55 -447q-3 -26 -27 -26h-78q-22 0 -21 26zM188 340l-23 -182q-1 -9 -1 -14q0 -38 49 -38q52 0 121 45l25 195q-57 46 -110 46q-55 0 -61 -52z" />
    <glyph glyph-name="AEacute" unicode="&#x1fc;" horiz-adv-x="823" 
d="M683 853l-84 -106q-12 -16 -35 -16h-67q-26 0 -10 24l61 98q16 25 37 25h89q13 0 15.5 -7t-6.5 -18zM-14 0q-13 0 -18.5 7t2.5 18l453 630q17 25 40 25h333q26 0 23 -24l-8 -61q-3 -24 -28 -24h-231l-21 -166h214q26 0 23 -24l-7 -57q-3 -25 -28 -25h-214l-24 -190h242
q26 0 23 -23l-9 -61q-4 -25 -27 -25h-345q-27 0 -23 26l16 121h-183l-86 -122q-19 -25 -33 -25h-84zM369 400l-104 -146h120l26 211q-18 -31 -42 -65z" />
    <glyph glyph-name="aeacute" unicode="&#x1fd;" horiz-adv-x="780" 
d="M565 683l-85 -106q-12 -16 -34 -16h-67q-25 0 -11 24l61 98q15 25 37 25h90q13 0 15.5 -7t-6.5 -18zM742 359l-13 -116q-3 -23 -26 -23h-256l-9 -72q-1 -9 -1 -14q0 -44 73 -44q41 0 59.5 12.5t23.5 38.5l2 10q4 25 27 25h70q25 0 21 -25l-2 -14q-10 -71 -56.5 -108
t-152.5 -37q-131 0 -174 63q-76 -63 -167 -63q-65 0 -104.5 29t-39.5 79q0 9 1 17l5 47q6 54 48 89t118 35h137l8 60q1 9 1 17q0 45 -69 45q-43 0 -61.5 -11.5t-20.5 -38.5l-1 -11q-3 -25 -28 -25h-73q-26 0 -22 25l2 13q11 71 59.5 107.5t152.5 36.5q92 0 133 -43
q52 43 149 43q93 0 140 -33.5t47 -93.5q0 -12 -1 -20zM463 353l-6 -45h157l5 37q1 8 1 17q0 46 -73 46q-76 0 -84 -55zM193 95q49 0 115 45l7 56h-113q-46 0 -52 -43l-1 -8q-1 -9 -1 -15q0 -35 45 -35z" />
    <glyph glyph-name="Oslashacute" unicode="&#x1fe;" horiz-adv-x="605" 
d="M502 853l-85 -106q-13 -17 -35 -17h-67q-26 0 -10 25l61 98q16 25 37 25h89q13 0 15.5 -7t-5.5 -18zM131 -7q-11 -17 -19 -23.5t-23 -6.5h-34q-11 0 -12.5 9t6.5 21l33 52q-41 38 -41 92q0 5 2 25l44 363q9 72 70 117.5t189 45.5q74 0 126 -19l12 19q19 30 40 30h36
q25 0 6 -30l-33 -53q41 -38 41 -92q0 -14 -1 -25l-44 -363q-8 -71 -70 -117t-190 -46q-75 0 -127 19zM220 501l-36 -293l222 355q-25 13 -70 13q-49 0 -80.5 -19.5t-35.5 -55.5zM280 104q106 0 115 75l38 296l-224 -357q26 -14 71 -14z" />
    <glyph glyph-name="oslashacute" unicode="&#x1ff;" horiz-adv-x="529" 
d="M442 683l-85 -106q-12 -16 -34 -16h-67q-25 0 -11 24l61 98q15 25 37 25h90q13 0 15.5 -7t-6.5 -18zM131 -8q-11 -17 -19.5 -23.5t-23.5 -6.5h-32q-8 0 -10.5 5t0 11.5t6.5 13.5l25 38q-48 34 -48 93q0 9 1 17l27 219q18 147 231 147q52 0 94 -11l8 13q20 30 39 30h35
q26 0 5 -30l-26 -40q47 -33 47 -91q0 -11 -1 -18l-27 -219q-18 -148 -230 -148q-52 0 -94 11zM187 348l-22 -184l153 234q-15 4 -39 4q-85 0 -92 -54zM241 96q85 0 92 55l23 184l-155 -235q15 -4 40 -4z" />
    <glyph glyph-name="uni0218" unicode="&#x218;" horiz-adv-x="566" 
d="M405 484l2 21q1 10 1 14q0 61 -90 61q-95 0 -105 -73l-2 -15q-1 -8 -1 -12q0 -29 35 -41l165 -62q103 -39 103 -130q0 -6 -2 -24l-7 -68q-8 -72 -67.5 -117.5t-186.5 -45.5q-115 0 -169.5 41t-54.5 104q0 11 1 25l6 56q3 26 28 26h84q23 0 20 -26l-5 -38q-1 -8 -1 -19
q0 -61 99 -61q104 0 114 73l5 34q2 14 -3.5 25t-19.5 20.5t-24 14t-29 12.5l-140 55q-38 15 -61.5 46t-23.5 71q0 4 2 24l6 50q19 163 242 163q113 0 165 -40.5t52 -102.5q0 -9 -1 -20l-5 -41q-3 -25 -27 -25h-84q-24 0 -21 25zM186 -106l4 31q3 25 27 25h62q23 0 20 -25
l-5 -38q-5 -42 -19 -69.5t-41 -63.5q-13 -18 -34 -13l-45 11q-23 6 -8 33q20 34 27 53t12 56z" />
    <glyph glyph-name="uni0219" unicode="&#x219;" horiz-adv-x="476" 
d="M318 354l1 12q1 9 1 14q0 34 -67 34q-73 0 -77 -38l-1 -9q-1 -9 -1 -11q0 -23 26 -32l139 -48q40 -14 61.5 -38.5t21.5 -53.5q0 -7 -1 -17l-6 -53q-6 -53 -57 -87.5t-154 -34.5q-94 0 -142.5 32.5t-48.5 79.5q0 6 1 18l2 22q1 23 26 23h75q22 0 19 -23l-1 -8
q-1 -9 -1 -16q0 -35 75 -35q82 0 87 40l2 15q2 14 -7 24t-33 19l-137 50q-32 11 -50 36.5t-18 58.5q0 6 1 18l4 33q16 127 201 127q91 0 136.5 -34.5t45.5 -84.5q0 -5 -1 -16l-2 -17q-3 -23 -26 -23h-74q-21 0 -20 23zM143 -105l4 31q3 25 27 25h62q23 0 20 -25l-5 -38
q-5 -42 -19 -69.5t-41 -63.5q-13 -18 -34 -13l-45 11q-23 6 -8 33q20 34 27 53t12 56z" />
    <glyph glyph-name="uni021A" unicode="&#x21a;" horiz-adv-x="494" 
d="M85 680h419q26 0 23 -24l-8 -63q-3 -25 -28 -25h-142l-67 -542q-3 -26 -26 -26h-88q-25 0 -22 26l68 542h-142q-26 0 -23 25l8 63q3 24 28 24zM140 -106l4 31q3 25 27 25h62q23 0 20 -25l-5 -38q-5 -42 -19 -69.5t-41 -63.5q-13 -18 -34 -13l-45 11q-23 6 -8 33
q20 34 27 53t12 56z" />
    <glyph glyph-name="uni021B" unicode="&#x21b;" horiz-adv-x="364" 
d="M232 392l-28 -223q-1 -8 -1 -18q0 -23 16.5 -33t57.5 -10h22q25 0 22 -25l-7 -58q-3 -25 -28 -25h-42q-93 0 -134 29t-41 89q0 10 2 30l29 244h-49q-24 0 -21 25l6 50q2 21 28 24l48 5h1l12 96q3 25 28 25h83q23 0 20 -25l-11 -96h91q24 0 21 -23l-6 -56q-3 -25 -29 -25
h-90zM68 -106l4 31q3 25 27 25h62q23 0 20 -25l-5 -38q-5 -42 -19 -69.5t-41 -63.5q-13 -18 -34 -13l-45 11q-23 6 -8 33q20 34 27 53t12 56z" />
    <glyph glyph-name="dotlessj" unicode="&#x237;" horiz-adv-x="246" 
d="M211 473l-65 -527q-9 -73 -63 -110t-164 -37h-13q-26 0 -23 24l7 58q3 25 29 25h9q82 0 89 54l63 513q3 25 27 25h83q24 0 21 -25z" />
    <glyph glyph-name="circumflex" unicode="&#x2c6;" horiz-adv-x="354" 
d="M254 630l-30 -45q-16 -24 -38 -24h-64q-13 0 -16.5 7t5.5 17l85 98q21 25 43 25h48q20 0 36 -25l61 -98q7 -11 2 -17.5t-19 -6.5h-62q-20 0 -31 24z" />
    <glyph glyph-name="caron" unicode="&#x2c7;" horiz-adv-x="354" 
d="M235 683l19 -44l31 44q18 25 37 25h65q13 0 16 -7t-6 -18l-85 -98q-21 -24 -43 -24h-47q-21 0 -36 25l-62 97q-6 11 -1 18t18 7h63q21 0 31 -25z" />
    <glyph glyph-name="breve" unicode="&#x2d8;" horiz-adv-x="418" 
d="M186 685l-2 -14q-1 -8 -1 -12q0 -35 42 -35q47 0 50 45l1 16q1 21 25 21h50q23 0 19 -21l-2 -12q-10 -63 -44.5 -94.5t-103.5 -31.5q-60 0 -95.5 26.5t-35.5 75.5q0 12 1 20l2 16q3 21 25 21h49q23 0 20 -21z" />
    <glyph glyph-name="dotaccent" unicode="&#x2d9;" horiz-adv-x="249" 
d="M274 677l-9 -81q-3 -25 -28 -25h-85q-24 0 -21 25l9 81q3 25 28 25h86q13 0 17.5 -5.5t2.5 -19.5z" />
    <glyph glyph-name="ring" unicode="&#x2da;" horiz-adv-x="357" 
d="M368 650l-3 -30q-7 -76 -113 -76q-57 0 -84 21.5t-23 58.5l3 30q7 76 116 76q56 0 82 -21.5t22 -58.5zM296 629l1 15q1 16 -8.5 23t-29.5 7q-42 0 -43 -30l-1 -15q-1 -16 8.5 -23t29.5 -7q42 0 43 30z" />
    <glyph glyph-name="ogonek" unicode="&#x2db;" horiz-adv-x="232" 
d="M168 -178h-64q-41 0 -67 20.5t-26 58.5q0 65 65 131q20 20 36 17l42 -10q32 -7 9 -28q-49 -46 -49 -79q0 -24 34 -24h31q26 0 22 -24l-5 -38q-3 -24 -28 -24z" />
    <glyph glyph-name="tilde" unicode="&#x2dc;" horiz-adv-x="408" 
d="M215 607q-14 0 -20 -20l-3 -10q-6 -22 -29 -22h-42q-24 0 -17 29l9 42q8 37 34 57t61 20q34 0 60 -14l40 -21q26 -13 33 -13q9 0 13 4.5t9 18.5l2 6q7 22 29 22h44q24 0 18 -29l-9 -38q-19 -78 -89 -78q-38 0 -66 14l-43 21q-22 11 -34 11z" />
    <glyph glyph-name="hungarumlaut" unicode="&#x2dd;" horiz-adv-x="404" 
d="M447 683l-81 -99q-18 -23 -40 -23h-61q-27 0 -10 24l69 98q17 25 41 25h73q13 0 15.5 -7t-6.5 -18zM286 683l-66 -98q-16 -24 -36 -24h-61q-27 0 -14 24l54 98q14 25 37 25h73q13 0 17 -7t-4 -18z" />
    <glyph glyph-name="Delta" unicode="&#x394;" horiz-adv-x="400" 
d="M110 437h181q24 0 24 -25v-181q0 -25 -24 -25h-181q-26 0 -26 25v181q0 25 26 25z" />
    <glyph glyph-name="mu" unicode="&#x3bc;" horiz-adv-x="547" 
d="M328 25l1 22q-73 -55 -150 -55q-23 0 -31 8l-14 -176q-1 -25 -27 -25h-83q-24 0 -21 25l80 649q3 25 28 25h81q24 0 22 -25l-38 -311q-1 -10 -1 -20q0 -19 11 -28t37 -9q57 0 115 44l40 324q3 25 27 25h83q24 0 21 -25l-55 -448q-3 -25 -27 -25h-78q-12 0 -17 5.5
t-4 19.5z" />
    <glyph glyph-name="pi" unicode="&#x3c0;" horiz-adv-x="350" 
d="M50 452h274q12 0 14.5 -12t-5.5 -24l-128 -206q-7 -10 -17.5 -10t-17.5 10l-127 206q-8 12 -7 24t14 12z" />
    <glyph glyph-name="Wgrave" unicode="&#x1e80;" horiz-adv-x="848" 
d="M412 747l-60 106q-6 11 -1.5 18t17.5 7h85q21 0 31 -25l37 -98q10 -24 -16 -24h-63q-22 0 -30 16zM543 655l43 -340q5 -45 5 -100q9 44 29 99l127 341q9 25 33 25h77q24 0 15 -25l-236 -630q-9 -25 -33 -25h-85q-23 0 -26 25l-44 349q-5 33 -3 92q-13 -58 -26 -93
l-131 -348q-9 -25 -33 -25h-85q-23 0 -26 25l-81 630q-3 25 22 25h88q22 0 25 -25l43 -341q4 -33 6 -84q8 28 28 84l128 341q9 25 33 25h81q23 0 26 -25z" />
    <glyph glyph-name="wgrave" unicode="&#x1e81;" horiz-adv-x="723" 
d="M335 577l-60 106q-6 11 -1.5 18t17.5 7h85q22 0 32 -25l36 -98q9 -24 -17 -24h-62q-22 0 -30 16zM644 498h68q31 0 21 -25l-186 -450q-6 -14 -11 -18.5t-17 -4.5h-98q-13 0 -17 5t-6 18l-26 237q-3 30 -3 54q-7 -28 -19 -54l-99 -237q-6 -13 -11 -18t-17 -5h-98
q-12 0 -16.5 5t-6.5 18l-63 450q-1 12 6.5 18.5t20.5 6.5h78q22 0 25 -25l34 -262q4 -38 4 -49q6 26 16 49l105 262q10 25 31 25h79q23 0 26 -25l28 -265q2 -18 4 -46q3 14 15 46l103 265q10 25 30 25z" />
    <glyph glyph-name="Wacute" unicode="&#x1e82;" horiz-adv-x="848" 
d="M629 853l-84 -106q-12 -16 -35 -16h-67q-26 0 -10 24l61 98q16 25 37 25h89q13 0 15.5 -7t-6.5 -18zM543 655l43 -340q5 -45 5 -100q9 44 29 99l127 341q9 25 33 25h77q24 0 15 -25l-236 -630q-9 -25 -33 -25h-85q-23 0 -26 25l-44 349q-5 33 -3 92q-13 -58 -26 -93
l-131 -348q-9 -25 -33 -25h-85q-23 0 -26 25l-81 630q-3 25 22 25h88q22 0 25 -25l43 -341q4 -33 6 -84q8 28 28 84l128 341q9 25 33 25h81q23 0 26 -25z" />
    <glyph glyph-name="wacute" unicode="&#x1e83;" horiz-adv-x="723" 
d="M554 683l-85 -106q-12 -16 -34 -16h-67q-25 0 -11 24l61 98q15 25 37 25h90q13 0 15.5 -7t-6.5 -18zM644 498h68q31 0 21 -25l-186 -450q-6 -14 -11 -18.5t-17 -4.5h-98q-13 0 -17 5t-6 18l-26 237q-3 30 -3 54q-7 -28 -19 -54l-99 -237q-6 -13 -11 -18t-17 -5h-98
q-12 0 -16.5 5t-6.5 18l-63 450q-1 12 6.5 18.5t20.5 6.5h78q22 0 25 -25l34 -262q4 -38 4 -49q6 26 16 49l105 262q10 25 31 25h79q23 0 26 -25l28 -265q2 -18 4 -46q3 14 15 46l103 265q10 25 30 25z" />
    <glyph glyph-name="Wdieresis" unicode="&#x1e84;" horiz-adv-x="848" 
d="M467 850l-11 -93q-3 -25 -27 -25h-49q-24 0 -21 25l11 93q3 26 29 26h48q23 0 20 -26zM607 850l-11 -93q-3 -25 -27 -25h-49q-24 0 -21 25l11 93q3 26 28 26h49q23 0 20 -26zM543 655l43 -340q5 -45 5 -100q9 44 29 99l127 341q9 25 33 25h77q24 0 15 -25l-236 -630
q-9 -25 -33 -25h-85q-23 0 -26 25l-44 349q-5 33 -3 92q-13 -58 -26 -93l-131 -348q-9 -25 -33 -25h-85q-23 0 -26 25l-81 630q-3 25 22 25h88q22 0 25 -25l43 -341q4 -33 6 -84q8 28 28 84l128 341q9 25 33 25h81q23 0 26 -25z" />
    <glyph glyph-name="wdieresis" unicode="&#x1e85;" horiz-adv-x="723" 
d="M388 681l-12 -93q-3 -25 -26 -25h-49q-24 0 -21 25l11 93q3 25 28 25h48q24 0 21 -25zM528 681l-12 -93q-3 -25 -27 -25h-48q-24 0 -21 25l11 93q3 25 27 25h49q24 0 21 -25zM644 498h68q31 0 21 -25l-186 -450q-6 -14 -11 -18.5t-17 -4.5h-98q-13 0 -17 5t-6 18l-26 237
q-3 30 -3 54q-7 -28 -19 -54l-99 -237q-6 -13 -11 -18t-17 -5h-98q-12 0 -16.5 5t-6.5 18l-63 450q-1 12 6.5 18.5t20.5 6.5h78q22 0 25 -25l34 -262q4 -38 4 -49q6 26 16 49l105 262q10 25 31 25h79q23 0 26 -25l28 -265q2 -18 4 -46q3 14 15 46l103 265q10 25 30 25z" />
    <glyph glyph-name="Ygrave" unicode="&#x1ef2;" horiz-adv-x="543" 
d="M265 747l-60 106q-6 11 -1.5 18t17.5 7h85q21 0 31 -25l37 -98q10 -24 -16 -24h-63q-22 0 -30 16zM204 655l67 -228q5 -20 10 -53q17 40 25 53l133 228q14 25 32 25h88q14 0 18 -6.5t-3 -18.5l-237 -395l-29 -235q-3 -25 -27 -25h-87q-25 0 -22 25l27 219l-140 411
q-8 25 21 25h97q20 0 27 -25z" />
    <glyph glyph-name="ygrave" unicode="&#x1ef3;" horiz-adv-x="478" 
d="M201 577l-60 106q-6 11 -1.5 18t17.5 7h85q22 0 32 -25l36 -98q9 -24 -17 -24h-62q-22 0 -30 16zM488 473l-301 -649q-12 -25 -31 -25h-62q-30 0 -20 25l69 163l-109 486q-3 12 5 18.5t22 6.5h82q9 0 14 -3.5t7 -8t4 -13.5l46 -229q8 -40 8 -85q22 60 31 81l106 233
q11 25 31 25h77q14 0 20.5 -6.5t0.5 -18.5z" />
    <glyph glyph-name="endash" unicode="&#x2013;" horiz-adv-x="533" 
d="M84 342h364q25 0 25 -24v-59q0 -24 -25 -24h-364q-26 0 -26 24v59q0 24 26 24z" />
    <glyph glyph-name="emdash" unicode="&#x2014;" horiz-adv-x="844" 
d="M84 342h674q26 0 26 -24v-59q0 -24 -26 -24h-674q-26 0 -26 24v59q0 24 26 24z" />
    <glyph glyph-name="quoteleft" unicode="&#x2018;" horiz-adv-x="265" 
d="M213 597l-8 -67q-3 -25 -28 -25h-85q-24 0 -21 25l10 74q15 115 162 148q24 6 29 -16l13 -56q5 -22 -21 -31t-37.5 -21t-13.5 -31z" />
    <glyph glyph-name="quoteright" unicode="&#x2019;" horiz-adv-x="261" 
d="M136 660l8 67q3 25 28 25h85q24 0 21 -25l-10 -74q-15 -115 -162 -148q-24 -6 -29 16l-13 56q-5 22 21 31t37.5 21t13.5 31z" />
    <glyph glyph-name="quotesinglbase" unicode="&#x201a;" horiz-adv-x="229" 
d="M26 39l8 67q3 25 28 25h85q24 0 21 -25l-10 -74q-15 -115 -162 -148q-24 -6 -29 16l-13 56q-5 22 21 31t37.5 21t13.5 31z" />
    <glyph glyph-name="quotedblleft" unicode="&#x201c;" horiz-adv-x="483" 
d="M213 597l-8 -67q-3 -25 -28 -25h-85q-24 0 -21 25l10 74q15 115 162 148q24 6 29 -16l13 -56q5 -22 -21 -31t-37.5 -21t-13.5 -31zM431 597l-8 -67q-3 -25 -28 -25h-85q-24 0 -21 25l10 74q15 115 162 148q24 6 29 -16l13 -56q5 -22 -21 -31t-37.5 -21t-13.5 -31z" />
    <glyph glyph-name="quotedblright" unicode="&#x201d;" horiz-adv-x="479" 
d="M136 660l8 67q3 25 28 25h85q24 0 21 -25l-10 -74q-15 -115 -162 -148q-24 -6 -29 16l-13 56q-5 22 21 31t37.5 21t13.5 31zM354 660l8 67q3 25 28 25h85q24 0 21 -25l-10 -74q-15 -115 -162 -148q-24 -6 -29 16l-13 56q-5 22 21 31t37.5 21t13.5 31z" />
    <glyph glyph-name="quotedblbase" unicode="&#x201e;" horiz-adv-x="447" 
d="M26 39l8 67q3 25 28 25h85q24 0 21 -25l-10 -74q-15 -115 -162 -148q-24 -6 -29 16l-13 56q-5 22 21 31t37.5 21t13.5 31zM244 39l8 67q3 25 28 25h85q24 0 21 -25l-10 -74q-15 -115 -162 -148q-24 -6 -29 16l-13 56q-5 22 21 31t37.5 21t13.5 31z" />
    <glyph glyph-name="dagger" unicode="&#x2020;" horiz-adv-x="591" 
d="M408 673l-79 -647q-3 -26 -27 -26h-83q-24 0 -21 26l79 647q3 26 28 26h83q23 0 20 -26zM78 514h126q25 0 22 -23l-6 -60q-3 -25 -28 -25h-127q-25 0 -22 25l7 60q3 23 28 23zM440 514h127q25 0 22 -23l-7 -60q-3 -25 -28 -25h-126q-25 0 -22 25l6 60q3 23 28 23z" />
    <glyph glyph-name="daggerdbl" unicode="&#x2021;" horiz-adv-x="591" 
d="M409 673l-80 -647q-3 -26 -27 -26h-83q-24 0 -21 26l79 647q3 26 28 26h83q24 0 21 -26zM50 491q3 23 29 23h126q25 0 22 -23l-6 -60q-3 -25 -29 -25h-126q-25 0 -22 25zM589 491l-6 -60q-3 -25 -28 -25h-127q-25 0 -22 25l7 60q3 23 28 23h126q25 0 22 -23zM23 266
q3 24 28 24h126q14 0 18.5 -5.5t3.5 -18.5l-7 -59q-3 -25 -27 -25h-127q-25 0 -22 25zM562 266l-7 -59q-3 -25 -28 -25h-126q-26 0 -23 25l7 59q3 24 28 24h127q14 0 18.5 -5.5t3.5 -18.5z" />
    <glyph glyph-name="bullet" unicode="&#x2022;" horiz-adv-x="295" 
d="M220 344l-18 -145q-3 -25 -27 -25h-85q-24 0 -21 25l18 145q3 26 27 26h85q24 0 21 -26z" />
    <glyph glyph-name="ellipsis" unicode="&#x2026;" horiz-adv-x="731" 
d="M163 106l-10 -81q-3 -25 -27 -25h-85q-24 0 -21 25l9 81q3 25 28 25h86q23 0 20 -25zM658 106l-10 -81q-3 -25 -27 -25h-85q-24 0 -21 25l9 81q3 25 28 25h86q23 0 20 -25zM411 106l-10 -81q-3 -25 -27 -25h-85q-24 0 -21 25l9 81q3 25 28 25h86q23 0 20 -25z" />
    <glyph glyph-name="perthousand" unicode="&#x2030;" horiz-adv-x="1143" 
d="M664 662l-407 -644q-16 -26 -38 -26h-65q-11 0 -13 9t4 17l406 644q17 26 40 26h65q11 0 13 -8t-5 -18zM356 578l-19 -156q-12 -99 -147 -99q-68 0 -103.5 26t-35.5 62q0 13 1 20l18 154q12 99 152 99q66 0 100.5 -26t34.5 -64q0 -7 -1 -16zM152 446q-1 -10 -1 -15
q0 -29 42 -29q17 0 30.5 9t15.5 27l16 124q1 10 1 13q0 30 -39 30q-24 0 -35.5 -8t-13.5 -27zM762 251l-19 -156q-12 -99 -147 -99q-68 0 -103.5 26t-35.5 62q0 13 1 20l18 154q12 99 152 99q66 0 100.5 -26t34.5 -64q0 -7 -1 -16zM1104 251l-19 -156q-12 -99 -147 -99
q-68 0 -103.5 26t-35.5 62q0 13 1 20l18 154q12 99 152 99q66 0 100.5 -26t34.5 -64q0 -7 -1 -16zM558 119q-1 -10 -1 -15q0 -29 42 -29q17 0 30.5 9t15.5 27l16 124q1 10 1 13q0 30 -39 30q-24 0 -35.5 -8t-13.5 -27zM900 119q-1 -10 -1 -15q0 -29 42 -29q17 0 30.5 9
t15.5 27l16 124q1 10 1 13q0 30 -39 30q-24 0 -35.5 -8t-13.5 -27z" />
    <glyph glyph-name="guilsinglleft" unicode="&#x2039;" horiz-adv-x="326" 
d="M135 244l97 -74q23 -18 21 -35l-10 -81q-1 -13 -10 -18t-17 2l-171 134q-20 16 -18 37l9 74q2 21 28 37l203 133q10 6 17 1.5t6 -17.5l-10 -85q-2 -18 -29 -35z" />
    <glyph glyph-name="guilsinglright" unicode="&#x203a;" horiz-adv-x="325" 
d="M179 247l-97 74q-23 18 -21 35l10 81q1 13 10 18t17 -2l171 -134q20 -16 18 -37l-9 -74q-2 -21 -28 -37l-203 -133q-10 -6 -17 -1.5t-6 17.5l10 85q2 18 29 35z" />
    <glyph glyph-name="fraction" unicode="&#x2044;" horiz-adv-x="112" 
d="M321 662l-407 -644q-16 -26 -38 -26h-65q-11 0 -13 9t4 17l406 644q17 26 40 26h65q11 0 13 -8t-5 -18z" />
    <glyph glyph-name="zero.superior" unicode="&#x2070;" 
d="M60 559l21 176q12 99 152 99q66 0 100.5 -26t34.5 -64q0 -7 -1 -16l-22 -177q-12 -99 -147 -99q-67 0 -103 26t-36 63q0 11 1 18zM248 566l18 154q4 35 -39 35q-44 0 -48 -35l-19 -154q-2 -20 8 -27.5t34 -7.5q42 0 46 35z" />
    <glyph glyph-name="four.superior" unicode="&#x2074;" 
d="M235 814l-74 -189h85l24 189q1 16 17 16h66q15 0 14 -16l-42 -342q-1 -16 -17 -16h-67q-14 0 -13 16l9 77h-172q-17 0 -16 16l4 31q2 14 9 30l76 188q6 16 22 16h64q18 0 11 -16z" />
    <glyph glyph-name="five.superior" unicode="&#x2075;" 
d="M125 830h222q16 0 15 -15l-5 -44q-1 -16 -19 -16h-140l-7 -52h40q63 0 91 -23.5t28 -58.5q0 -5 -1 -14l-8 -60q-12 -96 -148 -96q-60 0 -98 24t-38 65q0 5 1 15l1 9q1 15 18 15h63q9 0 11 -3t2 -12v-6q0 -35 43 -35q45 0 49 35l4 29q1 9 1 13q0 30 -41 30h-108
q-18 0 -15 17l21 167q1 16 18 16z" />
    <glyph glyph-name="six.superior" unicode="&#x2076;" 
d="M63 538q0 8 1 16l24 184q12 96 149 96q67 0 97 -27t27 -67l-1 -11q-2 -18 -17 -18h-65q-7 0 -10 3t-3 12v5q0 29 -35 29q-42 0 -46 -34l-7 -51q29 12 55 12q58 0 88 -21.5t30 -55.5q0 -3 -2 -17l-6 -45q-14 -96 -151 -96q-63 0 -95.5 24.5t-32.5 61.5zM246 559l2 20
q2 19 -8.5 27t-28.5 8q-41 0 -45 -32l-3 -23q-2 -17 8 -25t29 -8q43 0 46 33z" />
    <glyph glyph-name="seven.superior" unicode="&#x2077;" 
d="M110 830h253q16 0 15 -15l-5 -41q-1 -7 -6 -17l-162 -285q-8 -16 -22 -16h-78q-18 0 -9 16l159 279h-155q-16 0 -15 17l5 47q1 15 20 15z" />
    <glyph glyph-name="eight.superior" unicode="&#x2078;" 
d="M85 696q0 2 3 22l3 22q6 44 36.5 69t109.5 25q63 0 93 -23t30 -59q0 -5 -1 -12l-5 -36q-5 -37 -47 -56q41 -18 41 -51q0 -7 -2 -23l-4 -28q-14 -94 -152 -94q-65 0 -98 24t-33 61q0 10 3 28l3 26q5 39 55 57q-35 17 -35 48zM260 716l1 6q1 8 1 14q0 27 -34 27
q-40 0 -44 -34l-1 -9q-1 -8 -1 -11q0 -26 36 -26q37 0 42 33zM248 558l1 11q1 11 1 14q0 29 -40 29q-47 0 -50 -34l-1 -11q-1 -9 -1 -15q0 -29 41 -29q46 0 49 35z" />
    <glyph glyph-name="nine.superior" unicode="&#x2079;" 
d="M362 732l-24 -184q-12 -96 -149 -96q-67 0 -97.5 27.5t-27.5 66.5l1 11q1 18 18 18h65q15 0 13 -15l-1 -7q-4 -27 35 -27q43 0 47 34l6 51q-27 -12 -55 -12q-57 0 -86.5 21t-29.5 55q0 11 1 18l6 45q14 96 151 96q63 0 95.5 -24.5t32.5 -61.5q0 -7 -1 -16zM180 727l-1 -7
q-2 -16 -2 -19q0 -29 37 -29q43 0 46 32l1 10q1 15 1 18q0 28 -37 28q-41 0 -45 -33z" />
    <glyph glyph-name="parenleft.superior" unicode="&#x207d;" horiz-adv-x="222" 
d="M60 483l43 328q6 48 36 67.5t96 19.5h19q18 0 16 -17l-5 -41q-1 -17 -20 -17h-7q-34 0 -37 -23l-40 -306q-1 -7 -1 -12q0 -18 32 -18h6q18 0 16 -17l-5 -41q-1 -17 -21 -17h-5q-57 0 -90.5 22.5t-33.5 60.5q0 4 1 11z" />
    <glyph glyph-name="parenright.superior" unicode="&#x207e;" horiz-adv-x="222" 
d="M247 798l-42 -321q-6 -49 -36 -68.5t-96 -19.5h-19q-18 0 -16 17l5 41q1 17 20 17h7q34 0 37 23l38 298q2 17 2 20q0 18 -30 18h-7q-18 0 -16 17l6 41q3 17 20 17h5q57 0 90 -22.5t33 -60.5q0 -9 -1 -17z" />
    <glyph glyph-name="zero.inferior" unicode="&#x2080;" 
d="M-15 -47l21 176q12 99 152 99q66 0 100.5 -26t34.5 -64q0 -7 -1 -16l-22 -177q-12 -99 -147 -99q-67 0 -103 26t-36 63q0 11 1 18zM173 -40l18 154q4 35 -39 35q-44 0 -48 -35l-19 -154q-2 -20 8 -27.5t34 -7.5q42 0 46 35z" />
    <glyph glyph-name="one.inferior" unicode="&#x2081;" 
d="M51 206l154 22q7 1 11 -2t3 -14l-35 -283h65q16 0 15 -16l-5 -47q-1 -16 -19 -16h-231q-18 0 -15 16l6 47q3 16 18 16h67l25 206l-69 -8q-7 -1 -11 2.5t-3 10.5l6 48q3 16 18 18z" />
    <glyph glyph-name="two.inferior" unicode="&#x2082;" 
d="M90 -71h162q16 0 13 -16l-6 -47q-3 -16 -18 -16h-244q-16 0 -15 16l11 91q6 46 52 64l110 43q10 4 15 6.5t10.5 9t6.5 16.5l2 16q1 10 1 13q0 26 -41 26q-44 0 -47 -31l-2 -19q-1 -15 -17 -15h-66q-15 0 -14 15l3 29q4 42 41 70t114 28q63 0 96 -26t33 -64q0 -7 -1 -15
l-4 -32q-5 -39 -23 -57t-48 -30l-105 -40q-16 -6 -17 -17z" />
    <glyph glyph-name="three.inferior" unicode="&#x2083;" 
d="M267 -63q-10 -91 -150 -91q-63 0 -99 25t-36 62q0 5 1 17l1 8q1 17 18 17h65q13 0 13 -17v-12q0 -27 42 -27q44 0 49 32l2 12q1 9 1 12q0 32 -42 32h-39q-15 0 -14 14l5 39q1 14 17 14h35q46 0 49 38l1 12q3 31 -37 31q-23 0 -32.5 -7t-12.5 -25l-1 -6q-3 -16 -18 -16
h-64q-15 0 -14 16l2 16q11 95 151 95q66 0 98 -25.5t27 -65.5l-5 -39q-3 -24 -13 -35.5t-35 -20.5q40 -17 40 -53q0 -5 -1 -17z" />
    <glyph glyph-name="four.inferior" unicode="&#x2084;" 
d="M161 208l-74 -189h85l24 189q1 16 17 16h66q15 0 14 -16l-42 -342q-1 -16 -17 -16h-67q-14 0 -13 16l9 77h-172q-17 0 -16 16l4 31q2 14 9 30l76 188q6 16 22 16h64q18 0 11 -16z" />
    <glyph glyph-name="five.inferior" unicode="&#x2085;" 
d="M51 224h222q16 0 15 -15l-5 -44q-1 -16 -19 -16h-140l-7 -52h40q63 0 91 -23.5t28 -58.5q0 -5 -1 -14l-8 -60q-12 -96 -148 -96q-60 0 -98 24t-38 65q0 5 1 15l1 9q1 15 18 15h63q9 0 11 -3t2 -12v-6q0 -35 43 -35q45 0 49 35l4 29q1 9 1 13q0 30 -41 30h-108
q-18 0 -15 17l21 167q1 16 18 16z" />
    <glyph glyph-name="six.inferior" unicode="&#x2086;" 
d="M-11 -68q0 8 1 16l24 184q12 96 149 96q67 0 97 -27t27 -67l-1 -11q-2 -18 -17 -18h-65q-7 0 -10 3t-3 12v5q0 29 -35 29q-42 0 -46 -34l-7 -51q29 12 55 12q58 0 88 -21.5t30 -55.5q0 -3 -2 -17l-6 -45q-14 -96 -151 -96q-63 0 -95.5 24.5t-32.5 61.5zM172 -47l2 20
q2 19 -8.5 27t-28.5 8q-41 0 -45 -32l-3 -23q-2 -17 8 -25t29 -8q43 0 46 33z" />
    <glyph glyph-name="seven.inferior" unicode="&#x2087;" 
d="M35 224h253q16 0 15 -15l-5 -41q-1 -7 -6 -17l-162 -285q-8 -16 -22 -16h-78q-18 0 -9 16l159 279h-155q-16 0 -15 17l5 47q1 15 20 15z" />
    <glyph glyph-name="eight.inferior" unicode="&#x2088;" 
d="M11 90q0 3 3 22l3 22q6 44 36.5 69t109.5 25q63 0 93 -23t30 -59q0 -5 -1 -12l-5 -36q-5 -37 -47 -56q41 -18 41 -51q0 -7 -2 -23l-4 -28q-14 -94 -152 -94q-65 0 -98 24t-33 61q0 10 3 28l3 26q5 39 55 57q-35 17 -35 48zM186 110l1 6q1 8 1 14q0 27 -34 27
q-40 0 -44 -34l-1 -9q-1 -8 -1 -11q0 -26 36 -26q37 0 42 33zM174 -48l1 11q1 11 1 14q0 29 -40 29q-47 0 -50 -34l-1 -11q-1 -9 -1 -15q0 -29 41 -29q46 0 49 35z" />
    <glyph glyph-name="nine.inferior" unicode="&#x2089;" 
d="M288 126l-24 -184q-12 -96 -149 -96q-67 0 -97.5 27.5t-27.5 66.5l1 11q1 18 18 18h65q15 0 13 -15l-1 -7q-4 -27 35 -27q43 0 47 34l6 51q-27 -12 -55 -12q-57 0 -86.5 21t-29.5 55q0 11 1 18l6 45q14 96 151 96q63 0 95.5 -24.5t32.5 -61.5q0 -7 -1 -16zM106 121l-1 -7
q-2 -16 -2 -19q0 -29 37 -29q43 0 46 32l1 10q1 15 1 18q0 28 -37 28q-41 0 -45 -33z" />
    <glyph glyph-name="parenleft.inferior" unicode="&#x208d;" horiz-adv-x="223" 
d="M-14 -123l43 328q6 48 36 67.5t96 19.5h19q18 0 16 -17l-5 -41q-1 -17 -20 -17h-7q-34 0 -37 -23l-40 -306q-1 -7 -1 -12q0 -18 32 -18h6q18 0 16 -17l-5 -41q-1 -17 -21 -17h-5q-57 0 -90.5 22.5t-33.5 60.5q0 4 1 11z" />
    <glyph glyph-name="parenright.inferior" unicode="&#x208e;" horiz-adv-x="222" 
d="M172 192l-42 -321q-6 -49 -36 -68.5t-96 -19.5h-19q-18 0 -16 17l5 41q1 17 20 17h7q34 0 37 23l38 298q2 17 2 20q0 18 -30 18h-7q-18 0 -16 17l6 41q3 17 20 17h5q57 0 90 -22.5t33 -60.5q0 -9 -1 -17z" />
    <glyph glyph-name="Euro" unicode="&#x20ac;" horiz-adv-x="622" 
d="M556 155q-17 -163 -251 -163q-114 0 -167 40.5t-53 103.5q0 6 2 26l8 66h-36q-25 0 -22 25l4 35q3 24 28 24h36l7 54h-37q-24 0 -21 24l3 35q3 24 28 24h37l9 76q19 163 251 163q114 0 167 -40t53 -103q0 -6 -2 -26l-5 -42q-3 -25 -26 -25h-84q-24 0 -21 25l3 19
q1 9 1 19q0 61 -94 61q-101 0 -110 -75l-6 -52h92q26 0 23 -24l-4 -35q-3 -24 -29 -24h-93l-6 -54h93q24 0 21 -24l-4 -35q-3 -25 -28 -25h-93l-5 -42q-2 -18 -2 -21q0 -61 94 -61q103 0 111 75l4 38q3 25 28 25h83q23 0 20 -25z" />
    <glyph glyph-name="afii61289" unicode="&#x2113;" horiz-adv-x="531" 
d="M99 149l3 29l-36 -15q-23 -9 -30 12l-20 62q-7 21 17 33q67 27 84 36l28 217q9 70 62 116.5t151 46.5q95 0 138 -41.5t43 -103.5q0 -15 -1 -22q-6 -48 -32.5 -89.5t-73 -76.5t-88 -58t-103.5 -53l-7 -57q-2 -18 -2 -22q0 -56 69 -56h113q26 0 23 -24l-8 -58
q-3 -25 -27 -25h-115q-189 0 -189 133q0 7 1 16zM274 506l-17 -135q157 82 157 143v12q0 53 -63 53q-68 0 -77 -73z" />
    <glyph glyph-name="trademark" unicode="&#x2122;" horiz-adv-x="875" 
d="M855 659l-45 -366q-3 -21 -22 -21h-67q-20 0 -17 21l22 185q-8 -21 -13 -29l-55 -95q-12 -20 -30 -20h-46q-19 0 -26 20l-34 97q-4 12 -6 33l-23 -191q-3 -21 -22 -21h-63q-21 0 -18 21l45 366q3 21 23 21h62q12 0 16 -10l72 -182q7 -19 10 -34q12 22 18 32l114 184
q7 10 20 10h68q20 0 17 -21zM97 680h275q21 0 18 -19l-6 -52q-2 -20 -24 -20h-81l-36 -296q-3 -21 -23 -21h-71q-20 0 -17 21l35 296h-81q-12 0 -16 4t-3 16l7 52q3 19 23 19z" />
    <glyph glyph-name="estimated" unicode="&#x212e;" horiz-adv-x="768" 
d="M747 340q0 -16 -18 -16h-536v-215q87 -82 208 -82q136 0 238 110q5 5 11 5q16 0 16 -18q0 -8 -7 -17q-46 -53 -114 -84t-144 -31q-146 0 -247 98t-101 250q0 144 102 246t246 102q143 0 244.5 -102t101.5 -246zM401 653q-120 0 -208 -83v-215h416v214q-89 84 -208 84z
" />
    <glyph glyph-name="uni2153" unicode="&#x2153;" horiz-adv-x="832" 
d="M684 662l-407 -644q-16 -26 -38 -26h-65q-11 0 -13 9t4 17l406 644q17 26 40 26h65q11 0 13 -8t-5 -18zM99 662l154 22q7 1 11 -2t3 -14l-35 -283h65q16 0 15 -16l-5 -47q-1 -16 -19 -16h-231q-18 0 -15 16l6 47q3 16 18 16h67l25 206l-69 -8q-7 -1 -11 2.5t-3 10.5l6 48
q3 16 18 18zM773 87q-10 -91 -150 -91q-63 0 -99 25t-36 62q0 5 1 17l1 8q1 17 18 17h65q13 0 13 -17v-12q0 -27 42 -27q44 0 49 32l2 12q1 9 1 12q0 32 -42 32h-39q-15 0 -14 14l5 39q1 14 17 14h35q46 0 49 38l1 12q3 31 -37 31q-23 0 -32.5 -7t-12.5 -25l-1 -6
q-3 -16 -18 -16h-64q-15 0 -14 16l2 16q11 95 151 95q66 0 98 -25.5t27 -65.5l-5 -39q-3 -24 -13 -35.5t-35 -20.5q40 -17 40 -53q0 -5 -1 -17z" />
    <glyph glyph-name="uni2154" unicode="&#x2154;" horiz-adv-x="841" 
d="M698 662l-407 -644q-16 -26 -38 -26h-65q-11 0 -13 9t4 17l406 644q17 26 40 26h65q11 0 13 -8t-5 -18zM155 385h162q16 0 13 -16l-6 -47q-3 -16 -18 -16h-244q-16 0 -15 16l11 91q6 46 52 64l110 43q10 4 15 6.5t10.5 9t6.5 16.5l2 16q1 10 1 13q0 26 -41 26
q-44 0 -47 -31l-2 -19q-1 -15 -17 -15h-66q-15 0 -14 15l3 29q4 42 41 70t114 28q63 0 96 -26t33 -64q0 -7 -1 -15l-4 -32q-5 -39 -23 -57t-48 -30l-105 -40q-16 -6 -17 -17zM782 87q-10 -91 -150 -91q-63 0 -99 25t-36 62q0 5 1 17l1 8q1 17 18 17h65q13 0 13 -17v-12
q0 -27 42 -27q44 0 49 32l2 12q1 9 1 12q0 32 -42 32h-39q-15 0 -14 14l5 39q1 14 17 14h35q46 0 49 38l1 12q3 31 -37 31q-23 0 -32.5 -7t-12.5 -25l-1 -6q-3 -16 -18 -16h-64q-15 0 -14 16l2 16q11 95 151 95q66 0 98 -25.5t27 -65.5l-5 -39q-3 -24 -13 -35.5t-35 -20.5
q40 -17 40 -53q0 -5 -1 -17z" />
    <glyph glyph-name="uni2155" unicode="&#x2155;" horiz-adv-x="840" 
d="M684 662l-407 -644q-16 -26 -38 -26h-65q-11 0 -13 9t4 17l406 644q17 26 40 26h65q11 0 13 -8t-5 -18zM99 662l154 22q7 1 11 -2t3 -14l-35 -283h65q16 0 15 -16l-5 -47q-1 -16 -19 -16h-231q-18 0 -15 16l6 47q3 16 18 16h67l25 206l-69 -8q-7 -1 -11 2.5t-3 10.5l6 48
q3 16 18 18zM563 374h222q16 0 15 -15l-5 -44q-1 -16 -19 -16h-140l-7 -52h40q63 0 91 -23.5t28 -58.5q0 -5 -1 -14l-8 -60q-12 -96 -148 -96q-60 0 -98 24t-38 65q0 5 1 15l1 9q1 15 18 15h63q9 0 11 -3t2 -12v-6q0 -35 43 -35q45 0 49 35l4 29q1 9 1 13q0 30 -41 30h-108
q-18 0 -15 17l21 167q1 16 18 16z" />
    <glyph glyph-name="uni2156" unicode="&#x2156;" horiz-adv-x="851" 
d="M699 662l-407 -644q-16 -26 -38 -26h-65q-11 0 -13 9t4 17l406 644q17 26 40 26h65q11 0 13 -8t-5 -18zM155 385h162q16 0 13 -16l-6 -47q-3 -16 -18 -16h-244q-16 0 -15 16l11 91q6 46 52 64l110 43q10 4 15 6.5t10.5 9t6.5 16.5l2 16q1 10 1 13q0 26 -41 26
q-44 0 -47 -31l-2 -19q-1 -15 -17 -15h-66q-15 0 -14 15l3 29q4 42 41 70t114 28q63 0 96 -26t33 -64q0 -7 -1 -15l-4 -32q-5 -39 -23 -57t-48 -30l-105 -40q-16 -6 -17 -17zM574 374h222q16 0 15 -15l-5 -44q-1 -16 -19 -16h-140l-7 -52h40q63 0 91 -23.5t28 -58.5
q0 -5 -1 -14l-8 -60q-12 -96 -148 -96q-60 0 -98 24t-38 65q0 5 1 15l1 9q1 15 18 15h63q9 0 11 -3t2 -12v-6q0 -35 43 -35q45 0 49 35l4 29q1 9 1 13q0 30 -41 30h-108q-18 0 -15 17l21 167q1 16 18 16z" />
    <glyph glyph-name="uni2157" unicode="&#x2157;" horiz-adv-x="838" 
d="M681 662l-407 -644q-16 -26 -38 -26h-65q-11 0 -13 9t4 17l406 644q17 26 40 26h65q11 0 13 -8t-5 -18zM330 393q-10 -91 -150 -91q-63 0 -99 25t-36 62q0 5 1 17l1 8q1 17 18 17h65q13 0 13 -17v-12q0 -27 42 -27q44 0 49 32l2 12q1 9 1 12q0 32 -42 32h-39
q-15 0 -14 14l5 39q1 14 17 14h35q46 0 49 38l1 12q3 31 -37 31q-23 0 -32.5 -7t-12.5 -25l-1 -6q-3 -16 -18 -16h-64q-15 0 -14 16l2 16q11 95 151 95q66 0 98 -25.5t27 -65.5l-5 -39q-3 -24 -13 -35.5t-35 -20.5q40 -17 40 -53q0 -5 -1 -17zM562 374h222q16 0 15 -15
l-5 -44q-1 -16 -19 -16h-140l-7 -52h40q63 0 91 -23.5t28 -58.5q0 -5 -1 -14l-8 -60q-12 -96 -148 -96q-60 0 -98 24t-38 65q0 5 1 15l1 9q1 15 18 15h63q9 0 11 -3t2 -12v-6q0 -35 43 -35q45 0 49 35l4 29q1 9 1 13q0 30 -41 30h-108q-18 0 -15 17l21 167q1 16 18 16z" />
    <glyph glyph-name="uni2158" unicode="&#x2158;" horiz-adv-x="854" 
d="M699 662l-407 -644q-16 -26 -38 -26h-65q-11 0 -13 9t4 17l406 644q17 26 40 26h65q11 0 13 -8t-5 -18zM226 664l-74 -189h85l24 189q1 16 17 16h66q15 0 14 -16l-42 -342q-1 -16 -17 -16h-67q-14 0 -13 16l9 77h-172q-17 0 -16 16l4 31q2 14 9 30l76 188q6 16 22 16h64
q18 0 11 -16zM576 374h222q16 0 15 -15l-5 -44q-1 -16 -19 -16h-140l-7 -52h40q63 0 91 -23.5t28 -58.5q0 -5 -1 -14l-8 -60q-12 -96 -148 -96q-60 0 -98 24t-38 65q0 5 1 15l1 9q1 15 18 15h63q9 0 11 -3t2 -12v-6q0 -35 43 -35q45 0 49 35l4 29q1 9 1 13q0 30 -41 30h-108
q-18 0 -15 17l21 167q1 16 18 16z" />
    <glyph glyph-name="uni2159" unicode="&#x2159;" horiz-adv-x="826" 
d="M685 662l-407 -644q-16 -26 -38 -26h-65q-11 0 -13 9t4 17l406 644q17 26 40 26h65q11 0 13 -8t-5 -18zM99 662l154 22q7 1 11 -2t3 -14l-35 -283h65q16 0 15 -16l-5 -47q-1 -16 -19 -16h-231q-18 0 -15 16l6 47q3 16 18 16h67l25 206l-69 -8q-7 -1 -11 2.5t-3 10.5l6 48
q3 16 18 18zM489 82q0 8 1 16l24 184q12 96 149 96q67 0 97 -27t27 -67l-1 -11q-2 -18 -17 -18h-65q-7 0 -10 3t-3 12v5q0 29 -35 29q-42 0 -46 -34l-7 -51q29 12 55 12q58 0 88 -21.5t30 -55.5q0 -3 -2 -17l-6 -45q-14 -96 -151 -96q-63 0 -95.5 24.5t-32.5 61.5zM672 103
l2 20q2 19 -8.5 27t-28.5 8q-41 0 -45 -32l-3 -23q-2 -17 8 -25t29 -8q43 0 46 33z" />
    <glyph glyph-name="uni215A" unicode="&#x215a;" horiz-adv-x="826" 
d="M675 662l-407 -644q-16 -26 -38 -26h-65q-11 0 -13 9t4 17l406 644q17 26 40 26h65q11 0 13 -8t-5 -18zM112 680h222q16 0 15 -15l-5 -44q-1 -16 -19 -16h-140l-7 -52h40q63 0 91 -23.5t28 -58.5q0 -5 -1 -14l-8 -60q-12 -96 -148 -96q-60 0 -98 24t-38 65q0 5 1 15l1 9
q1 15 18 15h63q9 0 11 -3t2 -12v-6q0 -35 43 -35q45 0 49 35l4 29q1 9 1 13q0 30 -41 30h-108q-18 0 -15 17l21 167q1 16 18 16zM488 82q0 8 1 16l24 184q12 96 149 96q67 0 97 -27t27 -67l-1 -11q-1 -18 -17 -18h-65q-7 0 -10 3t-3 12v5q0 29 -35 29q-42 0 -46 -34l-7 -51
q29 12 55 12q58 0 88 -21.5t30 -55.5q0 -3 -2 -17l-6 -45q-14 -96 -151 -96q-63 0 -95.5 24.5t-32.5 61.5zM671 103l2 20q2 19 -8.5 27t-28.5 8q-41 0 -45 -32l-3 -23q-2 -17 8 -25t29 -8q43 0 46 33z" />
    <glyph glyph-name="uni215B" unicode="&#x215b;" horiz-adv-x="827" 
d="M688 662l-407 -644q-16 -26 -38 -26h-65q-11 0 -13 9t4 17l406 644q17 26 40 26h65q11 0 13 -8t-5 -18zM99 662l154 22q7 1 11 -2t3 -14l-35 -283h65q16 0 15 -16l-5 -47q-1 -16 -19 -16h-231q-18 0 -15 16l6 47q3 16 18 16h67l25 206l-69 -8q-7 -1 -11 2.5t-3 10.5l6 48
q3 16 18 18zM511 240q0 2 3 22l3 22q6 44 36.5 69t109.5 25q63 0 93 -23t30 -59q0 -5 -1 -12l-5 -36q-5 -37 -47 -56q41 -18 41 -51q0 -7 -2 -23l-4 -28q-14 -94 -152 -94q-65 0 -98 24t-33 61q0 10 3 28l3 26q5 39 55 57q-35 17 -35 48zM686 260l1 6q1 8 1 14q0 27 -34 27
q-40 0 -44 -34l-1 -9q-1 -8 -1 -11q0 -26 36 -26q37 0 42 33zM674 102l1 11q1 11 1 14q0 29 -40 29q-47 0 -50 -34l-1 -11q-1 -9 -1 -15q0 -29 41 -29q46 0 49 35z" />
    <glyph glyph-name="uni215C" unicode="&#x215c;" horiz-adv-x="827" 
d="M683 662l-407 -644q-16 -26 -38 -26h-65q-11 0 -13 9t4 17l406 644q17 26 40 26h65q11 0 13 -8t-5 -18zM330 393q-10 -91 -150 -91q-63 0 -99 25t-36 62q0 5 1 17l1 8q1 17 18 17h65q13 0 13 -17v-12q0 -27 42 -27q44 0 49 32l2 12q1 9 1 12q0 32 -42 32h-39
q-15 0 -14 14l5 39q1 14 17 14h35q46 0 49 38l1 12q3 31 -37 31q-23 0 -32.5 -7t-12.5 -25l-1 -6q-3 -16 -18 -16h-64q-15 0 -14 16l2 16q11 95 151 95q66 0 98 -25.5t27 -65.5l-5 -39q-3 -24 -13 -35.5t-35 -20.5q40 -17 40 -53q0 -5 -1 -17zM512 240q0 2 3 22l3 22
q6 44 36.5 69t109.5 25q63 0 93 -23t30 -59q0 -5 -1 -12l-5 -36q-5 -37 -47 -56q41 -18 41 -51q0 -7 -2 -23l-4 -28q-14 -94 -152 -94q-65 0 -98 24t-33 61q0 10 3 28l3 26q5 39 55 57q-35 17 -35 48zM687 260l1 6q1 8 1 14q0 27 -34 27q-40 0 -44 -34l-1 -9q-1 -8 -1 -11
q0 -26 36 -26q37 0 42 33zM675 102l1 11q1 11 1 14q0 29 -40 29q-47 0 -50 -34l-1 -11q-1 -9 -1 -15q0 -29 41 -29q46 0 49 35z" />
    <glyph glyph-name="uni215D" unicode="&#x215d;" horiz-adv-x="825" 
d="M680 662l-407 -644q-16 -26 -38 -26h-65q-11 0 -13 9t4 17l406 644q17 26 40 26h65q11 0 13 -8t-5 -18zM112 680h222q16 0 15 -15l-5 -44q-1 -16 -19 -16h-140l-7 -52h40q63 0 91 -23.5t28 -58.5q0 -5 -1 -14l-8 -60q-12 -96 -148 -96q-60 0 -98 24t-38 65q0 5 1 15l1 9
q1 15 18 15h63q9 0 11 -3t2 -12v-6q0 -35 43 -35q45 0 49 35l4 29q1 9 1 13q0 30 -41 30h-108q-18 0 -15 17l21 167q1 16 18 16zM510 240q0 2 3 22l3 22q6 44 36.5 69t109.5 25q63 0 93 -23t30 -59q0 -5 -1 -12l-5 -36q-5 -37 -47 -56q41 -18 41 -51q0 -7 -2 -23l-4 -28
q-14 -94 -152 -94q-65 0 -98 24t-33 61q0 10 3 28l3 26q5 39 55 57q-35 17 -35 48zM685 260l1 6q1 8 1 14q0 27 -34 27q-40 0 -44 -34l-1 -9q-1 -8 -1 -11q0 -26 36 -26q37 0 42 33zM673 102l1 11q1 11 1 14q0 29 -40 29q-47 0 -50 -34l-1 -11q-1 -9 -1 -15q0 -29 41 -29
q46 0 49 35z" />
    <glyph glyph-name="uni215E" unicode="&#x215e;" horiz-adv-x="777" 
d="M624 662l-407 -644q-16 -26 -38 -26h-65q-11 0 -13 9t4 17l406 644q17 26 40 26h65q11 0 13 -8t-5 -18zM91 680h253q16 0 15 -15l-5 -41q-1 -7 -6 -17l-162 -285q-8 -16 -22 -16h-78q-18 0 -9 16l159 279h-155q-16 0 -15 17l5 47q1 15 20 15zM460 240q0 2 3 22l3 22
q6 44 36.5 69t109.5 25q63 0 93 -23t30 -59q0 -5 -1 -12l-5 -36q-5 -37 -47 -56q41 -18 41 -51q0 -7 -2 -23l-4 -28q-14 -94 -152 -94q-65 0 -98 24t-33 61q0 10 3 28l3 26q5 39 55 57q-35 17 -35 48zM635 260l1 6q1 8 1 14q0 27 -34 27q-40 0 -44 -34l-1 -9q-1 -8 -1 -11
q0 -26 36 -26q37 0 42 33zM623 102l1 11q1 11 1 14q0 29 -40 29q-47 0 -50 -34l-1 -11q-1 -9 -1 -15q0 -29 41 -29q46 0 49 35z" />
    <glyph glyph-name="uni215F" unicode="&#x215f;" horiz-adv-x="476" 
d="M679 662l-407 -644q-16 -26 -38 -26h-65q-11 0 -13 9t4 17l406 644q17 26 40 26h65q11 0 13 -8t-5 -18zM92 662l154 22q7 1 11 -2t3 -14l-35 -283h65q16 0 15 -16l-5 -47q-1 -16 -19 -16h-231q-18 0 -15 16l6 47q3 16 18 16h67l25 206l-69 -8q-7 -1 -11 2.5t-3 10.5l6 48
q3 16 18 18z" />
    <glyph glyph-name="partialdiff" unicode="&#x2202;" horiz-adv-x="400" 
d="M85 187v273q0 13 12.5 15t23.5 -6l207 -128q10 -6 10 -17t-10 -17l-207 -128q-11 -8 -23.5 -6.5t-12.5 14.5z" />
    <glyph glyph-name="product" unicode="&#x220f;" horiz-adv-x="400" 
d="M337 196h-273q-13 0 -15 11.5t6 23.5l128 207q6 10 17 10t17 -10l128 -207q8 -11 6.5 -23t-14.5 -12z" />
    <glyph glyph-name="summation" unicode="&#x2211;" horiz-adv-x="400" 
d="M314 460v-273q0 -13 -12 -14.5t-23 6.5l-207 128q-10 6 -10 17t10 17l207 128q8 5 16 6t13.5 -2.5t5.5 -12.5z" />
    <glyph glyph-name="minus" unicode="&#x2212;" horiz-adv-x="581" 
d="M120 381h411q26 0 26 -24v-59q0 -25 -26 -25h-411q-25 0 -25 25v59q0 24 25 24z" />
    <glyph glyph-name="radical" unicode="&#x221a;" horiz-adv-x="400" 
d="M110 446h181q18 0 26 -7.5t8 -26.5v-181q0 -35 -34 -35h-181q-19 0 -27 8t-8 27v181q0 19 8 26.5t27 7.5zM291 426h-181q-16 0 -16 -14v-181q0 -16 16 -16h181q14 0 14 16v181q0 14 -14 14z" />
    <glyph glyph-name="infinity" unicode="&#x221e;" horiz-adv-x="400" 
d="M47 345l129 129q12 12 24 12t24 -12l129 -129q12 -12 12 -24t-12 -24l-129 -129q-13 -13 -24 -13t-24 13l-129 129q-13 13 -13 24t13 24zM190 460l-128 -129q-6 -6 -6 -11q0 -4 5 -9l129 -129q5 -5 10 -5t10 5l129 129q5 5 5 9q0 5 -6 11l-128 129q-4 4 -10 4t-10 -4z
" />
    <glyph glyph-name="integral" unicode="&#x222b;" horiz-adv-x="400" 
d="M23 320q0 74 51.5 126t124.5 52t125.5 -52t52.5 -126q0 -73 -52 -124.5t-126 -51.5q-73 0 -124.5 51t-51.5 125z" />
    <glyph glyph-name="approxequal" unicode="&#x2248;" horiz-adv-x="498" 
d="M443 443l-4 -41q-5 -47 -28.5 -70.5t-54.5 -23.5q-33 0 -61 14l-90 42q-20 10 -33 10q-8 0 -12.5 -5t-6 -10t-3.5 -16l-1 -6q-2 -13 -8 -17.5t-19 -4.5h-42q-24 0 -21 28l5 48q5 45 29 66.5t54 21.5q31 0 55 -11l89 -41q28 -13 41 -13q9 0 12.5 7t7.5 24l1 5q4 22 27 22
h42q24 0 21 -29zM443 254l-4 -41q-5 -47 -28.5 -70.5t-54.5 -23.5q-33 0 -61 14l-90 42q-20 10 -33 10q-8 0 -12.5 -5t-6 -10t-3.5 -16l-1 -6q-2 -13 -8 -17.5t-19 -4.5h-42q-24 0 -21 28l5 48q5 45 29 66.5t54 21.5q31 0 55 -11l89 -41q28 -13 41 -13q9 0 12.5 7t7.5 24
l1 5q4 22 27 22h42q24 0 21 -29z" />
    <glyph glyph-name="notequal" unicode="&#x2260;" horiz-adv-x="607" 
d="M289 110q-9 -25 -32 -25h-77q-25 0 -16 25l20 55h-85q-25 0 -25 25v60q0 23 25 23h125l37 97h-162q-25 0 -25 24v60q0 24 25 24h202l20 55q9 26 31 26h78q26 0 17 -26l-21 -55h85q25 0 25 -24v-60q0 -24 -25 -24h-125l-36 -97h161q25 0 25 -23v-60q0 -25 -25 -25h-201z
" />
    <glyph glyph-name="lessequal" unicode="&#x2264;" horiz-adv-x="529" 
d="M439 500l-251 -76l251 -76q25 -7 25 -27v-80q0 -14 -6.5 -21t-18.5 -3l-356 134q-8 3 -12 5t-7.5 8t-3.5 14v92q0 19 23 28l356 133q12 4 18.5 -2.5t6.5 -20.5v-80q0 -20 -25 -28zM85 176h354q14 0 19.5 -5t5.5 -18v-59q0 -24 -25 -24h-354q-25 0 -25 24v59q0 23 25 23z
" />
    <glyph glyph-name="greaterequal" unicode="&#x2265;" horiz-adv-x="542" 
d="M354 424l-251 76q-13 4 -19 9.5t-6 18.5v80q0 14 6.5 21t18.5 3l356 -133q22 -8 22 -28v-93q0 -19 -22 -27l-356 -134q-25 -10 -25 24v80q0 13 6 18.5t19 9.5zM103 177h353q25 0 25 -24v-60q0 -24 -25 -24h-353q-25 0 -25 24v60q0 24 25 24z" />
    <glyph glyph-name="lozenge" unicode="&#x25ca;" horiz-adv-x="400" 
d="M54 338l129 129q9 9 17 9t17 -9l129 -129q9 -9 9 -17t-9 -17l-129 -129q-9 -9 -17 -9t-17 9l-129 129q-9 9 -9 17t9 17z" />
    <glyph glyph-name="Omega" unicode="&#xa7b6;" horiz-adv-x="400" 
d="M64 320q0 56 40 96.5t95 40.5q56 0 96 -40.5t40 -96.5t-40 -95.5t-96 -39.5q-55 0 -95 39.5t-40 95.5zM83 320q0 -49 33.5 -82t82.5 -33q48 0 82 33.5t34 81.5t-34 82.5t-82 34.5t-82 -34.5t-34 -82.5z" />
    <glyph glyph-name="cent.denominator" unicode="&#xf629;" horiz-adv-x="314" 
d="M175 17q-2 -10 -5.5 -13.5t-12.5 -3.5h-60q-16 0 -15 17l4 32q-74 14 -74 72q0 8 1 16l14 105q10 72 94 84l4 30q3 18 20 18h60q17 0 15 -18l-4 -33q70 -18 65 -77l-1 -12q-1 -17 -20 -17h-57q-8 0 -12.5 3.5t-3.5 11.5l1 6q3 19 -30 19t-36 -22l-11 -89q-1 -8 -1 -11
q0 -18 30 -18q31 0 35 22l1 6q3 17 19 17h58q19 0 16 -17l-2 -13q-10 -69 -88 -83z" />
    <glyph glyph-name="dollar.denominator" unicode="&#xf62a;" horiz-adv-x="302" 
d="M148 0h-60q-16 0 -15 17l4 32q-34 7 -54 24.5t-17 45.5l1 10q1 15 19 15h55q9 0 12 -2.5t2 -8.5l-1 -9q-1 -9 8.5 -13t23.5 -4q36 0 37 14l1 9q1 10 -17 17l-79 29q-45 16 -39 62l2 16q6 59 82 72l4 30q3 18 20 18h59q18 0 15 -18l-5 -35q61 -18 58 -61l-1 -16
q-1 -14 -18 -14h-55q-8 0 -11.5 3.5t-2.5 8.5l1 11q1 8 -7 11t-20 3q-30 0 -31 -14l-1 -9q-1 -10 16 -16l69 -23q56 -18 51 -63l-3 -26q-6 -53 -79 -67l-5 -32q-3 -17 -19 -17z" />
    <glyph glyph-name="hyphen.denominator" unicode="&#xf62b;" horiz-adv-x="276" 
d="M45 196h154q18 0 18 -17v-41q0 -17 -18 -17h-154q-19 0 -19 17v41q0 17 19 17z" />
    <glyph glyph-name="parenleft.denominator" unicode="&#xf62c;" horiz-adv-x="222" 
d="M4 27l43 328q6 48 36 67.5t96 19.5h19q18 0 16 -17l-5 -41q-1 -17 -20 -17h-7q-34 0 -37 -23l-40 -306q-1 -7 -1 -12q0 -18 32 -18h6q18 0 16 -17l-5 -41q-1 -17 -21 -17h-5q-57 0 -90.5 22.5t-33.5 60.5q0 4 1 11z" />
    <glyph glyph-name="parenright.denominator" unicode="&#xf62d;" horiz-adv-x="222" 
d="M191 342l-42 -321q-6 -49 -36 -68.5t-96 -19.5h-19q-18 0 -16 17l5 41q1 17 20 17h7q34 0 37 23l38 298q2 17 2 20q0 18 -30 18h-7q-18 0 -16 17l6 41q3 17 20 17h5q57 0 90 -22.5t33 -60.5q0 -9 -1 -17z" />
    <glyph glyph-name="cent.numerator" unicode="&#xf62e;" horiz-adv-x="313" 
d="M212 323q-2 -10 -5.5 -13.5t-12.5 -3.5h-60q-16 0 -15 17l4 32q-74 14 -74 72q0 8 1 16l14 105q10 72 94 84l4 30q3 18 20 18h60q16 0 15 -18l-4 -33q70 -18 65 -77l-1 -12q-1 -17 -20 -17h-57q-8 0 -12.5 3.5t-3.5 11.5l1 6q3 19 -30 19t-36 -22l-11 -89q-1 -8 -1 -11
q0 -18 30 -18q31 0 35 22l1 6q3 17 19 17h58q19 0 16 -17l-2 -13q-10 -69 -88 -83z" />
    <glyph glyph-name="dollar.numerator" unicode="&#xf62f;" horiz-adv-x="303" 
d="M186 306h-60q-16 0 -15 17l4 32q-34 7 -54 24.5t-17 45.5l1 10q1 15 19 15h55q9 0 12 -2.5t2 -8.5l-1 -9q-1 -9 8.5 -13t23.5 -4q36 0 37 14l1 9q1 10 -17 17l-79 29q-45 16 -39 62l2 16q6 59 82 72l4 30q3 18 20 18h59q18 0 15 -18l-5 -35q61 -18 58 -61l-1 -16
q-1 -14 -18 -14h-55q-8 0 -11.5 3.5t-2.5 8.5l1 11q1 8 -7 11t-20 3q-30 0 -31 -14l-1 -9q-1 -10 16 -16l69 -23q56 -18 51 -63l-3 -26q-6 -53 -79 -67l-5 -32q-3 -17 -19 -17z" />
    <glyph glyph-name="hyphen.numerator" unicode="&#xf630;" horiz-adv-x="274" 
d="M81 502h154q18 0 18 -17v-41q0 -17 -18 -17h-154q-19 0 -19 17v41q0 17 19 17z" />
    <glyph glyph-name="parenleft.numerator" unicode="&#xf631;" horiz-adv-x="223" 
d="M42 333l43 328q6 48 36 67.5t96 19.5h19q18 0 16 -17l-5 -41q-1 -17 -20 -17h-7q-34 0 -37 -23l-40 -306q-1 -7 -1 -12q0 -18 32 -18h6q18 0 16 -17l-5 -41q-1 -17 -21 -17h-5q-57 0 -90.5 22.5t-33.5 60.5q0 4 1 11z" />
    <glyph glyph-name="parenright.numerator" unicode="&#xf632;" horiz-adv-x="222" 
d="M228 648l-42 -321q-6 -49 -36 -68.5t-96 -19.5h-19q-18 0 -16 17l5 41q1 17 20 17h7q34 0 37 23l38 298q2 17 2 20q0 18 -30 18h-7q-18 0 -16 17l6 41q3 17 20 17h5q57 0 90 -22.5t33 -60.5q0 -9 -1 -17z" />
    <glyph glyph-name="zero.denominator" unicode="&#xf655;" 
d="M4 103l21 176q12 99 152 99q66 0 100.5 -26t34.5 -64q0 -7 -1 -16l-22 -177q-12 -99 -147 -99q-67 0 -103 26t-36 63q0 11 1 18zM192 110l18 154q4 35 -39 35q-44 0 -48 -35l-19 -154q-2 -20 8 -27.5t34 -7.5q42 0 46 35z" />
    <glyph glyph-name="one.denominator" unicode="&#xf656;" 
d="M69 356l154 22q7 1 11 -2t3 -14l-35 -283h65q16 0 15 -16l-5 -47q-1 -16 -19 -16h-231q-18 0 -15 16l6 47q3 16 18 16h67l25 206l-69 -8q-7 -1 -11 2.5t-3 10.5l6 48q3 16 18 18z" />
    <glyph glyph-name="two.denominator" unicode="&#xf657;" 
d="M109 79h162q16 0 13 -16l-6 -47q-3 -16 -18 -16h-244q-16 0 -15 16l11 91q6 46 52 64l110 43q10 4 15 6.5t10.5 9t6.5 16.5l2 16q1 10 1 13q0 26 -41 26q-44 0 -47 -31l-2 -19q-1 -15 -17 -15h-66q-15 0 -14 15l3 29q4 42 41 70t114 28q63 0 96 -26t33 -64q0 -7 -1 -15
l-4 -32q-5 -39 -23 -57t-48 -30l-105 -40q-16 -6 -17 -17z" />
    <glyph glyph-name="three.denominator" unicode="&#xf658;" 
d="M285 87q-10 -91 -150 -91q-63 0 -99 25t-36 62q0 5 1 17l1 8q1 17 18 17h65q13 0 13 -17v-12q0 -27 42 -27q44 0 49 32l2 12q1 9 1 12q0 32 -42 32h-39q-15 0 -14 14l5 39q1 14 17 14h35q46 0 49 38l1 12q3 31 -37 31q-23 0 -32.5 -7t-12.5 -25l-1 -6q-3 -16 -18 -16h-64
q-15 0 -14 16l2 16q11 95 151 95q66 0 98 -25.5t27 -65.5l-5 -39q-3 -24 -13 -35.5t-35 -20.5q40 -17 40 -53q0 -5 -1 -17z" />
    <glyph glyph-name="four.denominator" unicode="&#xf659;" 
d="M179 358l-74 -189h85l24 189q1 16 17 16h66q15 0 14 -16l-42 -342q-1 -16 -17 -16h-67q-14 0 -13 16l9 77h-172q-17 0 -16 16l4 31q2 14 9 30l76 188q6 16 22 16h64q18 0 11 -16z" />
    <glyph glyph-name="five.denominator" unicode="&#xf65a;" 
d="M69 374h222q16 0 15 -15l-5 -44q-1 -16 -19 -16h-140l-7 -52h40q63 0 91 -23.5t28 -58.5q0 -5 -1 -14l-8 -60q-12 -96 -148 -96q-60 0 -98 24t-38 65q0 5 1 15l1 9q1 15 18 15h63q9 0 11 -3t2 -12v-6q0 -35 43 -35q45 0 49 35l4 29q1 9 1 13q0 30 -41 30h-108
q-18 0 -15 17l21 167q1 16 18 16z" />
    <glyph glyph-name="six.denominator" unicode="&#xf65b;" 
d="M7 82q0 8 1 16l24 184q12 96 149 96q67 0 97 -27t27 -67l-1 -11q-2 -18 -17 -18h-65q-7 0 -10 3t-3 12v5q0 29 -35 29q-42 0 -46 -34l-7 -51q29 12 55 12q58 0 88 -21.5t30 -55.5q0 -3 -2 -17l-6 -45q-14 -96 -151 -96q-63 0 -95.5 24.5t-32.5 61.5zM190 103l2 20
q2 19 -8.5 27t-28.5 8q-41 0 -45 -32l-3 -23q-2 -17 8 -25t29 -8q43 0 46 33z" />
    <glyph glyph-name="seven.denominator" unicode="&#xf65c;" 
d="M54 374h253q16 0 15 -15l-5 -41q-1 -7 -6 -17l-162 -285q-8 -16 -22 -16h-78q-18 0 -9 16l159 279h-155q-16 0 -15 17l5 47q1 15 20 15z" />
    <glyph glyph-name="eight.denominator" unicode="&#xf65d;" 
d="M29 240q0 2 3 22l3 22q6 44 36.5 69t109.5 25q63 0 93 -23t30 -59q0 -5 -1 -12l-5 -36q-5 -37 -47 -56q41 -18 41 -51q0 -7 -2 -23l-4 -28q-14 -94 -152 -94q-65 0 -98 24t-33 61q0 10 3 28l3 26q5 39 55 57q-35 17 -35 48zM204 260l1 6q1 8 1 14q0 27 -34 27
q-40 0 -44 -34l-1 -9q-1 -8 -1 -11q0 -26 36 -26q37 0 42 33zM192 102l1 11q1 11 1 14q0 29 -40 29q-47 0 -50 -34l-1 -11q-1 -9 -1 -15q0 -29 41 -29q46 0 49 35z" />
    <glyph glyph-name="nine.denominator" unicode="&#xf65e;" 
d="M306 276l-24 -184q-12 -96 -149 -96q-67 0 -97.5 27.5t-27.5 66.5l1 11q1 18 18 18h65q15 0 13 -15l-1 -7q-4 -27 35 -27q43 0 47 34l6 51q-27 -12 -55 -12q-57 0 -86.5 21t-29.5 55q0 11 1 18l6 45q14 96 151 96q63 0 95.5 -24.5t32.5 -61.5q0 -7 -1 -16zM124 271l-1 -7
q-2 -16 -2 -19q0 -29 37 -29q43 0 46 32l1 10q1 15 1 18q0 28 -37 28q-41 0 -45 -33z" />
    <glyph glyph-name="comma.denominator" unicode="&#xf65f;" horiz-adv-x="187" 
d="M18 24l5 38q3 18 20 18h64q17 0 14 -18l-6 -44q-10 -71 -109 -89q-17 -4 -21 11l-11 39q-4 16 16 21q25 6 28 24z" />
    <glyph glyph-name="period.denominator" unicode="&#xf660;" horiz-adv-x="171" 
d="M107 63l-6 -46q-3 -17 -19 -17h-64q-19 0 -16 17l6 45q3 18 20 18h64q10 0 13.5 -3.5t1.5 -13.5z" />
    <glyph glyph-name="zero.numerator" unicode="&#xf661;" 
d="M41 409l21 176q12 99 152 99q66 0 100.5 -26t34.5 -64q0 -7 -1 -16l-22 -177q-12 -99 -147 -99q-67 0 -103 26t-36 63q0 11 1 18zM229 416l18 154q4 35 -39 35q-44 0 -48 -35l-19 -154q-2 -20 8 -27.5t34 -7.5q42 0 46 35z" />
    <glyph glyph-name="one.numerator" unicode="&#xf662;" 
d="M107 662l154 22q7 1 11 -2t3 -14l-35 -283h65q16 0 15 -16l-5 -47q-1 -16 -19 -16h-231q-18 0 -15 16l6 47q3 16 18 16h67l25 206l-69 -8q-7 -1 -11 2.5t-3 10.5l6 48q3 16 18 18z" />
    <glyph glyph-name="two.numerator" unicode="&#xf663;" 
d="M146 385h162q16 0 13 -16l-6 -47q-3 -16 -18 -16h-244q-16 0 -15 16l11 91q6 46 52 64l110 43q10 4 15 6.5t10.5 9t6.5 16.5l2 16q1 10 1 13q0 26 -41 26q-44 0 -47 -31l-2 -19q-1 -15 -17 -15h-66q-15 0 -14 15l3 29q4 42 41 70t114 28q63 0 96 -26t33 -64q0 -7 -1 -15
l-4 -32q-5 -39 -23 -57t-48 -30l-105 -40q-16 -6 -17 -17z" />
    <glyph glyph-name="three.numerator" unicode="&#xf664;" 
d="M323 393q-10 -91 -150 -91q-63 0 -99 25t-36 62q0 5 1 17l1 8q1 17 18 17h65q13 0 13 -17v-12q0 -27 42 -27q44 0 49 32l2 12q1 9 1 12q0 32 -42 32h-39q-15 0 -14 14l5 39q1 14 17 14h35q46 0 49 38l1 12q3 31 -37 31q-23 0 -32.5 -7t-12.5 -25l-1 -6q-3 -16 -18 -16
h-64q-15 0 -14 16l2 16q11 95 151 95q66 0 98 -25.5t27 -65.5l-5 -39q-3 -24 -13 -35.5t-35 -20.5q40 -17 40 -53q0 -5 -1 -17z" />
    <glyph glyph-name="four.numerator" unicode="&#xf665;" 
d="M217 664l-74 -189h85l24 189q1 16 17 16h66q15 0 14 -16l-42 -342q-1 -16 -17 -16h-67q-14 0 -13 16l9 77h-172q-17 0 -16 16l4 31q2 14 9 30l76 188q6 16 22 16h64q18 0 11 -16z" />
    <glyph glyph-name="five.numerator" unicode="&#xf666;" 
d="M107 680h222q16 0 15 -15l-5 -44q-1 -16 -19 -16h-140l-7 -52h40q63 0 91 -23.5t28 -58.5q0 -5 -1 -14l-8 -60q-12 -96 -148 -96q-60 0 -98 24t-38 65q0 5 1 15l1 9q1 15 18 15h63q9 0 11 -3t2 -12v-6q0 -35 43 -35q45 0 49 35l4 29q1 9 1 13q0 30 -41 30h-108
q-18 0 -15 17l21 167q1 16 18 16z" />
    <glyph glyph-name="six.numerator" unicode="&#xf667;" 
d="M45 388q0 8 1 16l24 184q12 96 149 96q67 0 97 -27t27 -67l-1 -11q-2 -18 -17 -18h-65q-7 0 -10 3t-3 12v5q0 29 -35 29q-42 0 -46 -34l-7 -51q29 12 55 12q58 0 88 -21.5t30 -55.5q0 -3 -2 -17l-6 -45q-14 -96 -151 -96q-63 0 -95.5 24.5t-32.5 61.5zM228 409l2 20
q2 19 -8.5 27t-28.5 8q-41 0 -45 -32l-3 -23q-2 -17 8 -25t29 -8q43 0 46 33z" />
    <glyph glyph-name="seven.numerator" unicode="&#xf668;" 
d="M91 680h253q16 0 15 -15l-5 -41q-1 -7 -6 -17l-162 -285q-8 -16 -22 -16h-78q-18 0 -9 16l159 279h-155q-16 0 -15 17l5 47q1 15 20 15z" />
    <glyph glyph-name="eight.numerator" unicode="&#xf669;" 
d="M67 546q0 2 3 22l3 22q6 44 36.5 69t109.5 25q63 0 93 -23t30 -59q0 -5 -1 -12l-5 -36q-5 -37 -47 -56q41 -18 41 -51q0 -7 -2 -23l-4 -28q-14 -94 -152 -94q-65 0 -98 24t-33 61q0 10 3 28l3 26q5 39 55 57q-35 17 -35 48zM242 566l1 6q1 8 1 14q0 27 -34 27
q-40 0 -44 -34l-1 -9q-1 -8 -1 -11q0 -26 36 -26q37 0 42 33zM230 408l1 11q1 11 1 14q0 29 -40 29q-47 0 -50 -34l-1 -11q-1 -9 -1 -15q0 -29 41 -29q46 0 49 35z" />
    <glyph glyph-name="nine.numerator" unicode="&#xf66a;" 
d="M344 582l-24 -184q-12 -96 -149 -96q-67 0 -97.5 27.5t-27.5 66.5l1 11q1 18 18 18h65q15 0 13 -15l-1 -7q-4 -27 35 -27q43 0 47 34l6 51q-27 -12 -55 -12q-57 0 -86.5 21t-29.5 55q0 11 1 18l6 45q14 96 151 96q63 0 95.5 -24.5t32.5 -61.5q0 -7 -1 -16zM162 577l-1 -7
q-2 -16 -2 -19q0 -29 37 -29q43 0 46 32l1 10q1 15 1 18q0 28 -37 28q-41 0 -45 -33z" />
    <glyph glyph-name="comma.numerator" unicode="&#xf66b;" horiz-adv-x="200" 
d="M63 330l5 38q3 18 20 18h64q17 0 14 -18l-6 -44q-10 -71 -109 -89q-17 -4 -21 11l-11 39q-4 16 16 21q25 6 28 24z" />
    <glyph glyph-name="period.numerator" unicode="&#xf66c;" horiz-adv-x="175" 
d="M146 369l-6 -46q-3 -17 -19 -17h-64q-19 0 -16 17l6 45q3 18 20 18h64q10 0 13.5 -3.5t1.5 -13.5z" />
    <glyph glyph-name="commaaccent" unicode="&#xf6c3;" horiz-adv-x="195" 
d="M68 75l4 31q3 25 27 25h62q23 0 20 -25l-5 -38q-5 -42 -19 -69.5t-41 -63.5q-13 -18 -34 -13l-45 11q-23 6 -8 33q20 34 27 53t12 56z" />
    <glyph glyph-name="ff" unicode="&#xfb00;" horiz-adv-x="655" 
d="M32 418l6 49q2 21 28 24l51 5h3l8 60q20 147 228 147h13q26 0 23 -25l-7 -57q-3 -25 -29 -25h-9q-84 0 -90 -55l-5 -45h174l8 60q20 147 228 147h14q25 0 22 -25l-7 -57q-3 -25 -29 -25h-9q-82 0 -89 -55l-6 -45h83q25 0 22 -23l-7 -55q-3 -25 -27 -25h-83l-71 -569
q-3 -25 -26 -25h-83q-25 0 -22 25l70 569h-175l-70 -569q-3 -25 -26 -25h-83q-25 0 -22 25l70 569h-54q-25 0 -22 25z" />
    <glyph glyph-name="ffi" unicode="&#xfb03;" horiz-adv-x="897" 
d="M32 418l6 49q2 21 28 24l51 5h3l8 60q20 147 228 147h13q26 0 23 -25l-7 -57q-3 -25 -29 -25h-9q-84 0 -90 -55l-5 -45h175l7 56q18 147 224 147h200q25 0 22 -25l-6 -57q-3 -25 -29 -25h-192q-43 0 -63.5 -13t-25.5 -42l-6 -41h282q25 0 22 -24l-55 -447q-3 -25 -26 -25
h-84q-24 0 -21 25l45 368h-175l-71 -569q-2 -14 -7.5 -19.5t-18.5 -5.5h-83q-25 0 -22 25l70 569h-175l-70 -569q-3 -25 -26 -25h-83q-25 0 -22 25l70 569h-54q-25 0 -22 25z" />
    <glyph glyph-name="ffl" unicode="&#xfb04;" horiz-adv-x="898" 
d="M887 674l-79 -649q-3 -25 -27 -25h-83q-24 0 -21 25l69 567h-92q-44 0 -64.5 -13t-25.5 -42l-6 -41h83q26 0 23 -23l-7 -55q-3 -25 -28 -25h-83l-70 -569q-3 -25 -27 -25h-83q-25 0 -22 25l71 569h-176l-70 -569q-3 -25 -27 -25h-83q-25 0 -22 25l71 569h-54
q-25 0 -22 25l6 49q2 21 27 24l51 5h4l7 60q17 147 229 147h13q25 0 22 -25l-6 -57q-3 -25 -29 -25h-10q-82 0 -89 -55l-6 -45h176l7 56q18 147 224 147h207q25 0 22 -25z" />
    <glyph glyph-name="zero.tab" unicode="&#xff10;" horiz-adv-x="562" 
d="M32 162l44 363q9 72 66.5 117.5t180.5 45.5q111 0 165.5 -41t54.5 -103q0 -6 -2 -26l-43 -363q-9 -72 -67 -117.5t-181 -45.5q-112 0 -166 40.5t-54 103.5q0 10 2 26zM365 179l39 316q2 16 2 19q0 62 -90 62q-98 0 -107 -75l-39 -310q-3 -24 -3 -25q0 -62 92 -62
q97 0 106 75z" />
    <glyph glyph-name="one.tab" unicode="&#xff11;" horiz-adv-x="562" 
d="M139 642l251 45q11 2 17 -3t4 -21l-68 -551h132q25 0 22 -24l-8 -63q-3 -25 -28 -25h-402q-25 0 -22 25l8 63q3 24 28 24h135l55 443l-138 -25q-12 -2 -18 3t-5 18l8 64q3 22 29 27z" />
    <glyph glyph-name="two.tab" unicode="&#xff12;" horiz-adv-x="562" 
d="M175 112h290q26 0 23 -24l-8 -63q-3 -25 -28 -25h-401q-24 0 -21 25l20 163q6 53 31.5 79.5t70.5 43.5l194 71q39 14 46 58l9 58q2 15 2 21q0 59 -91 59q-93 0 -105 -75l-6 -39q-2 -14 -7.5 -19.5t-18.5 -5.5h-83q-25 0 -22 25l8 61q21 163 243 163q110 0 163.5 -40.5
t53.5 -103.5q0 -8 -2 -26l-9 -78q-13 -117 -113 -153l-178 -64q-28 -10 -38.5 -20.5t-14.5 -34.5z" />
    <glyph glyph-name="three.tab" unicode="&#xff13;" horiz-adv-x="562" 
d="M213 404h68q100 0 107 74l3 28q1 9 1 15q0 59 -85 59q-94 0 -100 -74l-1 -13q-1 -25 -28 -25h-83q-24 0 -21 25l4 32q9 74 62.5 118.5t179.5 44.5q110 0 159.5 -39t49.5 -101q0 -10 -2 -28l-9 -65q-5 -40 -25 -63.5t-62 -37.5q71 -28 71 -97q0 -9 -2 -27l-11 -81
q-9 -72 -63.5 -114.5t-180.5 -42.5q-113 0 -165.5 40t-52.5 103q0 12 1 20l4 32q3 25 27 25h83q23 0 21 -25l-1 -13q-1 -8 -1 -16q0 -58 93 -58q97 0 106 74l6 49q1 11 1 16q0 57 -90 57h-77q-25 0 -22 25l7 59q3 24 28 24z" />
    <glyph glyph-name="four.tab" unicode="&#xff14;" horiz-adv-x="562" 
d="M326 654l-154 -357h187l44 357q3 26 28 26h87q23 0 20 -26l-77 -628q-3 -26 -26 -26h-87q-25 0 -22 26l20 159h-305q-25 0 -22 24l7 58q2 15 11 35l153 352q11 26 34 26h87q26 0 15 -26z" />
    <glyph glyph-name="five.tab" unicode="&#xff15;" horiz-adv-x="562" 
d="M144 680h366q26 0 23 -24l-8 -63q-3 -25 -28 -25h-254l-16 -131h67q108 0 161 -39.5t53 -102.5q0 -4 -2 -26l-14 -115q-19 -163 -247 -163q-113 0 -164.5 40t-51.5 103q0 12 1 20l4 32q3 25 27 25h83q24 0 21 -25l-1 -11q-1 -10 -1 -16q0 -60 92 -60q95 0 104 75l9 70
q2 16 2 25q0 60 -89 60h-179q-23 0 -20 26l36 299q3 26 26 26z" />
    <glyph glyph-name="six.tab" unicode="&#xff16;" horiz-adv-x="562" 
d="M42 155l45 371q20 162 239 162q108 0 158.5 -40t50.5 -100q0 -14 -1 -22l-4 -26q-4 -25 -27 -25h-83q-24 0 -21 25l1 7q1 8 1 15q0 58 -84 58q-90 0 -99 -73l-16 -122q50 31 116 31q94 0 142 -41t48 -102q0 -10 -2 -28l-10 -90q-17 -163 -242 -163q-110 0 -161.5 39.5
t-51.5 102.5q0 11 1 21zM364 175l7 58q1 8 1 15q0 59 -87 59q-92 0 -100 -68l-7 -58q-1 -9 -1 -22q0 -59 86 -59q92 0 101 75z" />
    <glyph glyph-name="seven.tab" unicode="&#xff17;" horiz-adv-x="562" 
d="M109 680h434q26 0 23 -24l-8 -62q-1 -9 -9 -25l-309 -543q-15 -26 -33 -26h-101q-29 0 -15 26l309 542h-304q-26 0 -23 25l8 63q3 24 28 24z" />
    <glyph glyph-name="eight.tab" unicode="&#xff18;" horiz-adv-x="562" 
d="M86 465l7 60q4 35 15.5 61.5t35.5 51t69 37.5t109 13q108 0 155.5 -39t47.5 -102q0 -12 -1 -22l-8 -66q-5 -41 -26 -65.5t-63 -40.5q75 -28 75 -94q0 -6 -2 -20l-10 -84q-19 -163 -240 -163q-110 0 -161.5 40t-51.5 104q0 9 1 19l10 91q8 76 98 107q-62 26 -62 90
q0 4 2 22zM387 480l4 25q1 8 1 17q0 58 -79 58q-46 0 -66 -18t-25 -57l-3 -25q-1 -9 -1 -16q0 -31 17.5 -45t57.5 -14q46 0 67 18t27 57zM359 175l6 44q2 16 2 20q0 59 -87 59q-48 0 -72 -17.5t-29 -55.5l-6 -50q-1 -10 -1 -16q0 -59 86 -59q48 0 72 18.5t29 56.5z" />
    <glyph glyph-name="nine.tab" unicode="&#xff19;" horiz-adv-x="562" 
d="M531 525l-44 -371q-20 -162 -238 -162q-108 0 -159.5 40t-51.5 100q0 13 1 22l4 26q4 25 27 25h83q24 0 21 -25l-1 -7q-1 -8 -1 -15q0 -58 84 -58q90 0 99 73l16 122q-50 -31 -116 -31q-94 0 -142 41t-48 102q0 10 2 28l11 90q19 163 240 163q110 0 162.5 -40.5
t52.5 -102.5q0 -4 -2 -20zM209 505l-7 -58q-1 -8 -1 -14q0 -60 87 -60q92 0 100 68l7 58q2 18 2 21q0 60 -86 60q-93 0 -102 -75z" />
    <glyph glyph-name="CR" horiz-adv-x="0" 
 />
    <glyph glyph-name="apple" horiz-adv-x="1482" 
d="M69 529v8h1338v-8h-1338zM1213 332l-29 -2v4q0 20 12 20h17l-3 30q24 8 32 8q11 0 11 -8v-29h47v-3q0 -21 -12 -21h-35v-90q0 -15 16 -15q11 0 38.5 5.5t46.5 5.5q17 0 39.5 -6t22.5 -18q0 -14 -9.5 -21t-17.5 -7q-2 0 -26.5 12t-44.5 12q-7 0 -32 -4t-44 -4t-23 12.5
t-5 65.5q0 32 -1 53zM711 320q17 0 28.5 -13.5t11.5 -37.5q0 -68 -87 -68v-40l3 -32q-24 -8 -32 -8q-11 0 -11 8v75l-25 -3v-3q0 -79 -68 -79q-21 0 -31 10.5t-10 23.5q0 36 70 53v42q-17 -48 -46 -48q-28 0 -28 31v3q-19 -33 -53 -33q-29 0 -29 30v101l-29 -2v4q0 20 12 20
h17l-3 30q24 8 32 8q11 0 11 -8v-29h47v-3q0 -21 -12 -21h-35v-86q0 -16 13 -16q9 0 19 8t10 18v25l-3 33q24 8 32 8q11 0 11 -9v-66q0 -15 7 -15q8 0 17.5 17.5t8.5 30.5l-2 34q24 8 31 8q11 0 11 -9v-99l25 3v61l-3 36q24 8 32 8q11 0 11 -9v-40q17 48 47 48zM1172 258
q-16 -6 -44 -6q2 -22 26 -22q17 0 32 9q8 -5 8 -16q0 -4 -2.5 -8.5t-14 -9.5t-30.5 -5q-28 0 -44 14.5t-16 38.5q0 27 18.5 47.5t50.5 20.5q19 0 30 -9.5t11 -21.5q0 -24 -25 -32zM849 258q-16 -6 -44 -6q2 -22 26 -22q17 0 32 9q8 -5 8 -16q0 -4 -2.5 -8.5t-14 -9.5
t-30.5 -5q-28 0 -44 14.5t-16 38.5q0 27 18.5 47.5t50.5 20.5q19 0 30 -9.5t11 -21.5q0 -24 -25 -32zM150 258q-16 -6 -44 -6q2 -22 26 -22q17 0 32 9q8 -5 8 -16q0 -4 -2.5 -8.5t-14 -9.5t-30.5 -5q-28 0 -44 14.5t-16 38.5q0 27 18.5 47.5t50.5 20.5q19 0 30 -9.5
t11 -21.5q0 -24 -25 -32zM380 289v-49l3 -32q-24 -8 -31 -8q-11 0 -11 8v66q0 16 -8 16q-6 0 -16 -17.5t-10 -30.5l2 -34q-24 -8 -31 -8q-11 0 -11 8v66q0 16 -8 16q-7 0 -16.5 -17.5t-9.5 -30.5l3 -34q-24 -8 -32 -8q-11 0 -11 8v69l-3 36q24 8 32 8q11 0 11 -9v-40
q3 9 7.5 19t15 20t22.5 10q29 0 29 -32v-17q14 49 45 49q28 0 28 -32zM1071 289v-49l2 -32q-24 -8 -31 -8q-11 0 -11 8v67q0 15 -8 15q-7 0 -16.5 -17.5t-9.5 -30.5l3 -34q-24 -8 -32 -8q-11 0 -11 8v69l-3 36q24 8 32 8q11 0 11 -9v-40q17 49 45 49q29 0 29 -32zM105 264
q37 0 37 21q0 13 -13 13q-20 0 -24 -34zM1127 264q37 0 37 21q0 13 -13 13q-20 0 -24 -34zM804 264q37 0 37 21q0 13 -13 13q-20 0 -24 -34zM664 219q45 6 45 51q0 20 -13 20t-22.5 -18.5t-9.5 -29.5v-23zM914 250q11 0 18.5 -7t7.5 -17t-7.5 -16.5t-18.5 -6.5t-18 6.5
t-7 16.5t7 17t18 7zM559 194q-41 -9 -41 -32q0 -14 14 -14q25 0 27 46zM69 0v8h1338v-8h-1338z" />
    <glyph glyph-name="Lgeminada" horiz-adv-x="926" 
d="M249 654l-66 -542h223q25 0 22 -24l-8 -63q-3 -25 -28 -25h-336q-22 0 -19 26l77 628q3 26 28 26h87q23 0 20 -26zM712 654l-66 -542h223q25 0 22 -24l-8 -63q-3 -25 -28 -25h-336q-22 0 -19 26l77 628q3 26 28 26h87q23 0 20 -26zM448 393l-10 -81q-3 -25 -27 -25h-85
q-24 0 -21 25l9 81q3 25 28 25h86q23 0 20 -25z" />
    <glyph glyph-name="lgeminada" horiz-adv-x="616" 
d="M235 673l-79 -647q-3 -26 -27 -26h-84q-24 0 -21 26l80 647q3 26 27 26h84q23 0 20 -26zM605 673l-79 -647q-3 -26 -27 -26h-84q-24 0 -21 26l80 647q3 26 27 26h84q23 0 20 -26zM387 393l-10 -81q-3 -25 -27 -25h-85q-24 0 -21 25l9 81q3 25 28 25h86q23 0 20 -25z" />
    <glyph glyph-name="acute.case" horiz-adv-x="194" 
d="M194 853l-84 -106q-12 -16 -35 -16h-67q-26 0 -10 24l61 98q16 25 37 25h89q13 0 15.5 -7t-6.5 -18z" />
    <glyph glyph-name="grave.case" horiz-adv-x="194" 
d="M74 747l-60 106q-6 11 -1.5 18t17.5 7h85q21 0 31 -25l37 -98q10 -24 -16 -24h-63q-22 0 -30 16z" />
    <glyph glyph-name="hungarumlaut.case" horiz-adv-x="194" 
d="M265 853l-81 -99q-18 -23 -40 -23h-62q-26 0 -9 24l68 98q17 25 41 25h73q13 0 15.5 -7t-5.5 -18zM104 853l-66 -98q-16 -24 -37 -24h-61q-27 0 -13 24l53 98q14 25 38 25h72q13 0 17.5 -7t-3.5 -18z" />
    <glyph glyph-name="circumflex.case" horiz-adv-x="194" 
d="M104 800l-30 -45q-16 -24 -37 -24h-64q-13 0 -16.5 7t5.5 17l85 98q21 25 43 25h47q20 0 36 -25l62 -98q7 -11 2 -17.5t-19 -6.5h-62q-21 0 -32 24z" />
    <glyph glyph-name="caron.case" horiz-adv-x="194" 
d="M69 853l20 -44l30 44q17 25 38 25h64q13 0 16 -7t-6 -18l-84 -98q-19 -24 -43 -24h-48q-21 0 -36 25l-61 97q-7 11 -2 18t19 7h62q21 0 31 -25z" />
    <glyph glyph-name="breve.case" horiz-adv-x="194" 
d="M51 871l-2 -14q-1 -8 -1 -12q0 -35 42 -35q47 0 50 45l1 16q1 20 25 20h50q22 0 19 -20l-2 -13q-9 -63 -44 -94.5t-104 -31.5q-60 0 -95.5 27t-35.5 76q0 12 1 20l2 16q3 20 25 20h49q23 0 20 -20z" />
    <glyph glyph-name="tilde.case" horiz-adv-x="194" 
d="M33 786q-14 0 -20 -20l-3 -10q-6 -22 -29 -22h-42q-24 0 -17 29l9 41q8 37 34 57.5t61 20.5q34 0 60 -14l40 -21q28 -14 33 -14q9 0 13 5t9 19l2 6q7 22 29 22h44q24 0 18 -29l-9 -38q-19 -79 -89 -79q-38 0 -66 14l-43 21q-24 12 -34 12z" />
    <glyph glyph-name="macron.case" horiz-adv-x="194" 
d="M-12 849h230q25 0 22 -23l-5 -51q-3 -25 -29 -25h-230q-25 0 -22 25l5 51q3 23 29 23z" />
    <glyph glyph-name="dieresis.case" horiz-adv-x="194" 
d="M81 850l-11 -93q-3 -25 -27 -25h-49q-24 0 -21 25l11 93q3 26 29 26h48q23 0 20 -26zM221 850l-11 -93q-3 -25 -27 -25h-49q-24 0 -21 25l11 93q3 26 28 26h49q23 0 20 -26z" />
    <glyph glyph-name="dotaccent.case" horiz-adv-x="194" 
d="M169 839l-10 -82q-3 -24 -26 -24h-86q-13 0 -18 5t-3 19l10 82q3 25 27 25h86q23 0 20 -25z" />
    <glyph glyph-name="ring.case" horiz-adv-x="194" 
d="M210 819l-3 -31q-8 -75 -113 -75q-57 0 -83.5 22t-23.5 58l3 30q7 76 116 76q57 0 82 -21.5t22 -58.5zM138 798l1 15q1 18 -8 24t-30 6q-42 0 -43 -30l-1 -15q-1 -15 8.5 -22.5t29.5 -7.5q42 0 43 30z" />
    </font>
</defs>
</svg>
