<?xml version="1.0" standalone="no"?>
<!DOCTYPE svg PUBLIC "-//W3C//DTD SVG 1.1//EN" "http://www.w3.org/Graphics/SVG/1.1/DTD/svg11.dtd" >
<svg xmlns="http://www.w3.org/2000/svg" xmlns:xlink="http://www.w3.org/1999/xlink" version="1.1">
<metadata>
Created by FontForge 20170731 at Thu Dec 15 22:58:58 2016
 By Aleksey,,,
Copyright (c) 2008-2016 by Eduardo Manso. All rights reserved.
</metadata>
<defs>
<font id="Geogrotesque-Md" horiz-adv-x="327" >
  <font-face 
    font-family="Geogrotesque Medium"
    font-weight="500"
    font-stretch="normal"
    units-per-em="1000"
    panose-1="0 0 0 0 0 0 0 0 0 0"
    ascent="750"
    descent="-250"
    x-height="496"
    cap-height="680"
    bbox="-146.462 -238.562 1416 964"
    underline-thickness="66"
    underline-position="-257"
    unicode-range="U+000D-FF19"
  />
<missing-glyph horiz-adv-x="854" 
d="M674 94q-104 -102 -249 -102q-144 0 -246 102q-103 101 -103 247q0 144 103 247q102 102 246 102q147 0 249 -102q103 -103 103 -247t-103 -247zM662 106q99 99 99 235t-99 235q-98 98 -237 98q-136 0 -234 -98q-99 -99 -99 -235q0 -137 99 -235q98 -98 234 -98
q139 0 237 98zM537 177l-110 110l-110 -110q-13 -13 -27 1l-29 29q-13 13 0 26l110 110l-110 110q-14 14 -1 27l29 29q14 14 28 0l110 -111l111 111q14 13 26 1l29 -29q14 -14 0 -28l-111 -110l111 -111q13 -13 -1 -27l-29 -29q-13 -12 -26 1z" />
    <glyph glyph-name="fi" unicode="fi" horiz-adv-x="564" 
d="M495 475v-455q0 -20 -18 -20h-58q-19 0 -19 20v396h-204v-396q0 -20 -18 -20h-59q-18 0 -18 20v396h-59q-19 0 -19 20v35q0 18 19 19l52 4h7v68q0 137 198 137h163q19 0 19 -19v-42q0 -20 -19 -20h-163q-103 0 -103 -66v-58h280q19 0 19 -19z" />
    <glyph glyph-name="fl" unicode="fl" horiz-adv-x="564" 
d="M495 680v-660q0 -20 -18 -20h-58q-19 0 -19 20v598h-101q-103 0 -103 -66v-58h98q19 0 19 -18v-40q0 -20 -19 -20h-98v-396q0 -20 -18 -20h-59q-18 0 -18 20v396h-59q-19 0 -19 20v35q0 18 19 19l52 4h7v68q0 137 198 137h177q19 0 19 -19z" />
    <glyph glyph-name=".notdef" horiz-adv-x="854" 
d="M674 94q-104 -102 -249 -102q-144 0 -246 102q-103 101 -103 247q0 144 103 247q102 102 246 102q147 0 249 -102q103 -103 103 -247t-103 -247zM662 106q99 99 99 235t-99 235q-98 98 -237 98q-136 0 -234 -98q-99 -99 -99 -235q0 -137 99 -235q98 -98 234 -98
q139 0 237 98zM537 177l-110 110l-110 -110q-13 -13 -27 1l-29 29q-13 13 0 26l110 110l-110 110q-14 14 -1 27l29 29q14 14 28 0l110 -111l111 111q14 13 26 1l29 -29q14 -14 0 -28l-111 -110l111 -111q13 -13 -1 -27l-29 -29q-13 -12 -26 1z" />
    <glyph glyph-name=".null" horiz-adv-x="0" 
 />
    <glyph glyph-name=".null" horiz-adv-x="0" 
 />
    <glyph glyph-name="nonmarkingreturn" horiz-adv-x="333" 
 />
    <glyph glyph-name="CR" unicode="&#xd;" horiz-adv-x="0" 
 />
    <glyph glyph-name="space" unicode=" " horiz-adv-x="211" 
 />
    <glyph glyph-name="exclam" unicode="!" horiz-adv-x="241" 
d="M170 390l-9 -200q-1 -19 -18 -19h-44q-17 0 -18 19l-10 200v270q0 20 19 20h62q18 0 18 -20v-270zM169 99v-80q0 -19 -18 -19h-61q-19 0 -19 19v80q0 19 19 19h61q18 0 18 -19z" />
    <glyph glyph-name="quotedbl" unicode="&#x22;" horiz-adv-x="366" 
d="M144 493q-1 -20 -18 -20h-41q-18 0 -19 20l-8 167q-1 20 19 20h57q19 0 18 -20zM300 493q-1 -20 -19 -20h-41q-17 0 -18 20l-8 167q-1 20 18 20h57q20 0 19 -20z" />
    <glyph glyph-name="numbersign" unicode="#" horiz-adv-x="593" 
d="M184 20q-3 -20 -17 -20h-42q-23 0 -20 20l23 183h-70q-19 0 -19 19v32q0 18 19 18h79l17 137h-68q-19 0 -19 19v32q0 18 19 18h76l23 182q3 20 19 20h42q21 0 19 -20l-23 -182h143l23 182q3 20 19 20h42q21 0 19 -20l-23 -182h70q19 0 19 -18v-32q0 -19 -19 -19h-79
l-17 -137h68q19 0 19 -18v-32q0 -19 -19 -19h-77l-23 -183q-3 -20 -17 -20h-42q-23 0 -20 20l23 183h-144zM216 272h144l17 137h-144z" />
    <glyph glyph-name="dollar" unicode="$" horiz-adv-x="479" 
d="M271 0h-59q-19 0 -19 20v66q-74 9 -109.5 41t-35.5 77v25q0 18 17 18h53q17 0 17 -18v-21q0 -53 102 -53t102 53v27q0 30 -53 48l-150 52q-31 11 -54.5 38.5t-23.5 62.5v37q0 45 32.5 78.5t102.5 41.5v67q0 20 19 20h59q18 0 18 -20v-67q68 -10 99.5 -43t31.5 -77v-24
q0 -18 -18 -18h-52q-17 0 -17 18v24q0 53 -95 53q-93 0 -93 -53v-17q0 -32 42 -46l150 -52q90 -31 90 -98v-56q0 -43 -34.5 -75.5t-103.5 -41.5v-67q0 -20 -18 -20z" />
    <glyph glyph-name="percent" unicode="%" horiz-adv-x="773" 
d="M582 668l-319 -656q-10 -20 -27 -20h-45q-8 0 -10.5 7t1.5 13l320 656q9 20 27 20h44q18 0 9 -20zM45 418v173q0 40 31.5 66.5t101.5 26.5t101.5 -26.5t31.5 -66.5v-173q0 -40 -31.5 -66.5t-101.5 -26.5t-101.5 26.5t-31.5 66.5zM233 430v149q0 42 -55 42q-56 0 -56 -42
v-149q0 -42 56 -42q55 0 55 42zM461 89v173q0 40 32 66.5t102 26.5t101.5 -26.5t31.5 -66.5v-173q0 -40 -31.5 -66.5t-101.5 -26.5t-102 26.5t-32 66.5zM650 101v149q0 42 -55 42q-56 0 -56 -42v-149q0 -42 56 -42q55 0 55 42z" />
    <glyph glyph-name="ampersand" unicode="&#x26;" horiz-adv-x="660" 
d="M543 145q0 -69 -56 -111t-185 -42q-240 0 -240 150v101q0 90 89 115q-45 13 -63 39t-18 69v72q0 150 208 150q210 0 210 -153v-26q0 -19 -18 -19h-59q-18 0 -18 19v13q0 43 -26 64t-88 21t-87.5 -21t-25.5 -64v-42q0 -43 26 -63.5t91 -20.5h328q19 0 19 -19v-43
q0 -19 -19 -19h-68v-170zM303 73q145 0 145 85v157h-173q-64 0 -90.5 -20.5t-26.5 -63.5v-73q0 -85 145 -85z" />
    <glyph glyph-name="quotesingle" unicode="'" horiz-adv-x="210" 
d="M152 660l-8 -167q-1 -20 -18 -20h-41q-18 0 -19 20l-8 167q-1 20 19 20h57q19 0 18 -20z" />
    <glyph glyph-name="parenleft" unicode="(" horiz-adv-x="322" 
d="M69 -81v652q0 137 198 137h8q19 0 19 -19v-42q0 -20 -19 -20h-8q-54 0 -77 -16.5t-23 -49.5v-632q0 -33 23 -49.5t77 -16.5h8q19 0 19 -20v-42q0 -19 -19 -19h-8q-198 0 -198 137z" />
    <glyph glyph-name="parenright" unicode=")" horiz-adv-x="321" 
d="M252 571v-652q0 -137 -198 -137h-7q-19 0 -19 19v42q0 20 19 20h7q54 0 77 16.5t23 49.5v632q0 33 -23 49.5t-77 16.5h-7q-19 0 -19 20v42q0 19 19 19h7q198 0 198 -137z" />
    <glyph glyph-name="asterisk" unicode="*" horiz-adv-x="468" 
d="M219 322q-19 0 -18 20l6 125l-109 -71q-16 -10 -26 8l-14 27q-9 18 8 26l109 55l-109 57q-16 9 -8 25l14 28q9 18 26 7l110 -71l-7 132q-1 19 19 19h30q19 0 18 -19l-7 -131l108 70q17 11 26 -7l14 -28q9 -16 -8 -25l-109 -57l109 -55q17 -9 8 -26l-14 -28q-9 -18 -26 -7
l-107 69l6 -123q1 -20 -18 -20h-31z" />
    <glyph glyph-name="plus" unicode="+" horiz-adv-x="507" 
d="M213 143v155h-155q-19 0 -19 19v43q0 19 19 19h155v155q0 20 18 20h42q19 0 19 -20v-155h157q19 0 19 -19v-43q0 -19 -19 -19h-157v-155q0 -19 -19 -19h-42q-18 0 -18 19z" />
    <glyph glyph-name="comma" unicode="," horiz-adv-x="223" 
d="M64 35v64q0 19 18 19h61q18 0 18 -19v-69q0 -100 -119 -133q-18 -4 -24 12l-14 41q-6 16 12 24q48 18 48 61z" />
    <glyph glyph-name="hyphen" unicode="-" horiz-adv-x="440" 
d="M86 328h268q19 0 19 -18v-42q0 -18 -19 -18h-268q-19 0 -19 18v42q0 18 19 18z" />
    <glyph glyph-name="period" unicode="." horiz-adv-x="221" 
d="M159 99v-80q0 -19 -18 -19h-60q-19 0 -19 19v80q0 19 19 19h60q18 0 18 -19z" />
    <glyph glyph-name="slash" unicode="/" horiz-adv-x="364" 
d="M337 679l-208 -807q-6 -20 -23 -20h-64q-20 0 -15 20l209 807q5 20 22 20h65q19 0 14 -20z" />
    <glyph glyph-name="zero" unicode="0" horiz-adv-x="571" 
d="M68 146v388q0 69 50.5 111.5t166.5 42.5q117 0 167.5 -42.5t50.5 -111.5v-388q0 -69 -50.5 -111.5t-167.5 -42.5q-116 0 -166.5 42.5t-50.5 111.5zM405 162v356q0 87 -120 87q-64 0 -91.5 -22t-27.5 -65v-356q0 -43 27.5 -65t91.5 -22q120 0 120 87z" />
    <glyph glyph-name="one" unicode="1" horiz-adv-x="507" 
d="M70 636l229 49q7 2 12.5 -2t5.5 -16v-584h147q19 0 19 -18v-46q0 -19 -19 -19h-395q-19 0 -19 19v46q0 18 19 18h150v497l-149 -31q-19 -3 -19 16v49q0 17 19 22z" />
    <glyph glyph-name="two" unicode="2" horiz-adv-x="548" 
d="M167 83h304q19 0 19 -18v-46q0 -19 -19 -19h-383q-19 0 -19 19v168q0 83 82 114l188 70q51 19 51 65v83q0 43 -27.5 65t-91.5 22t-91 -22t-27 -65v-43q0 -20 -18 -20h-58q-19 0 -19 20v58q0 154 213 154q216 0 216 -154v-96q0 -102 -92 -136l-170 -61q-21 -7 -31 -12.5
t-18.5 -17.5t-8.5 -31v-97z" />
    <glyph glyph-name="three" unicode="3" horiz-adv-x="546" 
d="M186 396h77q64 0 90 20.5t26 63.5v42q0 43 -25 64t-87 21q-63 0 -88.5 -21t-25.5 -64v-13q0 -19 -19 -19h-58q-18 0 -18 19v26q0 153 210 153q208 0 208 -150v-72q0 -43 -18 -69t-64 -39q89 -25 89 -115v-101q0 -150 -214 -150q-216 0 -216 153v26q0 19 18 19h59
q18 0 18 -19v-13q0 -85 120 -85q119 0 119 85v73q0 43 -26 63.5t-91 20.5h-84q-19 0 -19 19v43q0 19 19 19z" />
    <glyph glyph-name="four" unicode="4" horiz-adv-x="542" 
d="M265 660l-129 -375h235v375q0 20 19 20h61q18 0 18 -20v-640q0 -20 -18 -20h-61q-19 0 -19 20v182h-317q-19 0 -19 19v42q0 7 4 21l128 376q6 20 23 20h61q21 0 14 -20z" />
    <glyph glyph-name="five" unicode="5" horiz-adv-x="534" 
d="M93 680h347q20 0 20 -19v-45q0 -19 -20 -19h-267v-172h91q108 0 161 -39.5t53 -105.5v-136q0 -153 -212 -153t-212 153v26q0 20 19 20h58q19 0 19 -20v-12q0 -43 26 -64.5t89 -21.5q64 0 89.5 21t25.5 65v108q0 78 -117 78h-170q-18 0 -18 20v296q0 20 18 20z" />
    <glyph glyph-name="six" unicode="6" horiz-adv-x="552" 
d="M68 146v392q0 65 48 107.5t163 42.5q208 0 208 -150v-22q0 -19 -19 -19h-58q-18 0 -18 19v8q0 83 -113 83q-114 0 -114 -83v-156q39 42 128 42q107 0 154 -42.5t47 -111.5v-110q0 -154 -213 -154t-213 154zM397 159v83q0 44 -26 65.5t-90 21.5q-116 0 -116 -79v-91
q0 -43 26 -64.5t90 -21.5t90 21.5t26 64.5z" />
    <glyph glyph-name="seven" unicode="7" horiz-adv-x="510" 
d="M46 680h420q19 0 19 -19v-44q0 -8 -4 -16l-250 -581q-9 -20 -24 -20h-70q-22 0 -13 20l250 577h-328q-20 0 -20 19v45q0 19 20 19z" />
    <glyph glyph-name="eight" unicode="8" horiz-adv-x="548" 
d="M71 469v65q0 71 44 112.5t159 41.5t159 -41.5t44 -112.5v-65q0 -86 -84 -111q93 -26 93 -112v-100q0 -154 -212 -154t-212 154v100q0 86 93 112q-84 25 -84 111zM382 484v37q0 44 -23 65t-85 21t-84.5 -21t-22.5 -65v-37q0 -45 22.5 -66t84.5 -21t85 21.5t23 65.5z
M390 159v72q0 43 -26 64.5t-90 21.5t-89.5 -21t-25.5 -65v-72q0 -43 25.5 -64.5t89.5 -21.5t90 21.5t26 64.5z" />
    <glyph glyph-name="nine" unicode="9" horiz-adv-x="552" 
d="M484 534v-392q0 -65 -47.5 -107.5t-162.5 -42.5q-208 0 -208 150v22q0 19 19 19h58q18 0 18 -19v-8q0 -40 25 -61.5t88 -21.5q62 0 87.5 21.5t25.5 61.5v155q-38 -41 -128 -41q-106 0 -153.5 43t-47.5 111v110q0 154 214 154q212 0 212 -154zM387 521q0 43 -26 64.5
t-89 21.5q-64 0 -90.5 -21.5t-26.5 -64.5v-83q0 -44 26.5 -65.5t90.5 -21.5q62 0 88.5 21t26.5 62v87z" />
    <glyph glyph-name="colon" unicode=":" horiz-adv-x="231" 
d="M164 476v-80q0 -19 -18 -19h-60q-19 0 -19 19v80q0 20 19 20h60q18 0 18 -20zM164 99v-80q0 -19 -18 -19h-60q-19 0 -19 19v80q0 19 19 19h60q18 0 18 -19z" />
    <glyph glyph-name="semicolon" unicode=";" horiz-adv-x="253" 
d="M179 476v-80q0 -19 -18 -19h-60q-19 0 -19 19v80q0 20 19 20h60q18 0 18 -20zM82 35v64q0 19 19 19h60q18 0 18 -19v-69q0 -100 -119 -133q-18 -4 -24 12l-14 41q-7 18 12 24q27 11 37.5 25t10.5 36z" />
    <glyph glyph-name="less" unicode="&#x3c;" horiz-adv-x="493" 
d="M411 455l-278 -116l278 -114q19 -8 19 -22v-56q0 -11 -5 -16t-14 -1l-354 156q-17 8 -17 21v65q0 14 17 21l354 157q9 4 14 -1.5t5 -16.5v-56q0 -9 -4 -13t-15 -8z" />
    <glyph glyph-name="equal" unicode="=" horiz-adv-x="583" 
d="M89 462h405q19 0 19 -18v-43q0 -19 -19 -19h-405q-19 0 -19 19v43q0 18 19 18zM89 272h405q19 0 19 -18v-43q0 -19 -19 -19h-405q-19 0 -19 19v43q0 18 19 18z" />
    <glyph glyph-name="greater" unicode="&#x3e;" horiz-adv-x="494" 
d="M360 339l-278 114q-19 8 -19 22v58q0 11 5 16.5t14 1.5l354 -157q17 -7 17 -21v-67q0 -14 -17 -21l-354 -157q-9 -4 -14 1.5t-5 16.5v58q0 10 4 14t15 8z" />
    <glyph glyph-name="question" unicode="?" horiz-adv-x="512" 
d="M186 190v74q0 61 64 93l80 41q45 22 45 70v51q0 87 -122 87t-122 -87v-43q0 -20 -18 -20h-58q-19 0 -19 20v58q0 69 50.5 111.5t166.5 42.5q117 0 168 -42.5t51 -111.5v-63q0 -99 -87 -141l-55 -26q-46 -22 -46 -64v-50q0 -19 -18 -19h-62q-18 0 -18 19zM284 99v-80
q0 -19 -18 -19h-62q-18 0 -18 19v80q0 19 18 19h62q18 0 18 -19z" />
    <glyph glyph-name="at" unicode="@" horiz-adv-x="864" 
d="M612 -134h-180q-90 0 -157 11t-106 29t-63 45t-32 53.5t-8 59.5v375q0 33 8 59.5t32 53t63 44.5t106 29t157 11t156.5 -11t106 -29t63.5 -44.5t32 -53t8 -59.5v-262q0 -144 -154 -144q-98 0 -127 63q-74 -63 -160 -63q-132 0 -119 136l15 153q13 136 138 136
q69 0 139 -53l4 26q3 19 21 19h51q17 0 16 -19l-24 -236q-9 -91 52 -91q55 0 55 86v245q0 40 -21.5 65.5t-83 41.5t-168.5 16q-156 0 -215 -31t-59 -92v-367q0 -61 59 -92t215 -31h180q19 0 19 -19v-41q0 -19 -19 -19zM344 304l-12 -120q-3 -31 8.5 -46.5t55.5 -15.5
q45 0 107 37v11l17 160q-54 43 -103 43q-38 0 -54 -17.5t-19 -51.5z" />
    <glyph glyph-name="A" unicode="A" horiz-adv-x="542" 
d="M240 680h62q18 0 24 -19l194 -642q6 -19 -15 -19h-63q-16 0 -22 19l-47 155h-211l-46 -155q-6 -19 -22 -19h-58q-20 0 -14 19l194 642q6 19 24 19zM352 252l-56 182q-18 60 -27 148q-15 -105 -28 -146l-57 -184h168z" />
    <glyph glyph-name="B" unicode="B" horiz-adv-x="585" 
d="M306 0h-206q-18 0 -18 20v640q0 20 18 20h177q227 0 227 -145v-63q0 -83 -84 -115q113 -31 113 -122v-85q0 -150 -227 -150zM277 599h-98v-212h105q123 0 123 87v46q0 41 -31 60t-99 19zM306 311h-127v-230h127q130 0 130 86v61q0 83 -130 83z" />
    <glyph glyph-name="C" unicode="C" horiz-adv-x="559" 
d="M513 209v-63q0 -154 -221 -154t-221 154v388q0 154 221 154t221 -154v-49q0 -20 -18 -20h-58q-19 0 -19 20v33q0 87 -125 87q-124 0 -124 -87v-356q0 -87 124 -87q125 0 125 87v47q0 19 19 19h58q18 0 18 -19z" />
    <glyph glyph-name="D" unicode="D" horiz-adv-x="607" 
d="M309 0h-211q-16 0 -16 20v640q0 20 18 20h209q120 0 174 -43t54 -111v-372q0 -68 -54 -111t-174 -43zM309 597h-130v-514h130q130 0 130 87v340q0 87 -130 87z" />
    <glyph glyph-name="E" unicode="E" horiz-adv-x="517" 
d="M453 0h-353q-18 0 -18 20v640q0 20 18 20h342q19 0 19 -19v-45q0 -19 -19 -19h-263v-202h245q20 0 20 -19v-43q0 -19 -20 -19h-245v-231h274q19 0 19 -18v-46q0 -19 -19 -19z" />
    <glyph glyph-name="F" unicode="F" horiz-adv-x="527" 
d="M100 680h367q19 0 19 -19v-45q0 -19 -19 -19h-288v-203h270q19 0 19 -19v-46q0 -19 -19 -19h-270v-290q0 -20 -18 -20h-61q-18 0 -18 20v640q0 20 18 20z" />
    <glyph glyph-name="G" unicode="G" horiz-adv-x="577" 
d="M299 340h195q19 0 19 -18v-176q0 -154 -221 -154t-221 154v388q0 154 221 154t221 -154v-44q0 -19 -18 -19h-58q-19 0 -19 19v28q0 87 -125 87q-124 0 -124 -87v-356q0 -87 124 -87q125 0 125 86v96h-119q-19 0 -19 19v46q0 18 19 18z" />
    <glyph glyph-name="H" unicode="H" horiz-adv-x="619" 
d="M179 660v-263h260v263q0 20 18 20h62q18 0 18 -20v-640q0 -20 -18 -20h-62q-18 0 -18 20v294h-260v-294q0 -20 -18 -20h-61q-18 0 -18 20v640q0 20 18 20h61q18 0 18 -20z" />
    <glyph glyph-name="I" unicode="I" horiz-adv-x="261" 
d="M179 660v-640q0 -20 -18 -20h-61q-18 0 -18 20v640q0 20 18 20h61q18 0 18 -20z" />
    <glyph glyph-name="J" unicode="J" horiz-adv-x="507" 
d="M120 197v-35q0 -43 24.5 -65t82.5 -22q57 0 80 22t23 65v498q0 20 18 20h61q19 0 19 -20v-514q0 -154 -201 -154q-203 0 -203 154v51q0 20 19 20h59q18 0 18 -20z" />
    <glyph glyph-name="K" unicode="K" horiz-adv-x="559" 
d="M287 345l259 -325q6 -7 3 -13.5t-12 -6.5h-85q-14 0 -29 19l-222 283h-21v-283q0 -19 -19 -19h-61q-18 0 -18 19v642q0 19 18 19h61q19 0 19 -19v-286h20l206 286q13 19 31 19h73q10 0 12 -6t-3 -13z" />
    <glyph glyph-name="L" unicode="L" horiz-adv-x="471" 
d="M180 660v-577h256q19 0 19 -18v-46q0 -19 -19 -19h-338q-16 0 -16 20v640q0 20 19 20h61q18 0 18 -20z" />
    <glyph glyph-name="M" unicode="M" horiz-adv-x="735" 
d="M653 661v-642q0 -19 -18 -19h-59q-18 0 -18 19v460q-15 -52 -24 -75l-116 -281q-8 -20 -25 -20h-52q-16 0 -24 20l-124 293q-10 22 -19 61v-458q0 -19 -18 -19h-56q-18 0 -18 19v642q0 19 18 19h56q12 0 17 -11l173 -402q7 -16 21 -60q12 34 22 59l170 405q3 9 17 9h59
q18 0 18 -19z" />
    <glyph glyph-name="N" unicode="N" horiz-adv-x="618" 
d="M536 661v-642q0 -19 -18 -19h-55q-12 0 -18 9l-235 412q-22 38 -36 73v-475q0 -19 -18 -19h-56q-18 0 -18 19v642q0 19 18 19h56q11 0 16 -8l241 -421q19 -32 31 -64v474q0 19 19 19h55q18 0 18 -19z" />
    <glyph glyph-name="O" unicode="O" horiz-adv-x="597" 
d="M71 146v388q0 68 53.5 111t173.5 43t174 -43t54 -111v-388q0 -68 -54 -111t-174 -43t-173.5 43t-53.5 111zM428 162v356q0 87 -130 87q-129 0 -129 -87v-356q0 -87 129 -87q130 0 130 87z" />
    <glyph glyph-name="P" unicode="P" horiz-adv-x="573" 
d="M303 253h-124v-233q0 -20 -18 -20h-61q-18 0 -18 20v640q0 20 18 20h203q120 0 173.5 -43t53.5 -111v-119q0 -68 -53.5 -111t-173.5 -43zM303 597h-124v-261h124q130 0 130 87v87q0 87 -130 87z" />
    <glyph glyph-name="Q" unicode="Q" horiz-adv-x="597" 
d="M475 -172q-12 -14 -26 -1l-179 166q-105 5 -152 47t-47 106v388q0 68 53.5 111t173.5 43t174 -43t54 -111v-388q0 -120 -145 -147l123 -110q15 -14 2 -27zM428 162v356q0 87 -130 87q-129 0 -129 -87v-356q0 -87 129 -87q130 0 130 87z" />
    <glyph glyph-name="R" unicode="R" horiz-adv-x="590" 
d="M179 20q0 -20 -18 -20h-61q-18 0 -18 20v640q0 20 18 20h203q120 0 173.5 -43t53.5 -111v-104q0 -107 -117 -140l120 -262q4 -9 -1.5 -14.5t-16.5 -5.5h-66q-14 0 -23 20l-111 249h-136v-249zM303 597h-124v-245h124q130 0 130 87v71q0 87 -130 87z" />
    <glyph glyph-name="S" unicode="S" horiz-adv-x="557" 
d="M400 490v31q0 85 -121 85t-121 -85v-20q0 -48 51 -67l182 -69q110 -42 110 -136v-83q0 -68 -53.5 -111t-170.5 -43t-171 43t-54 111v58q0 20 19 20h59q18 0 18 -20v-45q0 -85 128 -85q129 0 129 85v47q0 23 -14.5 40.5t-28.5 24.5t-41 17l-169 65q-36 14 -62.5 47
t-26.5 77v57q0 68 50.5 111t164.5 43t165.5 -43t51.5 -111v-44q0 -19 -18 -19h-59q-18 0 -18 19z" />
    <glyph glyph-name="T" unicode="T" horiz-adv-x="492" 
d="M37 680h418q19 0 19 -19v-45q0 -19 -19 -19h-160v-577q0 -20 -18 -20h-62q-18 0 -18 20v577h-160q-19 0 -19 19v45q0 19 19 19z" />
    <glyph glyph-name="U" unicode="U" horiz-adv-x="613" 
d="M177 660v-498q0 -87 129 -87q131 0 131 87v498q0 20 18 20h61q18 0 18 -20v-514q0 -68 -54 -111t-174 -43t-173.5 43t-53.5 111v514q0 20 19 20h61q18 0 18 -20z" />
    <glyph glyph-name="V" unicode="V" horiz-adv-x="542" 
d="M302 0h-62q-18 0 -24 19l-194 642q-6 19 14 19h67q16 0 22 -19l124 -415q12 -41 23 -122q11 76 25 120l125 417q6 19 22 19h61q21 0 15 -19l-194 -642q-6 -19 -24 -19z" />
    <glyph glyph-name="W" unicode="W" horiz-adv-x="832" 
d="M472 661l104 -416q12 -46 16 -88q6 48 17 88l106 416q5 19 22 19h54q18 0 14 -19l-162 -642q-4 -19 -24 -19h-60q-17 0 -22 19l-107 424q-10 39 -13 80q-5 -44 -14 -81l-108 -423q-4 -19 -23 -19h-60q-17 0 -22 19l-163 642q-4 19 15 19h62q18 0 23 -19l104 -416
q11 -49 16 -78q3 23 17 78l106 416q5 19 22 19h57q18 0 23 -19z" />
    <glyph glyph-name="X" unicode="X" horiz-adv-x="542" 
d="M325 347l192 -328q4 -7 2 -13t-12 -6h-71q-17 0 -28 19l-143 242l-135 -242q-11 -19 -27 -19h-66q-9 0 -11.5 7t2.5 15l187 327l-181 310q-13 21 8 21h71q16 0 28 -19l136 -231l129 231q10 19 27 19h66q19 0 9 -19z" />
    <glyph glyph-name="Y" unicode="Y" horiz-adv-x="532" 
d="M126 661l125 -264q8 -18 16 -45q7 28 16 45l133 264q10 19 22 19h61q23 0 13 -19l-196 -391v-251q0 -19 -18 -19h-61q-19 0 -19 19v240l-198 402q-10 19 14 19h69q13 0 23 -19z" />
    <glyph glyph-name="Z" unicode="Z" horiz-adv-x="492" 
d="M70 680h352q20 0 20 -19v-45q0 -7 -4 -15l-287 -518h288q19 0 19 -18v-46q0 -19 -19 -19h-386q-19 0 -19 19v46q0 7 3 13l286 519h-253q-19 0 -19 19v45q0 19 19 19z" />
    <glyph glyph-name="bracketleft" unicode="[" horiz-adv-x="342" 
d="M72 -191v870q0 20 19 20h204q19 0 19 -19v-45q0 -19 -19 -19h-125v-744h125q19 0 19 -19v-45q0 -19 -19 -19h-204q-19 0 -19 20z" />
    <glyph glyph-name="backslash" unicode="\" horiz-adv-x="364" 
d="M236 -128l-209 807q-5 20 15 20h64q18 0 23 -20l208 -807q5 -20 -14 -20h-65q-16 0 -22 20z" />
    <glyph glyph-name="bracketright" unicode="]" horiz-adv-x="341" 
d="M269 679v-870q0 -20 -18 -20h-204q-19 0 -19 19v45q0 19 19 19h124v744h-124q-19 0 -19 19v45q0 19 19 19h204q18 0 18 -20z" />
    <glyph glyph-name="asciicircum" unicode="^" horiz-adv-x="501" 
d="M365 308l-116 276l-114 -276q-8 -20 -21 -20h-57q-10 0 -15.5 5.5t-1.5 14.5l156 354q9 18 21 18h65q14 0 21 -18l157 -354q4 -9 -1 -14.5t-16 -5.5h-57q-13 0 -21 20z" />
    <glyph glyph-name="underscore" unicode="_" horiz-adv-x="399" 
d="M19 -80h361q19 0 19 -18v-43q0 -19 -19 -19h-361q-19 0 -19 19v43q0 18 19 18z" />
    <glyph glyph-name="grave" unicode="`" horiz-adv-x="324" 
d="M156 577l-76 112q-14 19 9 19h62q16 0 26 -18l59 -107q10 -18 -9 -18h-47q-14 0 -24 12z" />
    <glyph glyph-name="a" unicode="a" horiz-adv-x="504" 
d="M59 354v15q0 135 189 135t189 -135v-349q0 -20 -18 -20h-52q-18 0 -19 20l-2 29q-72 -57 -158 -57q-67 0 -104 34.5t-37 86.5v48q0 52 36 86.5t103 34.5h158v77q0 33 -21.5 50.5t-75.5 17.5q-55 0 -77 -16t-22 -49v-8q0 -20 -19 -20h-52q-18 0 -18 20zM212 71
q67 0 132 51v86h-138q-36 0 -51 -15t-15 -46v-20q0 -56 72 -56z" />
    <glyph glyph-name="b" unicode="b" horiz-adv-x="531" 
d="M141 0h-53q-19 0 -19 20v659q0 20 19 20h58q18 0 18 -20v-232q75 57 164 57q71 0 106 -36t35 -100v-240q0 -64 -35 -100t-106 -36q-92 0 -166 58l-2 -30q-1 -20 -19 -20zM374 143v210q0 65 -74 65q-69 0 -136 -52v-237q70 -51 136 -51q74 0 74 65z" />
    <glyph glyph-name="c" unicode="c" horiz-adv-x="487" 
d="M253 504q191 0 191 -137v-18q0 -19 -18 -19h-54q-19 0 -19 19v11q0 33 -22 49.5t-77 16.5q-54 0 -76 -16.5t-22 -49.5v-224q0 -33 22 -49.5t76 -16.5q55 0 77 16.5t22 49.5v20q0 19 19 19h54q18 0 18 -19v-27q0 -137 -192 -137q-191 0 -191 137v238q0 137 192 137z" />
    <glyph glyph-name="d" unicode="d" horiz-adv-x="531" 
d="M371 20l-2 30q-76 -58 -166 -58q-71 0 -106 36t-35 100v240q0 64 35 100t106 36q86 0 164 -57v232q0 20 18 20h58q19 0 19 -20v-659q0 -20 -19 -20h-53q-18 0 -19 20zM157 353v-210q0 -65 74 -65q66 0 136 51v237q-67 52 -136 52q-74 0 -74 -65z" />
    <glyph glyph-name="e" unicode="e" horiz-adv-x="498" 
d="M443 367v-122q0 -18 -17 -18h-272v-92q0 -33 21.5 -50t78.5 -17t78.5 17t21.5 50v11q0 19 19 19h51q19 0 19 -19v-17q0 -137 -191 -137t-191 137v238q0 137 193 137q189 0 189 -137zM154 361v-63h200v63q0 67 -100 67t-100 -67z" />
    <glyph glyph-name="f" unicode="f" horiz-adv-x="332" 
d="M95 494h6v77q0 137 199 137h7q19 0 19 -19v-42q0 -20 -19 -20h-7q-103 0 -103 -66v-67h98q19 0 19 -18v-40q0 -20 -19 -20h-98v-396q0 -20 -19 -20h-58q-19 0 -19 20v396h-59q-18 0 -18 20v35q0 18 18 19z" />
    <glyph glyph-name="g" unicode="g" horiz-adv-x="531" 
d="M203 -8q-71 0 -106 36t-35 100v240q0 64 35 100t106 36q93 0 166 -60l2 32q1 20 19 20h53q19 0 19 -20v-543q0 -137 -198 -137h-138q-20 0 -20 19v42q0 19 20 19h138q103 0 103 67v105q-76 -56 -164 -56zM157 353v-210q0 -65 74 -65q66 0 136 51v237q-67 52 -136 52
q-74 0 -74 -65z" />
    <glyph glyph-name="h" unicode="h" horiz-adv-x="536" 
d="M164 679v-231q71 56 164 56q68 0 104.5 -35.5t36.5 -92.5v-356q0 -20 -18 -20h-58q-19 0 -19 20v333q0 66 -74 66q-70 0 -136 -51v-348q0 -20 -18 -20h-58q-19 0 -19 20v659q0 20 19 20h58q18 0 18 -20z" />
    <glyph glyph-name="i" unicode="i" horiz-adv-x="233" 
d="M164 679v-90q0 -19 -18 -19h-58q-19 0 -19 19v90q0 20 19 20h58q18 0 18 -20zM164 476v-456q0 -20 -18 -20h-58q-19 0 -19 20v456q0 20 19 20h58q18 0 18 -20z" />
    <glyph glyph-name="j" unicode="j" horiz-adv-x="233" 
d="M164 679v-90q0 -19 -18 -19h-59q-18 0 -18 19v90q0 20 18 20h59q18 0 18 -20zM164 476v-543q0 -137 -198 -137h-8q-19 0 -19 19v42q0 19 19 19h8q103 0 103 67v533q0 20 18 20h58q19 0 19 -20z" />
    <glyph glyph-name="k" unicode="k" horiz-adv-x="479" 
d="M269 281l196 -262q6 -7 3 -13t-12 -6h-75q-15 0 -30 19l-163 223h-24v-223q0 -19 -18 -19h-59q-18 0 -18 19v661q0 19 18 19h59q18 0 18 -19v-366h27l145 163q17 19 31 19h70q10 0 13 -6.5t-4 -13.5z" />
    <glyph glyph-name="l" unicode="l" horiz-adv-x="233" 
d="M164 679v-659q0 -20 -18 -20h-58q-19 0 -19 20v659q0 20 19 20h58q18 0 18 -20z" />
    <glyph glyph-name="m" unicode="m" horiz-adv-x="830" 
d="M88 496h53q19 0 19 -19l1 -31q68 58 161 58q95 0 128 -68q78 68 171 68q68 0 105 -35.5t37 -92.5v-356q0 -20 -19 -20h-57q-20 0 -20 20v333q0 66 -74 66q-72 0 -130 -52v-347q0 -20 -18 -20h-58q-19 0 -19 20v333q0 66 -74 66q-70 0 -130 -51v-348q0 -20 -18 -20h-58
q-19 0 -19 20v457q0 19 19 19z" />
    <glyph glyph-name="n" unicode="n" horiz-adv-x="536" 
d="M88 496h53q18 0 19 -19l2 -32q69 59 166 59q68 0 104.5 -35.5t36.5 -92.5v-356q0 -20 -18 -20h-58q-19 0 -19 20v333q0 66 -74 66q-70 0 -136 -51v-348q0 -20 -18 -20h-58q-19 0 -19 20v457q0 19 19 19z" />
    <glyph glyph-name="o" unicode="o" horiz-adv-x="520" 
d="M60 129v238q0 64 49 100.5t151 36.5t151 -36.5t49 -100.5v-238q0 -64 -49 -100.5t-151 -36.5t-151 36.5t-49 100.5zM365 137v222q0 67 -105 67t-105 -67v-222q0 -67 105 -67t105 67z" />
    <glyph glyph-name="p" unicode="p" horiz-adv-x="531" 
d="M88 496h53q18 0 19 -20l2 -31q75 59 166 59q71 0 106 -36t35 -100v-240q0 -64 -35 -100t-106 -36q-90 0 -164 56v-233q0 -19 -18 -19h-58q-19 0 -19 19v661q0 20 19 20zM374 143v210q0 65 -74 65q-69 0 -136 -52v-237q70 -51 136 -51q74 0 74 65z" />
    <glyph glyph-name="q" unicode="q" horiz-adv-x="531" 
d="M369 445l2 31q1 20 19 20h53q19 0 19 -20v-661q0 -19 -19 -19h-58q-18 0 -18 19v233q-76 -56 -164 -56q-71 0 -106 36t-35 100v240q0 64 35 100t106 36q88 0 166 -59zM157 353v-210q0 -65 74 -65q66 0 136 51v237q-67 52 -136 52q-74 0 -74 -65z" />
    <glyph glyph-name="r" unicode="r" horiz-adv-x="355" 
d="M319 504q20 0 20 -19v-46q0 -18 -20 -20q-87 -5 -155 -64v-335q0 -20 -18 -20h-58q-19 0 -19 20v457q0 19 19 19h53q18 0 19 -19l3 -43q70 70 156 70z" />
    <glyph glyph-name="s" unicode="s" horiz-adv-x="472" 
d="M330 357v24q0 53 -95 53q-93 0 -93 -53v-17q0 -32 42 -46l150 -52q90 -31 90 -98v-56q0 -51 -47.5 -85.5t-142.5 -34.5q-96 0 -142.5 34.5t-46.5 85.5v25q0 18 17 18h53q17 0 17 -18v-21q0 -53 102 -53t102 53v27q0 30 -53 48l-150 52q-31 11 -54.5 38.5t-23.5 62.5v37
q0 52 43.5 87.5t137.5 35.5q93 0 137 -35.5t44 -87.5v-24q0 -18 -18 -18h-52q-17 0 -17 18z" />
    <glyph glyph-name="t" unicode="t" horiz-adv-x="350" 
d="M192 494h103q19 0 19 -18v-40q0 -20 -19 -20h-103v-269q0 -36 22 -51t78 -15h20q19 0 19 -20v-42q0 -19 -19 -19h-33q-101 0 -142 33.5t-41 103.5v279h-55q-19 0 -19 20v35q0 18 19 19l49 4h6v101q0 20 19 20h59q18 0 18 -20v-101z" />
    <glyph glyph-name="u" unicode="u" horiz-adv-x="530" 
d="M370 19l-2 30q-67 -57 -160 -57q-67 0 -104 35t-37 92v357q0 20 18 20h58q19 0 19 -20v-333q0 -66 74 -66q68 0 130 50v349q0 20 18 20h59q18 0 18 -20v-457q0 -19 -18 -19h-54q-18 0 -19 19z" />
    <glyph glyph-name="v" unicode="v" horiz-adv-x="461" 
d="M263 0h-67q-9 0 -13 4t-7 14l-154 458q-6 20 17 20h61q15 0 22 -20l95 -287q10 -32 15 -75q7 45 17 74l100 288q7 20 21 20h55q23 0 17 -20l-160 -458q-3 -10 -6.5 -14t-12.5 -4z" />
    <glyph glyph-name="w" unicode="w" horiz-adv-x="695" 
d="M674 476l-129 -458q-3 -10 -7 -14t-13 -4h-69q-16 0 -20 18l-75 295q-6 25 -10 51q-6 -32 -12 -51l-85 -295q-4 -18 -19 -18h-68q-16 0 -20 18l-124 458q-6 20 18 20h56q17 0 22 -20l83 -311q6 -19 8 -45q5 23 11 45l86 311q5 20 22 20h58q16 0 21 -20l78 -311
q6 -27 9 -44q2 14 10 44l83 311q5 20 21 20h48q23 0 17 -20z" />
    <glyph glyph-name="x" unicode="x" horiz-adv-x="473" 
d="M286 253l159 -234q5 -7 2.5 -13t-12.5 -6h-67q-14 0 -27 19l-109 164l-110 -164q-13 -19 -27 -19h-57q-10 0 -12.5 6t2.5 13l157 232l-152 225q-6 8 -3 14t13 6h66q15 0 28 -20l104 -155l106 155q13 20 28 20h57q10 0 12 -6t-3 -14z" />
    <glyph glyph-name="y" unicode="y" horiz-adv-x="460" 
d="M118 476l97 -289q11 -36 15 -70q11 45 18 68l99 291q6 20 22 20h54q23 0 17 -20l-226 -661q-6 -19 -21 -19h-43q-24 0 -18 19l56 177l-168 484q-6 20 17 20h59q15 0 22 -20z" />
    <glyph glyph-name="z" unicode="z" horiz-adv-x="439" 
d="M68 496h302q19 0 19 -19v-40q0 -10 -4 -15l-234 -344h235q19 0 19 -18v-41q0 -19 -19 -19h-332q-19 0 -19 19v41q0 8 4 14l232 343h-203q-19 0 -19 19v41q0 19 19 19z" />
    <glyph glyph-name="braceleft" unicode="{" horiz-adv-x="381" 
d="M128 356v215q0 137 198 137h8q19 0 19 -19v-42q0 -20 -19 -20h-8q-54 0 -77 -16.5t-23 -49.5v-215q0 -76 -73 -97q73 -22 73 -98v-222q0 -33 23 -49.5t77 -16.5h8q19 0 19 -20v-42q0 -19 -19 -19h-8q-198 0 -198 137v223q0 67 -95 67h-1q-19 0 -19 19v41q0 20 19 20h1
q95 0 95 67z" />
    <glyph glyph-name="bar" unicode="|" horiz-adv-x="242" 
d="M170 679v-870q0 -20 -18 -20h-61q-19 0 -19 20v870q0 20 19 20h61q18 0 18 -20z" />
    <glyph glyph-name="braceright" unicode="}" horiz-adv-x="381" 
d="M253 571v-215q0 -67 95 -67h1q19 0 19 -20v-41q0 -19 -19 -19h-1q-95 0 -95 -67v-223q0 -137 -198 -137h-8q-19 0 -19 19v42q0 20 19 20h8q54 0 77 16.5t23 49.5v222q0 76 73 98q-73 21 -73 97v215q0 33 -23 49.5t-77 16.5h-8q-19 0 -19 20v42q0 19 19 19h8
q198 0 198 -137z" />
    <glyph glyph-name="asciitilde" unicode="~" horiz-adv-x="483" 
d="M418 327l-3 -43q-3 -42 -25 -61.5t-50 -19.5q-27 0 -56 13l-92 43q-24 12 -33 12q-14 0 -18.5 -6t-5.5 -23l-1 -16q-1 -17 -21 -17h-30q-18 0 -16 22l3 39q3 42 25.5 63t52.5 21q24 0 48 -11l90 -42q30 -14 44 -14q11 0 15 6t5 22l1 17q1 17 20 17h31q17 0 16 -22z" />
    <glyph glyph-name="uni00A0" unicode="&#xa0;" horiz-adv-x="211" 
 />
    <glyph glyph-name="exclamdown" unicode="&#xa1;" horiz-adv-x="235" 
d="M69 397v80q0 19 18 19h61q19 0 19 -19v-80q0 -19 -19 -19h-61q-18 0 -18 19zM68 106l9 200q1 19 18 19h44q17 0 18 -19l10 -200v-270q0 -20 -19 -20h-62q-18 0 -18 20v270z" />
    <glyph glyph-name="cent" unicode="&#xa2;" horiz-adv-x="496" 
d="M297 20q0 -20 -18 -20h-58q-19 0 -19 20v67q-141 16 -141 134v238q0 118 141 134v67q0 20 19 20h58q18 0 18 -20v-66q147 -15 147 -135v-18q0 -19 -18 -19h-54q-19 0 -19 19v11q0 33 -22 49.5t-77 16.5q-54 0 -76 -16.5t-22 -49.5v-224q0 -33 22 -49.5t76 -16.5
q55 0 77 16.5t22 49.5v20q0 19 19 19h54q18 0 18 -19v-27q0 -120 -147 -135v-66z" />
    <glyph glyph-name="sterling" unicode="&#xa3;" horiz-adv-x="614" 
d="M222 378h135q19 0 19 -18v-43q0 -19 -19 -19h-135v-217h181q72 0 72 97v7q0 20 19 20h55q19 0 19 -20v-7q0 -100 -36.5 -139t-104.5 -39h-360q-19 0 -19 19v43q0 19 19 19h57v217h-57q-19 0 -19 19v43q0 18 19 18h57v161q0 149 208 149q209 0 209 -149v-31q0 -20 -18 -20
h-57q-19 0 -19 20v14q0 43 -25.5 63t-88.5 20q-62 0 -86.5 -20t-24.5 -63v-144z" />
    <glyph glyph-name="currency" unicode="&#xa4;" horiz-adv-x="622" 
d="M111 91q-14 -14 -27 -1l-23 23q-13 13 0 27l84 84q-16 26 -16 61v110q0 36 16 62l-83 84q-13 14 -1 26l23 23q12 12 27 -1l89 -88q44 19 111 19t111 -19l89 88q15 13 27 1l23 -23q13 -13 0 -26l-85 -85q16 -25 16 -61v-110q0 -35 -16 -61l84 -84q14 -15 1 -27l-24 -23
q-13 -12 -26 1l-89 89q-44 -19 -111 -19t-111 19zM409 292v97q0 64 -98 64t-98 -64v-97q0 -65 98 -65t98 65z" />
    <glyph glyph-name="yen" unicode="&#xa5;" horiz-adv-x="559" 
d="M332 19q0 -19 -18 -19h-61q-19 0 -19 19v229h-151q-20 0 -20 19v26q0 19 20 19h125l-33 66h-92q-20 0 -20 19v26q0 19 20 19h61l-108 219q-10 19 14 19h69q13 0 23 -19l125 -264q8 -18 16 -45q7 28 16 45l133 264q10 19 22 19h61q23 0 13 -19l-110 -219h54q19 0 19 -19
v-26q0 -19 -19 -19h-86l-33 -66h119q19 0 19 -19v-26q0 -19 -19 -19h-140v-229z" />
    <glyph glyph-name="brokenbar" unicode="&#xa6;" horiz-adv-x="249" 
d="M172 660v-326q0 -20 -18 -20h-58q-19 0 -19 20v326q0 20 19 20h58q18 0 18 -20zM172 135v-326q0 -20 -18 -20h-58q-19 0 -19 20v326q0 20 19 20h58q18 0 18 -20z" />
    <glyph glyph-name="section" unicode="&#xa7;" horiz-adv-x="505" 
d="M434 277v-91q0 -19 -18 -19h-52q-18 0 -18 19v82q0 40 -49 54l-141 43q-39 12 -68 39t-29 75v71q0 63 46.5 100.5t147.5 37.5q193 0 193 -134v-11q0 -19 -19 -19h-51q-19 0 -19 19v15q0 33 -23 49t-78 16t-79 -16t-24 -49v-74q0 -32 59 -51l131 -39q36 -10 63.5 -41
t27.5 -76zM71 204v90q0 19 18 19h52q18 0 18 -19v-81q0 -22 15.5 -36t33.5 -19l141 -42q39 -12 68 -39t29 -75v-71q0 -63 -46.5 -100.5t-147.5 -37.5q-193 0 -193 134v11q0 19 19 19h51q19 0 19 -19v-16q0 -33 23.5 -49t78.5 -16q102 0 102 66v74q0 32 -59 51l-131 39
q-36 10 -63.5 41t-27.5 76z" />
    <glyph glyph-name="dieresis" unicode="&#xa8;" horiz-adv-x="348" 
d="M149 685v-95q0 -19 -18 -19h-35q-19 0 -19 19v95q0 19 19 19h35q18 0 18 -19zM270 685v-95q0 -19 -18 -19h-35q-19 0 -19 19v95q0 19 19 19h35q18 0 18 -19z" />
    <glyph glyph-name="copyright" unicode="&#xa9;" horiz-adv-x="715" 
d="M650 486v-291q0 -43 -10.5 -75t-39.5 -63.5t-90.5 -48t-152.5 -16.5t-152 16.5t-90 48t-39.5 63.5t-10.5 75v291q0 43 10.5 75t39.5 63t90 47.5t152 16.5q74 0 128 -12t85.5 -30t50 -46t24 -54t5.5 -60zM580 182v317q0 128 -223 128q-222 0 -222 -129v-316
q0 -128 222 -128q223 0 223 128zM358 548q87 0 121 -32.5t34 -98.5v-12q0 -19 -19 -19h-47q-19 0 -19 19v10q0 34 -15 50.5t-55 16.5t-54.5 -16t-14.5 -51v-150q0 -35 14.5 -51t54.5 -16t55 16.5t15 50.5v17q0 20 19 20h47q19 0 19 -20v-20q0 -66 -34 -98.5t-121 -32.5
q-86 0 -120.5 32.5t-34.5 98.5v155q0 66 34.5 98.5t120.5 32.5z" />
    <glyph glyph-name="ordfeminine" unicode="&#xaa;" horiz-adv-x="370" 
d="M63 597v8q0 83 121 83t121 -86v-203q0 -15 -15 -15h-44q-6 0 -9 1.5t-4 4.5t-2 9l-2 13q-40 -33 -88 -33q-44 0 -65.5 21t-21.5 54v27q0 32 24.5 53t67.5 21h81v46q0 31 -45 31t-45 -29v-6q0 -14 -14 -14h-45q-15 0 -15 14zM164 437q34 0 63 26v42h-66q-29 0 -29 -29v-11
q0 -28 32 -28z" />
    <glyph glyph-name="guillemotleft" unicode="&#xab;" horiz-adv-x="548" 
d="M247 337l-126 -92l126 -91q19 -13 19 -29v-60q0 -10 -6 -13t-13 2l-184 136q-17 12 -17 30v50q0 19 17 30l184 137q7 6 13 2.5t6 -13.5v-60q0 -14 -19 -29zM467 337l-126 -92l126 -91q19 -13 19 -29v-60q0 -10 -6 -13t-13 2l-184 136q-17 12 -17 30v50q0 19 17 30
l184 137q7 6 13 2.5t6 -13.5v-60q0 -14 -19 -29z" />
    <glyph glyph-name="logicalnot" unicode="&#xac;" horiz-adv-x="343" 
d="M54 317q0 49 34.5 83.5t83.5 34.5t83.5 -34.5t34.5 -83.5t-34.5 -83.5t-83.5 -34.5q-50 0 -84 34.5t-34 83.5z" />
    <glyph glyph-name="uni00AD" unicode="&#xad;" horiz-adv-x="440" 
d="M86 328h268q19 0 19 -18v-42q0 -18 -19 -18h-268q-19 0 -19 18v42q0 18 19 18z" />
    <glyph glyph-name="registered" unicode="&#xae;" horiz-adv-x="599" 
d="M534 538v-181q0 -150 -234 -150q-235 0 -235 150v181q0 150 235 150q234 0 234 -150zM470 350v194q0 86 -170 86q-171 0 -171 -86v-193q0 -87 171 -87q170 0 170 86zM247 311h-39q-13 0 -13 14v241q0 14 13 14h105q103 0 103 -78v-20q0 -50 -43 -68l36 -89q5 -14 -13 -14
h-40q-10 0 -16 14l-33 79h-47v-79q0 -14 -13 -14zM306 531h-46v-78h46q19 0 31.5 8.5t12.5 22.5v15q0 32 -44 32z" />
    <glyph glyph-name="macron" unicode="&#xaf;" horiz-adv-x="412" 
d="M85 659h242q19 0 19 -18v-36q0 -18 -19 -18h-242q-20 0 -20 18v36q0 18 20 18z" />
    <glyph glyph-name="degree" unicode="&#xb0;" horiz-adv-x="408" 
d="M55 489v96q0 50 34 76t115 26t115 -26t34 -76v-96q0 -50 -34 -76t-115 -26t-115 26t-34 76zM272 493v89q0 41 -68 41t-68 -41v-89q0 -42 68 -42t68 42z" />
    <glyph glyph-name="plusminus" unicode="&#xb1;" horiz-adv-x="557" 
d="M238 231v110h-155q-19 0 -19 19v43q0 18 19 18h155v110q0 19 18 19h42q19 0 19 -19v-110h157q19 0 19 -18v-43q0 -19 -19 -19h-157v-110q0 -20 -19 -20h-42q-18 0 -18 20zM83 153h391q19 0 19 -19v-42q0 -20 -19 -20h-391q-19 0 -19 20v42q0 19 19 19z" />
    <glyph glyph-name="twosuperior" unicode="&#xb2;" 
d="M115 519h168q12 0 12 -13v-37q0 -13 -12 -13h-233q-13 0 -13 13v89q0 51 54 71l94 35q10 4 15 6.5t10.5 10t5.5 18.5v35q0 39 -55 39t-55 -39v-21q0 -13 -13 -13h-50q-12 0 -12 13v29q0 39 33 65.5t101 26.5q69 0 98.5 -26t29.5 -66v-47q0 -56 -57 -79l-98 -37
q-16 -6 -19.5 -10.5t-3.5 -16.5v-33z" />
    <glyph glyph-name="threesuperior" unicode="&#xb3;" 
d="M217 549v31q0 42 -56 42h-43q-13 0 -13 12v30q0 12 13 12h39q54 0 54 44v17q0 21 -12 30t-39 9q-54 0 -54 -39v-6q0 -13 -13 -13h-49q-13 0 -13 13v14q0 89 129 89q127 0 127 -86v-40q0 -42 -44 -58q50 -16 50 -62v-50q0 -38 -32 -62t-100 -24q-67 0 -99.5 25t-32.5 64
v15q0 14 12 14h50q13 0 13 -14v-7q0 -39 57 -39q56 0 56 39z" />
    <glyph glyph-name="acute" unicode="&#xb4;" horiz-adv-x="324" 
d="M243 689l-76 -112q-7 -12 -24 -12h-46q-20 0 -10 18l59 107q10 18 26 18h62q23 0 9 -19z" />
    <glyph glyph-name="mu" unicode="&#xb5;" horiz-adv-x="532" 
d="M372 19l-2 30q-67 -57 -160 -57q-25 0 -51 7l5 -183q0 -20 -18 -20h-59q-18 0 -18 20v660q0 20 18 20h58q19 0 19 -20v-333q0 -66 74 -66q68 0 130 50v349q0 20 18 20h59q18 0 18 -20v-457q0 -19 -18 -19h-54q-18 0 -19 19z" />
    <glyph glyph-name="paragraph" unicode="&#xb6;" horiz-adv-x="611" 
d="M362 661v-845q0 -20 -18 -20h-61q-19 0 -19 20v466h-36q-107 0 -150 34t-43 97v136q0 63 43 97t150 34h116q18 0 18 -19zM537 660v-844q0 -20 -18 -20h-61q-19 0 -19 20v844q0 20 19 20h61q18 0 18 -20z" />
    <glyph glyph-name="periodcentered" unicode="&#xb7;" horiz-adv-x="231" 
d="M164 310v-80q0 -19 -18 -19h-60q-19 0 -19 19v80q0 19 19 19h60q18 0 18 -19z" />
    <glyph glyph-name="cedilla" unicode="&#xb8;" horiz-adv-x="217" 
d="M103 -52h34q37 0 61 -20t24 -59q0 -40 -24 -60t-61 -20h-113q-19 0 -19 19v20q0 18 19 18h99q32 0 32 23q0 22 -32 22h-66q-17 0 -23 6t-3 18l24 92q5 18 22 17l27 -3q20 -2 13 -23z" />
    <glyph glyph-name="onesuperior" unicode="&#xb9;" 
d="M58 809l139 23q13 2 13 -12v-301h74q14 0 14 -13v-37q0 -13 -14 -13h-226q-13 0 -13 13v37q0 13 13 13h75v238l-75 -11q-13 -2 -13 11v37q0 13 13 15z" />
    <glyph glyph-name="ordmasculine" unicode="&#xba;" horiz-adv-x="375" 
d="M57 467v133q0 41 33 64.5t98 23.5q64 0 97 -23.5t33 -64.5v-133q0 -42 -32.5 -65t-97.5 -23t-98 23t-33 65zM238 475v118q0 33 -50 33q-51 0 -51 -33v-118q0 -34 51 -34q50 0 50 34z" />
    <glyph glyph-name="guillemotright" unicode="&#xbb;" horiz-adv-x="549" 
d="M82 161l126 92l-126 91q-19 13 -19 29v60q0 10 6 13t13 -2l184 -136q17 -12 17 -30v-50q0 -19 -17 -30l-184 -137q-7 -6 -13 -2.5t-6 13.5v60q0 14 19 29zM302 161l126 92l-126 91q-19 13 -19 29v60q0 10 6 13t13 -2l184 -136q17 -12 17 -30v-50q0 -19 -17 -30l-184 -137
q-7 -6 -13 -2.5t-6 13.5v60q0 14 19 29z" />
    <glyph glyph-name="onequarter" unicode="&#xbc;" horiz-adv-x="783" 
d="M602 668l-319 -656q-10 -20 -27 -20h-45q-8 0 -10.5 7t1.5 13l320 656q9 20 27 20h44q18 0 9 -20zM60 659l139 23q13 2 13 -12v-301h74q14 0 14 -13v-37q0 -13 -14 -13h-226q-13 0 -13 13v37q0 13 13 13h75v238l-75 -11q-13 -2 -13 11v37q0 13 13 15zM603 361l-61 -198
h110v198q0 13 13 13h50q13 0 13 -13v-348q0 -13 -13 -13h-50q-13 0 -13 13v89h-176q-14 0 -14 14v25q0 13 2 18l64 202q4 13 16 13h49q13 0 10 -13z" />
    <glyph glyph-name="onehalf" unicode="&#xbd;" horiz-adv-x="799" 
d="M603 668l-319 -656q-10 -20 -27 -20h-45q-8 0 -10.5 7t1.5 13l320 656q9 20 27 20h44q18 0 9 -20zM60 659l139 23q13 2 13 -12v-301h74q14 0 14 -13v-37q0 -13 -14 -13h-226q-13 0 -13 13v37q0 13 13 13h75v238l-75 -11q-13 -2 -13 11v37q0 13 13 15zM574 63h168
q12 0 12 -13v-37q0 -13 -12 -13h-233q-13 0 -13 13v89q0 51 54 71l94 35q10 4 15 6.5t10.5 10t5.5 18.5v35q0 39 -55 39t-55 -39v-21q0 -13 -13 -13h-50q-12 0 -12 13v29q0 39 33 65.5t101 26.5q69 0 98.5 -26t29.5 -66v-47q0 -56 -57 -79l-98 -37q-16 -6 -19.5 -10.5
t-3.5 -16.5v-33z" />
    <glyph glyph-name="threequarters" unicode="&#xbe;" horiz-adv-x="782" 
d="M595 668l-319 -656q-10 -20 -27 -20h-45q-8 0 -10.5 7t1.5 13l320 656q9 20 27 20h44q18 0 9 -20zM231 399v31q0 42 -56 42h-43q-13 0 -13 12v30q0 12 13 12h39q54 0 54 44v17q0 21 -12 30t-39 9q-54 0 -54 -39v-6q0 -13 -13 -13h-49q-13 0 -13 13v14q0 89 129 89
q127 0 127 -86v-40q0 -42 -44 -58q50 -16 50 -62v-50q0 -38 -32 -62t-100 -24q-67 0 -99.5 25t-32.5 64v15q0 14 12 14h50q13 0 13 -14v-7q0 -39 57 -39q56 0 56 39zM603 361l-61 -198h110v198q0 13 13 13h50q13 0 13 -13v-348q0 -13 -13 -13h-50q-13 0 -13 13v89h-176
q-14 0 -14 14v25q0 13 2 18l64 202q4 13 16 13h49q13 0 10 -13z" />
    <glyph glyph-name="questiondown" unicode="&#xbf;" horiz-adv-x="506" 
d="M225 397v80q0 19 18 19h62q18 0 18 -19v-80q0 -19 -18 -19h-62q-18 0 -18 19zM323 306v-74q0 -61 -64 -93l-80 -41q-45 -22 -45 -70v-51q0 -87 122 -87t122 87v43q0 20 18 20h58q19 0 19 -20v-58q0 -69 -50.5 -111.5t-166.5 -42.5q-117 0 -168 42.5t-51 111.5v63
q0 99 87 141l55 26q46 22 46 64v50q0 19 18 19h62q18 0 18 -19z" />
    <glyph glyph-name="Agrave" unicode="&#xc0;" horiz-adv-x="542" 
d="M219 747l-76 111q-6 8 -3.5 14t12.5 6h62q16 0 26 -19l59 -106q10 -19 -9 -19h-47q-15 0 -24 13zM240 680h62q18 0 24 -19l194 -642q6 -19 -15 -19h-63q-16 0 -22 19l-47 155h-211l-46 -155q-6 -19 -22 -19h-58q-20 0 -14 19l194 642q6 19 24 19zM352 252l-56 182
q-18 60 -27 148q-15 -105 -28 -146l-57 -184h168z" />
    <glyph glyph-name="Aacute" unicode="&#xc1;" horiz-adv-x="542" 
d="M395 859l-77 -112q-7 -12 -24 -12h-46q-20 0 -10 18l59 107q10 18 26 18h62q22 0 10 -19zM240 680h62q18 0 24 -19l194 -642q6 -19 -15 -19h-63q-16 0 -22 19l-47 155h-211l-46 -155q-6 -19 -22 -19h-58q-20 0 -14 19l194 642q6 19 24 19zM352 252l-56 182
q-18 60 -27 148q-15 -105 -28 -146l-57 -184h168z" />
    <glyph glyph-name="Acircumflex" unicode="&#xc2;" horiz-adv-x="542" 
d="M271 820l-41 -67q-10 -18 -27 -18h-45q-10 0 -12.5 5.5t2.5 12.5l75 106q14 19 30 19h35q16 0 30 -19l75 -106q5 -7 2.5 -12.5t-12.5 -5.5h-45q-15 0 -26 18zM240 680h62q18 0 24 -19l194 -642q6 -19 -15 -19h-63q-16 0 -22 19l-47 155h-211l-46 -155q-6 -19 -22 -19h-58
q-20 0 -14 19l194 642q6 19 24 19zM352 252l-56 182q-18 60 -27 148q-15 -105 -28 -146l-57 -184h168z" />
    <glyph glyph-name="Atilde" unicode="&#xc3;" horiz-adv-x="542" 
d="M338 816q12 0 15.5 8t3.5 30v7q0 17 21 17h31q16 0 16 -22l-1 -32q-1 -39 -24.5 -59.5t-56.5 -20.5q-32 0 -58 16l-43 26q-33 19 -40 19q-13 0 -16 -7.5t-3 -30.5v-7q0 -17 -20 -17h-32q-16 0 -16 22l1 32q1 40 24 60t56 20t59 -16l43 -26q33 -19 40 -19zM240 680h62
q18 0 24 -19l194 -642q6 -19 -15 -19h-63q-16 0 -22 19l-47 155h-211l-46 -155q-6 -19 -22 -19h-58q-20 0 -14 19l194 642q6 19 24 19zM352 252l-56 182q-18 60 -27 148q-15 -105 -28 -146l-57 -184h168z" />
    <glyph glyph-name="Adieresis" unicode="&#xc4;" horiz-adv-x="542" 
d="M246 853v-95q0 -19 -18 -19h-35q-18 0 -18 19v95q0 20 18 20h35q18 0 18 -20zM367 853v-95q0 -19 -18 -19h-35q-18 0 -18 19v95q0 20 18 20h35q18 0 18 -20zM240 680h62q18 0 24 -19l194 -642q6 -19 -15 -19h-63q-16 0 -22 19l-47 155h-211l-46 -155q-6 -19 -22 -19h-58
q-20 0 -14 19l194 642q6 19 24 19zM352 252l-56 182q-18 60 -27 148q-15 -105 -28 -146l-57 -184h168z" />
    <glyph glyph-name="Aring" unicode="&#xc5;" horiz-adv-x="542" 
d="M369 815v-23q0 -33 -25.5 -54.5t-74.5 -21.5t-74.5 21.5t-25.5 54.5v23q0 33 25.5 54.5t74.5 21.5t74.5 -21.5t25.5 -54.5zM312 800v7q0 34 -43 34t-43 -34v-7q0 -34 43 -34t43 34zM240 680h62q18 0 24 -19l194 -642q6 -19 -15 -19h-63q-16 0 -22 19l-47 155h-211
l-46 -155q-6 -19 -22 -19h-58q-20 0 -14 19l194 642q6 19 24 19zM352 252l-56 182q-18 60 -27 148q-15 -105 -28 -146l-57 -184h168z" />
    <glyph glyph-name="AE" unicode="&#xc6;" horiz-adv-x="822" 
d="M414 680h334q19 0 19 -18v-43q0 -19 -19 -19h-262v-207h245q19 0 19 -18v-40q0 -19 -19 -19h-245v-236h274q19 0 19 -18v-43q0 -19 -19 -19h-346q-21 0 -21 19v155h-200l-89 -155q-11 -19 -23 -19h-57q-10 0 -14.5 5t0.5 14l377 642q11 19 27 19zM359 459l-120 -207h154
v270q-9 -18 -34 -63z" />
    <glyph glyph-name="Ccedilla" unicode="&#xc7;" horiz-adv-x="559" 
d="M397 -131q0 -40 -24 -60t-61 -20h-113q-19 0 -19 19v20q0 18 19 18h99q32 0 32 23q0 22 -32 22h-66q-18 0 -23.5 6t-2.5 18l21 81q-156 21 -156 150v388q0 154 221 154t221 -154v-49q0 -20 -18 -20h-58q-19 0 -19 20v33q0 87 -125 87q-124 0 -124 -87v-356q0 -87 124 -87
q125 0 125 87v47q0 19 19 19h58q18 0 18 -19v-63q0 -154 -221 -154h-2l-12 -44h34q37 0 61 -20t24 -59z" />
    <glyph glyph-name="Egrave" unicode="&#xc8;" horiz-adv-x="517" 
d="M236 747l-76 111q-6 8 -3.5 14t12.5 6h62q16 0 26 -19l59 -106q10 -19 -9 -19h-47q-15 0 -24 13zM453 0h-353q-18 0 -18 20v640q0 20 18 20h342q19 0 19 -19v-45q0 -19 -19 -19h-263v-202h245q20 0 20 -19v-43q0 -19 -20 -19h-245v-231h274q19 0 19 -18v-46
q0 -19 -19 -19z" />
    <glyph glyph-name="Eacute" unicode="&#xc9;" horiz-adv-x="517" 
d="M383 859l-77 -112q-7 -12 -24 -12h-46q-20 0 -10 18l59 107q10 18 26 18h62q22 0 10 -19zM453 0h-353q-18 0 -18 20v640q0 20 18 20h342q19 0 19 -19v-45q0 -19 -19 -19h-263v-202h245q20 0 20 -19v-43q0 -19 -20 -19h-245v-231h274q19 0 19 -18v-46q0 -19 -19 -19z" />
    <glyph glyph-name="Ecircumflex" unicode="&#xca;" horiz-adv-x="517" 
d="M260 820l-41 -67q-10 -18 -27 -18h-45q-10 0 -12.5 5.5t2.5 12.5l75 106q14 19 30 19h35q16 0 30 -19l75 -106q6 -7 3 -12.5t-13 -5.5h-45q-15 0 -26 18zM453 0h-353q-18 0 -18 20v640q0 20 18 20h342q19 0 19 -19v-45q0 -19 -19 -19h-263v-202h245q20 0 20 -19v-43
q0 -19 -20 -19h-245v-231h274q19 0 19 -18v-46q0 -19 -19 -19z" />
    <glyph glyph-name="Edieresis" unicode="&#xcb;" horiz-adv-x="517" 
d="M240 853v-95q0 -19 -18 -19h-35q-18 0 -18 19v95q0 20 18 20h35q18 0 18 -20zM361 853v-95q0 -19 -18 -19h-35q-18 0 -18 19v95q0 20 18 20h35q18 0 18 -20zM453 0h-353q-18 0 -18 20v640q0 20 18 20h342q19 0 19 -19v-45q0 -19 -19 -19h-263v-202h245q20 0 20 -19v-43
q0 -19 -20 -19h-245v-231h274q19 0 19 -18v-46q0 -19 -19 -19z" />
    <glyph glyph-name="Igrave" unicode="&#xcc;" horiz-adv-x="261" 
d="M83 747l-76 111q-6 8 -3.5 14t12.5 6h62q16 0 26 -19l59 -106q10 -19 -9 -19h-47q-15 0 -24 13zM179 660v-640q0 -20 -18 -20h-61q-18 0 -18 20v640q0 20 18 20h61q18 0 18 -20z" />
    <glyph glyph-name="Iacute" unicode="&#xcd;" horiz-adv-x="261" 
d="M251 859l-77 -112q-7 -12 -24 -12h-46q-20 0 -10 18l59 107q10 18 26 18h62q22 0 10 -19zM179 660v-640q0 -20 -18 -20h-61q-18 0 -18 20v640q0 20 18 20h61q18 0 18 -20z" />
    <glyph glyph-name="Icircumflex" unicode="&#xce;" horiz-adv-x="261" 
d="M131 820l-41 -67q-10 -18 -27 -18h-45q-10 0 -12.5 5.5t2.5 12.5l75 106q14 19 30 19h35q16 0 30 -19l75 -106q5 -7 2.5 -12.5t-12.5 -5.5h-45q-15 0 -26 18zM179 660v-640q0 -20 -18 -20h-61q-18 0 -18 20v640q0 20 18 20h61q18 0 18 -20z" />
    <glyph glyph-name="Idieresis" unicode="&#xcf;" horiz-adv-x="261" 
d="M106 853v-95q0 -19 -18 -19h-35q-18 0 -18 19v95q0 20 18 20h35q18 0 18 -20zM227 853v-95q0 -19 -18 -19h-35q-18 0 -18 19v95q0 20 18 20h35q18 0 18 -20zM179 660v-640q0 -20 -18 -20h-61q-18 0 -18 20v640q0 20 18 20h61q18 0 18 -20z" />
    <glyph glyph-name="Eth" unicode="&#xd0;" horiz-adv-x="619" 
d="M321 0h-211q-16 0 -16 20v287h-56q-19 0 -19 18v36q0 18 19 18h56v281q0 20 18 20h209q120 0 174 -43t54 -111v-372q0 -68 -54 -111t-174 -43zM191 83h130q130 0 130 87v340q0 87 -130 87h-130v-218h115q19 0 19 -18v-36q0 -18 -19 -18h-115v-224z" />
    <glyph glyph-name="Ntilde" unicode="&#xd1;" horiz-adv-x="618" 
d="M376 816q12 0 15.5 8t3.5 30v7q0 17 21 17h31q16 0 16 -22l-1 -32q-1 -39 -24.5 -59.5t-56.5 -20.5q-32 0 -58 16l-43 26q-33 19 -40 19q-13 0 -16 -7.5t-3 -30.5v-7q0 -17 -20 -17h-32q-16 0 -16 22l1 32q1 40 24 60t56 20t59 -16l43 -26q33 -19 40 -19zM536 661v-642
q0 -19 -18 -19h-55q-12 0 -18 9l-235 412q-22 38 -36 73v-475q0 -19 -18 -19h-56q-18 0 -18 19v642q0 19 18 19h56q11 0 16 -8l241 -421q19 -32 31 -64v474q0 19 19 19h55q18 0 18 -19z" />
    <glyph glyph-name="Ograve" unicode="&#xd2;" horiz-adv-x="597" 
d="M247 747l-76 111q-6 8 -3.5 14t12.5 6h62q16 0 26 -19l59 -106q10 -19 -9 -19h-47q-15 0 -24 13zM71 146v388q0 68 53.5 111t173.5 43t174 -43t54 -111v-388q0 -68 -54 -111t-174 -43t-173.5 43t-53.5 111zM428 162v356q0 87 -130 87q-129 0 -129 -87v-356q0 -87 129 -87
q130 0 130 87z" />
    <glyph glyph-name="Oacute" unicode="&#xd3;" horiz-adv-x="597" 
d="M413 859l-77 -112q-7 -12 -24 -12h-46q-20 0 -10 18l59 107q10 18 26 18h62q22 0 10 -19zM71 146v388q0 68 53.5 111t173.5 43t174 -43t54 -111v-388q0 -68 -54 -111t-174 -43t-173.5 43t-53.5 111zM428 162v356q0 87 -130 87q-129 0 -129 -87v-356q0 -87 129 -87
q130 0 130 87z" />
    <glyph glyph-name="Ocircumflex" unicode="&#xd4;" horiz-adv-x="597" 
d="M298 820l-41 -67q-10 -18 -27 -18h-45q-10 0 -12.5 5.5t2.5 12.5l75 106q14 19 30 19h35q16 0 30 -19l75 -106q6 -7 3 -12.5t-13 -5.5h-45q-15 0 -26 18zM71 146v388q0 68 53.5 111t173.5 43t174 -43t54 -111v-388q0 -68 -54 -111t-174 -43t-173.5 43t-53.5 111zM428 162
v356q0 87 -130 87q-129 0 -129 -87v-356q0 -87 129 -87q130 0 130 87z" />
    <glyph glyph-name="Otilde" unicode="&#xd5;" horiz-adv-x="597" 
d="M366 816q12 0 15.5 8t3.5 30v7q0 17 21 17h31q16 0 16 -22l-1 -32q-1 -39 -24.5 -59.5t-56.5 -20.5q-32 0 -58 16l-43 26q-33 19 -40 19q-13 0 -16 -7.5t-3 -30.5v-7q0 -17 -20 -17h-32q-16 0 -16 22l1 32q1 40 24 60t56 20t59 -16l43 -26q33 -19 40 -19zM71 146v388
q0 68 53.5 111t173.5 43t174 -43t54 -111v-388q0 -68 -54 -111t-174 -43t-173.5 43t-53.5 111zM428 162v356q0 87 -130 87q-129 0 -129 -87v-356q0 -87 129 -87q130 0 130 87z" />
    <glyph glyph-name="Odieresis" unicode="&#xd6;" horiz-adv-x="597" 
d="M273 853v-95q0 -19 -18 -19h-35q-18 0 -18 19v95q0 20 18 20h35q18 0 18 -20zM394 853v-95q0 -19 -18 -19h-35q-18 0 -18 19v95q0 20 18 20h35q18 0 18 -20zM71 146v388q0 68 53.5 111t173.5 43t174 -43t54 -111v-388q0 -68 -54 -111t-174 -43t-173.5 43t-53.5 111z
M428 162v356q0 87 -130 87q-129 0 -129 -87v-356q0 -87 129 -87q130 0 130 87z" />
    <glyph glyph-name="multiply" unicode="&#xd7;" horiz-adv-x="461" 
d="M341 172l-110 109l-111 -109q-14 -14 -27 0l-29 31q-14 14 0 27l111 109l-110 110q-13 13 -1 26l29 31q12 12 27 -1l111 -110l110 110q15 15 27 1l30 -31q14 -14 -1 -27l-111 -110l110 -110q14 -14 0 -27l-30 -30q-11 -11 -25 1z" />
    <glyph glyph-name="Oslash" unicode="&#xd8;" horiz-adv-x="597" 
d="M164 -8q-9 -17 -16 -23.5t-22 -6.5h-34q-11 0 -13.5 9t3.5 21l28 55q-39 38 -39 98v388q0 68 53.5 111t173.5 43q77 0 125 -18l9 18q15 30 36 30h36q25 0 10 -30l-28 -55q40 -37 40 -99v-388q0 -68 -54 -111t-174 -43q-73 0 -125 18zM169 517v-352l214 424q-31 15 -85 15
q-129 0 -129 -87zM428 161v355l-215 -426q31 -16 85 -16q130 0 130 87z" />
    <glyph glyph-name="Ugrave" unicode="&#xd9;" horiz-adv-x="613" 
d="M265 747l-76 111q-6 8 -3.5 14t12.5 6h62q16 0 26 -19l59 -106q10 -19 -9 -19h-47q-15 0 -24 13zM177 660v-498q0 -87 129 -87q131 0 131 87v498q0 20 18 20h61q18 0 18 -20v-514q0 -68 -54 -111t-174 -43t-173.5 43t-53.5 111v514q0 20 19 20h61q18 0 18 -20z" />
    <glyph glyph-name="Uacute" unicode="&#xda;" horiz-adv-x="613" 
d="M426 859l-77 -112q-7 -12 -24 -12h-46q-20 0 -10 18l59 107q10 18 26 18h62q22 0 10 -19zM177 660v-498q0 -87 129 -87q131 0 131 87v498q0 20 18 20h61q18 0 18 -20v-514q0 -68 -54 -111t-174 -43t-173.5 43t-53.5 111v514q0 20 19 20h61q18 0 18 -20z" />
    <glyph glyph-name="Ucircumflex" unicode="&#xdb;" horiz-adv-x="613" 
d="M307 820l-41 -67q-10 -18 -27 -18h-45q-10 0 -12.5 5.5t2.5 12.5l75 106q14 19 30 19h35q16 0 30 -19l75 -106q5 -7 2.5 -12.5t-12.5 -5.5h-45q-15 0 -26 18zM177 660v-498q0 -87 129 -87q131 0 131 87v498q0 20 18 20h61q18 0 18 -20v-514q0 -68 -54 -111t-174 -43
t-173.5 43t-53.5 111v514q0 20 19 20h61q18 0 18 -20z" />
    <glyph glyph-name="Udieresis" unicode="&#xdc;" horiz-adv-x="613" 
d="M282 853v-95q0 -19 -18 -19h-35q-18 0 -18 19v95q0 20 18 20h35q18 0 18 -20zM403 853v-95q0 -19 -18 -19h-35q-18 0 -18 19v95q0 20 18 20h35q18 0 18 -20zM177 660v-498q0 -87 129 -87q131 0 131 87v498q0 20 18 20h61q18 0 18 -20v-514q0 -68 -54 -111t-174 -43
t-173.5 43t-53.5 111v514q0 20 19 20h61q18 0 18 -20z" />
    <glyph glyph-name="Yacute" unicode="&#xdd;" horiz-adv-x="532" 
d="M394 859l-77 -112q-7 -12 -24 -12h-46q-20 0 -10 18l59 107q10 18 26 18h62q22 0 10 -19zM126 661l125 -264q8 -18 16 -45q7 28 16 45l133 264q10 19 22 19h61q23 0 13 -19l-196 -391v-251q0 -19 -18 -19h-61q-19 0 -19 19v240l-198 402q-10 19 14 19h69q13 0 23 -19z
" />
    <glyph glyph-name="Thorn" unicode="&#xde;" horiz-adv-x="578" 
d="M180 661v-165h123q120 0 173.5 -42.5t53.5 -110.5v-95q0 -68 -53.5 -110.5t-173.5 -42.5h-123v-76q0 -19 -19 -19h-61q-18 0 -18 19v642q0 19 18 19h61q19 0 19 -19zM303 415h-123v-239h123q130 0 130 88v63q0 88 -130 88z" />
    <glyph glyph-name="germandbls" unicode="&#xdf;" horiz-adv-x="624" 
d="M197 564v-544q0 -20 -19 -20h-58q-19 0 -19 20v396h-59q-18 0 -18 20v35q0 17 18 19l53 4h6v77q0 63 50 100t157 37q207 0 207 -137v-37q0 -62 -73 -89l-65 -24q-41 -15 -41 -36v-5q0 -25 45 -44l117 -49q91 -39 91 -105v-55q0 -64 -39.5 -99.5t-133.5 -35.5
q-93 0 -128 32.5t-35 98.5v8q0 20 19 20h40q19 0 19 -20v-11q0 -32 18.5 -48t66.5 -16t67 16.5t19 47.5v44q0 6 -1.5 11.5t-4 9t-7 7.5t-7.5 6.5t-9 5.5t-8 4.5t-8 4t-7 2.5l-111 47q-24 10 -39.5 20t-30 33t-14.5 53v20q0 33 21.5 55t49.5 32l52 19q49 17 49 54v16
q0 70 -115 70t-115 -70z" />
    <glyph glyph-name="agrave" unicode="&#xe0;" horiz-adv-x="504" 
d="M211 577l-76 112q-14 19 9 19h62q16 0 26 -18l59 -107q10 -18 -9 -18h-47q-14 0 -24 12zM59 354v15q0 135 189 135t189 -135v-349q0 -20 -18 -20h-52q-18 0 -19 20l-2 29q-72 -57 -158 -57q-67 0 -104 34.5t-37 86.5v48q0 52 36 86.5t103 34.5h158v77q0 33 -21.5 50.5
t-75.5 17.5q-55 0 -77 -16t-22 -49v-8q0 -20 -19 -20h-52q-18 0 -18 20zM212 71q67 0 132 51v86h-138q-36 0 -51 -15t-15 -46v-20q0 -56 72 -56z" />
    <glyph glyph-name="aacute" unicode="&#xe1;" horiz-adv-x="504" 
d="M367 689l-76 -112q-7 -12 -24 -12h-46q-20 0 -10 18l59 107q10 18 26 18h62q23 0 9 -19zM59 354v15q0 135 189 135t189 -135v-349q0 -20 -18 -20h-52q-18 0 -19 20l-2 29q-72 -57 -158 -57q-67 0 -104 34.5t-37 86.5v48q0 52 36 86.5t103 34.5h158v77q0 33 -21.5 50.5
t-75.5 17.5q-55 0 -77 -16t-22 -49v-8q0 -20 -19 -20h-52q-18 0 -18 20zM212 71q67 0 132 51v86h-138q-36 0 -51 -15t-15 -46v-20q0 -56 72 -56z" />
    <glyph glyph-name="acircumflex" unicode="&#xe2;" horiz-adv-x="504" 
d="M249 650l-42 -67q-11 -18 -26 -18h-45q-10 0 -12.5 5.5t2.5 12.5l75 106q14 19 30 19h35q16 0 30 -19l75 -106q5 -7 2.5 -12.5t-12.5 -5.5h-45q-15 0 -26 18zM59 354v15q0 135 189 135t189 -135v-349q0 -20 -18 -20h-52q-18 0 -19 20l-2 29q-72 -57 -158 -57
q-67 0 -104 34.5t-37 86.5v48q0 52 36 86.5t103 34.5h158v77q0 33 -21.5 50.5t-75.5 17.5q-55 0 -77 -16t-22 -49v-8q0 -20 -19 -20h-52q-18 0 -18 20zM212 71q67 0 132 51v86h-138q-36 0 -51 -15t-15 -46v-20q0 -56 72 -56z" />
    <glyph glyph-name="atilde" unicode="&#xe3;" horiz-adv-x="504" 
d="M323 567q-32 0 -58 16l-43 26q-33 19 -40 19q-13 0 -16 -7.5t-3 -30.5v-7q0 -17 -20 -17h-32q-16 0 -16 22l1 32q1 40 24 60t56 20t59 -16l43 -26q33 -19 40 -19q12 0 15.5 8t3.5 30v7q0 17 21 17h31q16 0 16 -22l-1 -32q-1 -39 -24.5 -59.5t-56.5 -20.5zM59 354v15
q0 135 189 135t189 -135v-349q0 -20 -18 -20h-52q-18 0 -19 20l-2 29q-72 -57 -158 -57q-67 0 -104 34.5t-37 86.5v48q0 52 36 86.5t103 34.5h158v77q0 33 -21.5 50.5t-75.5 17.5q-55 0 -77 -16t-22 -49v-8q0 -20 -19 -20h-52q-18 0 -18 20zM212 71q67 0 132 51v86h-138
q-36 0 -51 -15t-15 -46v-20q0 -56 72 -56z" />
    <glyph glyph-name="adieresis" unicode="&#xe4;" horiz-adv-x="504" 
d="M223 685v-95q0 -19 -18 -19h-35q-19 0 -19 19v95q0 19 19 19h35q18 0 18 -19zM344 685v-95q0 -19 -18 -19h-35q-19 0 -19 19v95q0 19 19 19h35q18 0 18 -19zM59 354v15q0 135 189 135t189 -135v-349q0 -20 -18 -20h-52q-18 0 -19 20l-2 29q-72 -57 -158 -57
q-67 0 -104 34.5t-37 86.5v48q0 52 36 86.5t103 34.5h158v77q0 33 -21.5 50.5t-75.5 17.5q-55 0 -77 -16t-22 -49v-8q0 -20 -19 -20h-52q-18 0 -18 20zM212 71q67 0 132 51v86h-138q-36 0 -51 -15t-15 -46v-20q0 -56 72 -56z" />
    <glyph glyph-name="aring" unicode="&#xe5;" horiz-adv-x="504" 
d="M341 653v-33q0 -32 -24.5 -51t-71.5 -19t-71.5 19t-24.5 51v33q0 32 24.5 51.5t71.5 19.5t71.5 -19.5t24.5 -51.5zM289 630v13q0 33 -44 33t-44 -33v-13q0 -33 44 -33t44 33zM59 354v15q0 135 189 135t189 -135v-349q0 -20 -18 -20h-52q-18 0 -19 20l-2 29
q-72 -57 -158 -57q-67 0 -104 34.5t-37 86.5v48q0 52 36 86.5t103 34.5h158v77q0 33 -21.5 50.5t-75.5 17.5q-55 0 -77 -16t-22 -49v-8q0 -20 -19 -20h-52q-18 0 -18 20zM212 71q67 0 132 51v86h-138q-36 0 -51 -15t-15 -46v-20q0 -56 72 -56z" />
    <glyph glyph-name="ae" unicode="&#xe6;" horiz-adv-x="780" 
d="M726 367v-117q0 -18 -18 -18h-272v-102q0 -33 22.5 -49.5t77.5 -16.5q101 0 101 68v13q0 19 18 19h49q19 0 19 -19v-17q0 -136 -187 -136q-135 0 -175 64q-82 -64 -173 -64q-70 0 -105.5 34t-35.5 87v48q0 53 36.5 87t102.5 34h157v83q0 33 -21.5 51t-75.5 18t-76.5 -17
t-22.5 -50v-13q0 -19 -18 -19h-52q-19 0 -19 19v16q0 134 190 134q100 0 140 -47q49 47 148 47q190 0 190 -137zM436 363v-66h201v66q0 69 -101 69q-100 0 -100 -69zM211 67q60 0 132 56v94h-141q-62 0 -62 -60v-32q0 -28 18.5 -43t52.5 -15z" />
    <glyph glyph-name="ccedilla" unicode="&#xe7;" horiz-adv-x="487" 
d="M356 -131q0 -40 -24 -60t-61 -20h-113q-19 0 -19 19v20q0 18 19 18h99q32 0 32 23q0 22 -32 22h-66q-17 0 -23 6t-3 18l21 82q-125 21 -125 132v238q0 137 192 137q191 0 191 -137v-18q0 -19 -18 -19h-54q-19 0 -19 19v11q0 33 -22 49.5t-77 16.5q-54 0 -76 -16.5
t-22 -49.5v-224q0 -33 22 -49.5t76 -16.5q55 0 77 16.5t22 49.5v20q0 19 19 19h54q18 0 18 -19v-27q0 -137 -192 -137h-3l-12 -44h34q37 0 61 -20t24 -59z" />
    <glyph glyph-name="egrave" unicode="&#xe8;" horiz-adv-x="498" 
d="M213 577l-76 112q-14 19 9 19h62q16 0 26 -18l59 -107q10 -18 -9 -18h-47q-14 0 -24 12zM443 367v-122q0 -18 -17 -18h-272v-92q0 -33 21.5 -50t78.5 -17t78.5 17t21.5 50v11q0 19 19 19h51q19 0 19 -19v-17q0 -137 -191 -137t-191 137v238q0 137 193 137q189 0 189 -137
zM154 361v-63h200v63q0 67 -100 67t-100 -67z" />
    <glyph glyph-name="eacute" unicode="&#xe9;" horiz-adv-x="498" 
d="M362 689l-76 -112q-7 -12 -24 -12h-46q-20 0 -10 18l59 107q10 18 26 18h62q23 0 9 -19zM443 367v-122q0 -18 -17 -18h-272v-92q0 -33 21.5 -50t78.5 -17t78.5 17t21.5 50v11q0 19 19 19h51q19 0 19 -19v-17q0 -137 -191 -137t-191 137v238q0 137 193 137q189 0 189 -137
zM154 361v-63h200v63q0 67 -100 67t-100 -67z" />
    <glyph glyph-name="ecircumflex" unicode="&#xea;" horiz-adv-x="498" 
d="M254 650l-42 -67q-11 -18 -26 -18h-45q-10 0 -12.5 5.5t2.5 12.5l75 106q14 19 30 19h35q16 0 30 -19l75 -106q5 -7 2.5 -12.5t-12.5 -5.5h-45q-15 0 -26 18zM443 367v-122q0 -18 -17 -18h-272v-92q0 -33 21.5 -50t78.5 -17t78.5 17t21.5 50v11q0 19 19 19h51
q19 0 19 -19v-17q0 -137 -191 -137t-191 137v238q0 137 193 137q189 0 189 -137zM154 361v-63h200v63q0 67 -100 67t-100 -67z" />
    <glyph glyph-name="edieresis" unicode="&#xeb;" horiz-adv-x="498" 
d="M228 685v-95q0 -19 -18 -19h-35q-19 0 -19 19v95q0 19 19 19h35q18 0 18 -19zM349 685v-95q0 -19 -18 -19h-35q-19 0 -19 19v95q0 19 19 19h35q18 0 18 -19zM443 367v-122q0 -18 -17 -18h-272v-92q0 -33 21.5 -50t78.5 -17t78.5 17t21.5 50v11q0 19 19 19h51q19 0 19 -19
v-17q0 -137 -191 -137t-191 137v238q0 137 193 137q189 0 189 -137zM154 361v-63h200v63q0 67 -100 67t-100 -67z" />
    <glyph glyph-name="igrave" unicode="&#xec;" horiz-adv-x="233" 
d="M69 577l-76 112q-14 19 9 19h62q16 0 26 -18l59 -107q10 -18 -9 -18h-47q-14 0 -24 12zM164 476v-457q0 -19 -18 -19h-59q-18 0 -18 19v457q0 20 18 20h59q18 0 18 -20z" />
    <glyph glyph-name="iacute" unicode="&#xed;" horiz-adv-x="233" 
d="M235 689l-76 -112q-7 -12 -24 -12h-46q-20 0 -10 18l59 107q10 18 26 18h62q23 0 9 -19zM164 476v-457q0 -19 -18 -19h-59q-18 0 -18 19v457q0 20 18 20h59q18 0 18 -20z" />
    <glyph glyph-name="icircumflex" unicode="&#xee;" horiz-adv-x="233" 
d="M119 650l-42 -67q-11 -18 -26 -18h-45q-10 0 -12.5 5.5t2.5 12.5l75 106q14 19 30 19h35q16 0 30 -19l75 -106q5 -7 2.5 -12.5t-12.5 -5.5h-45q-15 0 -26 18zM164 476v-457q0 -19 -18 -19h-59q-18 0 -18 19v457q0 20 18 20h59q18 0 18 -20z" />
    <glyph glyph-name="idieresis" unicode="&#xef;" horiz-adv-x="233" 
d="M92 685v-95q0 -19 -18 -19h-35q-19 0 -19 19v95q0 19 19 19h35q18 0 18 -19zM213 685v-95q0 -19 -18 -19h-35q-19 0 -19 19v95q0 19 19 19h35q18 0 18 -19zM164 476v-457q0 -19 -18 -19h-59q-18 0 -18 19v457q0 20 18 20h59q18 0 18 -20z" />
    <glyph glyph-name="eth" unicode="&#xf0;" horiz-adv-x="524" 
d="M280 594l62 28q-24 19 -78 19h-93q-19 0 -19 19v29q0 19 19 19h93q108 0 154 -43l48 24q17 9 26 -7l7 -12q8 -15 -8 -24l-44 -22q10 -21 10 -52v-444q0 -136 -195 -136q-102 0 -151 36t-49 100v240q0 64 35.5 100t106.5 36q90 0 163 -58v107q0 13 -6 23l-57 -25
q-17 -8 -25 7l-7 11q-11 16 8 25zM367 136v233q-67 52 -135 52q-75 0 -75 -66v-219q0 -68 105 -68t105 68z" />
    <glyph glyph-name="ntilde" unicode="&#xf1;" horiz-adv-x="536" 
d="M336 573q-32 0 -58 16l-43 26q-33 19 -40 19q-13 0 -16 -7.5t-3 -30.5v-7q0 -17 -20 -17h-32q-16 0 -16 22l1 32q1 40 24 60t56 20t59 -16l43 -26q33 -19 40 -19q12 0 15.5 8t3.5 30v7q0 17 21 17h31q16 0 16 -22l-1 -32q-1 -39 -24.5 -59.5t-56.5 -20.5zM88 496h53
q18 0 19 -19l2 -32q69 59 166 59q68 0 104.5 -35.5t36.5 -92.5v-356q0 -20 -18 -20h-58q-19 0 -19 20v333q0 66 -74 66q-70 0 -136 -51v-348q0 -20 -18 -20h-58q-19 0 -19 20v457q0 19 19 19z" />
    <glyph glyph-name="ograve" unicode="&#xf2;" horiz-adv-x="520" 
d="M214 577l-76 112q-14 19 9 19h62q16 0 26 -18l59 -107q10 -18 -9 -18h-47q-14 0 -24 12zM60 129v238q0 64 49 100.5t151 36.5t151 -36.5t49 -100.5v-238q0 -64 -49 -100.5t-151 -36.5t-151 36.5t-49 100.5zM365 137v222q0 67 -105 67t-105 -67v-222q0 -67 105 -67t105 67
z" />
    <glyph glyph-name="oacute" unicode="&#xf3;" horiz-adv-x="520" 
d="M371 689l-76 -112q-7 -12 -24 -12h-46q-20 0 -10 18l59 107q10 18 26 18h62q23 0 9 -19zM60 129v238q0 64 49 100.5t151 36.5t151 -36.5t49 -100.5v-238q0 -64 -49 -100.5t-151 -36.5t-151 36.5t-49 100.5zM365 137v222q0 67 -105 67t-105 -67v-222q0 -67 105 -67t105 67
z" />
    <glyph glyph-name="ocircumflex" unicode="&#xf4;" horiz-adv-x="520" 
d="M257 650l-42 -67q-11 -18 -26 -18h-45q-10 0 -12.5 5.5t2.5 12.5l75 106q14 19 30 19h35q16 0 30 -19l75 -106q5 -7 2.5 -12.5t-12.5 -5.5h-45q-15 0 -26 18zM60 129v238q0 64 49 100.5t151 36.5t151 -36.5t49 -100.5v-238q0 -64 -49 -100.5t-151 -36.5t-151 36.5
t-49 100.5zM365 137v222q0 67 -105 67t-105 -67v-222q0 -67 105 -67t105 67z" />
    <glyph glyph-name="otilde" unicode="&#xf5;" horiz-adv-x="520" 
d="M329 567q-32 0 -58 16l-43 26q-33 19 -40 19q-13 0 -16 -7.5t-3 -30.5v-7q0 -17 -20 -17h-32q-16 0 -16 22l1 32q1 40 24 60t56 20t59 -16l43 -26q33 -19 40 -19q12 0 15.5 8t3.5 30v7q0 17 21 17h31q16 0 16 -22l-1 -32q-1 -39 -24.5 -59.5t-56.5 -20.5zM60 129v238
q0 64 49 100.5t151 36.5t151 -36.5t49 -100.5v-238q0 -64 -49 -100.5t-151 -36.5t-151 36.5t-49 100.5zM365 137v222q0 67 -105 67t-105 -67v-222q0 -67 105 -67t105 67z" />
    <glyph glyph-name="odieresis" unicode="&#xf6;" horiz-adv-x="520" 
d="M231 685v-95q0 -19 -18 -19h-35q-19 0 -19 19v95q0 19 19 19h35q18 0 18 -19zM352 685v-95q0 -19 -18 -19h-35q-19 0 -19 19v95q0 19 19 19h35q18 0 18 -19zM60 129v238q0 64 49 100.5t151 36.5t151 -36.5t49 -100.5v-238q0 -64 -49 -100.5t-151 -36.5t-151 36.5
t-49 100.5zM365 137v222q0 67 -105 67t-105 -67v-222q0 -67 105 -67t105 67z" />
    <glyph glyph-name="divide" unicode="&#xf7;" horiz-adv-x="541" 
d="M319 524v-80q0 -19 -18 -19h-60q-19 0 -19 19v80q0 19 19 19h60q18 0 18 -19zM67 350h406q19 0 19 -18v-43q0 -19 -19 -19h-405q-19 0 -19 19v43q0 18 18 18zM319 180v-80q0 -19 -18 -19h-60q-19 0 -19 19v80q0 19 19 19h60q18 0 18 -19z" />
    <glyph glyph-name="oslash" unicode="&#xf8;" horiz-adv-x="520" 
d="M123 -39h-32q-12 0 -12.5 10.5t5.5 19.5l21 40q-45 35 -45 98v238q0 64 49 100.5t151 36.5q55 0 91 -10l7 13q16 30 36 30h35q25 0 8 -30l-22 -42q45 -35 45 -98v-238q0 -64 -49 -100.5t-151 -36.5q-55 0 -91 10l-6 -11q-9 -17 -17 -23.5t-23 -6.5zM155 137q0 -7 1 -11
l156 295q-23 5 -52 5q-105 0 -105 -67v-222zM260 70q105 0 105 67v222q0 7 -1 11l-156 -295q23 -5 52 -5z" />
    <glyph glyph-name="ugrave" unicode="&#xf9;" horiz-adv-x="530" 
d="M227 577l-76 112q-14 19 9 19h62q16 0 26 -18l59 -107q10 -18 -9 -18h-47q-14 0 -24 12zM370 19l-2 30q-67 -57 -160 -57q-67 0 -104 35t-37 92v357q0 20 18 20h58q19 0 19 -20v-333q0 -66 74 -66q68 0 130 50v349q0 20 18 20h59q18 0 18 -20v-457q0 -19 -18 -19h-54
q-18 0 -19 19z" />
    <glyph glyph-name="uacute" unicode="&#xfa;" horiz-adv-x="530" 
d="M379 689l-76 -112q-7 -12 -24 -12h-46q-20 0 -10 18l59 107q10 18 26 18h62q23 0 9 -19zM370 19l-2 30q-67 -57 -160 -57q-67 0 -104 35t-37 92v357q0 20 18 20h58q19 0 19 -20v-333q0 -66 74 -66q68 0 130 50v349q0 20 18 20h59q18 0 18 -20v-457q0 -19 -18 -19h-54
q-18 0 -19 19z" />
    <glyph glyph-name="ucircumflex" unicode="&#xfb;" horiz-adv-x="530" 
d="M260 650l-42 -67q-11 -18 -26 -18h-45q-10 0 -12.5 5.5t2.5 12.5l75 106q14 19 30 19h35q16 0 30 -19l75 -106q5 -7 2.5 -12.5t-12.5 -5.5h-45q-15 0 -26 18zM370 19l-2 30q-67 -57 -160 -57q-67 0 -104 35t-37 92v357q0 20 18 20h58q19 0 19 -20v-333q0 -66 74 -66
q68 0 130 50v349q0 20 18 20h59q18 0 18 -20v-457q0 -19 -18 -19h-54q-18 0 -19 19z" />
    <glyph glyph-name="udieresis" unicode="&#xfc;" horiz-adv-x="530" 
d="M240 685v-95q0 -19 -18 -19h-35q-19 0 -19 19v95q0 19 19 19h35q18 0 18 -19zM361 685v-95q0 -19 -18 -19h-35q-19 0 -19 19v95q0 19 19 19h35q18 0 18 -19zM370 19l-2 30q-67 -57 -160 -57q-67 0 -104 35t-37 92v357q0 20 18 20h58q19 0 19 -20v-333q0 -66 74 -66
q68 0 130 50v349q0 20 18 20h59q18 0 18 -20v-457q0 -19 -18 -19h-54q-18 0 -19 19z" />
    <glyph glyph-name="yacute" unicode="&#xfd;" horiz-adv-x="460" 
d="M352 689l-76 -112q-7 -12 -24 -12h-46q-20 0 -10 18l59 107q10 18 26 18h62q23 0 9 -19zM118 476l97 -289q11 -36 15 -70q11 45 18 68l99 291q6 20 22 20h54q23 0 17 -20l-226 -661q-6 -19 -21 -19h-43q-24 0 -18 19l56 177l-168 484q-6 20 17 20h59q15 0 22 -20z" />
    <glyph glyph-name="thorn" unicode="&#xfe;" horiz-adv-x="532" 
d="M165 680v-234q71 58 163 58q71 0 106.5 -36t35.5 -100v-241q0 -63 -35.5 -99t-106.5 -36q-92 0 -163 56v-233q0 -19 -18 -19h-59q-18 0 -18 19v865q0 19 18 19h58q19 0 19 -19zM375 141v214q0 66 -75 66q-71 0 -135 -52v-243q68 -52 135 -52q75 0 75 67z" />
    <glyph glyph-name="ydieresis" unicode="&#xff;" horiz-adv-x="460" 
d="M209 685v-95q0 -19 -18 -19h-35q-19 0 -19 19v95q0 19 19 19h35q18 0 18 -19zM330 685v-95q0 -19 -18 -19h-35q-19 0 -19 19v95q0 19 19 19h35q18 0 18 -19zM118 476l97 -289q11 -36 15 -70q11 45 18 68l99 291q6 20 22 20h54q23 0 17 -20l-226 -661q-6 -19 -21 -19h-43
q-24 0 -18 19l56 177l-168 484q-6 20 17 20h59q15 0 22 -20z" />
    <glyph glyph-name="Amacron" unicode="&#x100;" horiz-adv-x="542" 
d="M149 836h243q19 0 19 -18v-36q0 -19 -19 -19h-243q-19 0 -19 19v36q0 18 19 18zM240 680h62q18 0 24 -19l194 -642q6 -19 -15 -19h-63q-16 0 -22 19l-47 155h-211l-46 -155q-6 -19 -22 -19h-58q-20 0 -14 19l194 642q6 19 24 19zM352 252l-56 182q-18 60 -27 148
q-15 -105 -28 -146l-57 -184h168z" />
    <glyph glyph-name="amacron" unicode="&#x101;" horiz-adv-x="504" 
d="M126 659h242q19 0 19 -18v-36q0 -18 -19 -18h-242q-20 0 -20 18v36q0 18 20 18zM59 354v15q0 135 189 135t189 -135v-349q0 -20 -18 -20h-52q-18 0 -19 20l-2 29q-72 -57 -158 -57q-67 0 -104 34.5t-37 86.5v48q0 52 36 86.5t103 34.5h158v77q0 33 -21.5 50.5t-75.5 17.5
q-55 0 -77 -16t-22 -49v-8q0 -20 -19 -20h-52q-18 0 -18 20zM212 71q67 0 132 51v86h-138q-36 0 -51 -15t-15 -46v-20q0 -56 72 -56z" />
    <glyph glyph-name="Abreve" unicode="&#x102;" horiz-adv-x="542" 
d="M213 871v-17q0 -27 12.5 -41.5t45.5 -14.5t45.5 14.5t12.5 41.5v17q0 17 17 17h35q17 0 17 -17v-15q0 -118 -129 -118q-126 0 -126 118v15q0 17 17 17h36q17 0 17 -17zM240 680h62q18 0 24 -19l194 -642q6 -19 -15 -19h-63q-16 0 -22 19l-47 155h-211l-46 -155
q-6 -19 -22 -19h-58q-20 0 -14 19l194 642q6 19 24 19zM352 252l-56 182q-18 60 -27 148q-15 -105 -28 -146l-57 -184h168z" />
    <glyph glyph-name="abreve" unicode="&#x103;" horiz-adv-x="504" 
d="M187 669v-17q0 -27 12.5 -41.5t45.5 -14.5t45.5 14.5t12.5 41.5v17q0 17 17 17h35q17 0 17 -17v-15q0 -118 -129 -118q-126 0 -126 118v15q0 17 17 17h36q17 0 17 -17zM59 354v15q0 135 189 135t189 -135v-349q0 -20 -18 -20h-52q-18 0 -19 20l-2 29q-72 -57 -158 -57
q-67 0 -104 34.5t-37 86.5v48q0 52 36 86.5t103 34.5h158v77q0 33 -21.5 50.5t-75.5 17.5q-55 0 -77 -16t-22 -49v-8q0 -20 -19 -20h-52q-18 0 -18 20zM212 71q67 0 132 51v86h-138q-36 0 -51 -15t-15 -46v-20q0 -56 72 -56z" />
    <glyph glyph-name="Aogonek" unicode="&#x104;" horiz-adv-x="542" 
d="M240 680h62q18 0 24 -19l194 -642q6 -19 -15 -19h-19q-57 0 -57 -55q0 -41 49 -41h28q19 0 19 -18v-28q0 -19 -25 -19h-46q-39 0 -69 21.5t-30 67.5q0 23 14.5 54.5t45.5 52.5l-42 139h-211l-46 -155q-6 -19 -22 -19h-58q-20 0 -14 19l194 642q6 19 24 19zM352 252
l-56 182q-18 60 -27 148q-15 -105 -28 -146l-57 -184h168z" />
    <glyph glyph-name="aogonek" unicode="&#x105;" horiz-adv-x="504" 
d="M59 354v15q0 135 189 135t189 -135v-349q0 -20 -18 -20h-8q-25 0 -38.5 -16.5t-13.5 -39.5q0 -40 48 -40h14q19 0 19 -18v-28q0 -19 -24 -19h-37q-37 0 -65.5 23t-28.5 66q0 61 62 101l-1 20q-72 -57 -158 -57q-67 0 -104 34.5t-37 86.5v48q0 52 36 86.5t103 34.5h158v77
q0 33 -21.5 50.5t-75.5 17.5q-55 0 -77 -16t-22 -49v-8q0 -20 -19 -20h-52q-18 0 -18 20zM212 71q67 0 132 51v86h-138q-36 0 -51 -15t-15 -46v-20q0 -56 72 -56z" />
    <glyph glyph-name="Cacute" unicode="&#x106;" horiz-adv-x="559" 
d="M403 859l-77 -112q-7 -12 -24 -12h-46q-20 0 -10 18l59 107q10 18 26 18h62q22 0 10 -19zM513 209v-63q0 -154 -221 -154t-221 154v388q0 154 221 154t221 -154v-49q0 -20 -18 -20h-58q-19 0 -19 20v33q0 87 -125 87q-124 0 -124 -87v-356q0 -87 124 -87q125 0 125 87v47
q0 19 19 19h58q18 0 18 -19z" />
    <glyph glyph-name="cacute" unicode="&#x107;" horiz-adv-x="487" 
d="M367 689l-76 -112q-7 -12 -24 -12h-46q-20 0 -10 18l59 107q10 18 26 18h62q23 0 9 -19zM253 504q191 0 191 -137v-18q0 -19 -18 -19h-54q-19 0 -19 19v11q0 33 -22 49.5t-77 16.5q-54 0 -76 -16.5t-22 -49.5v-224q0 -33 22 -49.5t76 -16.5q55 0 77 16.5t22 49.5v20
q0 19 19 19h54q18 0 18 -19v-27q0 -137 -192 -137q-191 0 -191 137v238q0 137 192 137z" />
    <glyph glyph-name="Ccircumflex" unicode="&#x108;" horiz-adv-x="559" 
d="M288 820l-41 -67q-10 -18 -27 -18h-45q-10 0 -12.5 5.5t2.5 12.5l75 106q14 19 30 19h35q16 0 30 -19l75 -106q6 -7 3 -12.5t-13 -5.5h-45q-15 0 -26 18zM513 209v-63q0 -154 -221 -154t-221 154v388q0 154 221 154t221 -154v-49q0 -20 -18 -20h-58q-19 0 -19 20v33
q0 87 -125 87q-124 0 -124 -87v-356q0 -87 124 -87q125 0 125 87v47q0 19 19 19h58q18 0 18 -19z" />
    <glyph glyph-name="ccircumflex" unicode="&#x109;" horiz-adv-x="487" 
d="M249 650l-42 -67q-11 -18 -26 -18h-45q-10 0 -12.5 5.5t2.5 12.5l75 106q14 19 30 19h35q16 0 30 -19l75 -106q5 -7 2.5 -12.5t-12.5 -5.5h-45q-15 0 -26 18zM253 504q191 0 191 -137v-18q0 -19 -18 -19h-54q-19 0 -19 19v11q0 33 -22 49.5t-77 16.5q-54 0 -76 -16.5
t-22 -49.5v-224q0 -33 22 -49.5t76 -16.5q55 0 77 16.5t22 49.5v20q0 19 19 19h54q18 0 18 -19v-27q0 -137 -192 -137q-191 0 -191 137v238q0 137 192 137z" />
    <glyph glyph-name="Cdotaccent" unicode="&#x10a;" horiz-adv-x="559" 
d="M332 839v-80q0 -19 -18 -19h-60q-18 0 -18 19v80q0 19 18 19h60q18 0 18 -19zM513 209v-63q0 -154 -221 -154t-221 154v388q0 154 221 154t221 -154v-49q0 -20 -18 -20h-58q-19 0 -19 20v33q0 87 -125 87q-124 0 -124 -87v-356q0 -87 124 -87q125 0 125 87v47q0 19 19 19
h58q18 0 18 -19z" />
    <glyph glyph-name="cdotaccent" unicode="&#x10b;" horiz-adv-x="487" 
d="M291 676v-79q0 -19 -18 -19h-60q-19 0 -19 19v79q0 19 19 19h60q18 0 18 -19zM253 504q191 0 191 -137v-18q0 -19 -18 -19h-54q-19 0 -19 19v11q0 33 -22 49.5t-77 16.5q-54 0 -76 -16.5t-22 -49.5v-224q0 -33 22 -49.5t76 -16.5q55 0 77 16.5t22 49.5v20q0 19 19 19h54
q18 0 18 -19v-27q0 -137 -192 -137q-191 0 -191 137v238q0 137 192 137z" />
    <glyph glyph-name="Ccaron" unicode="&#x10c;" horiz-adv-x="559" 
d="M243 859l41 -66l41 66q13 19 26 19h45q10 0 13 -5.5t-3 -13.5l-75 -106q-13 -18 -30 -18h-35q-16 0 -30 19l-75 105q-6 8 -3 13.5t13 5.5h45q14 0 27 -19zM513 209v-63q0 -154 -221 -154t-221 154v388q0 154 221 154t221 -154v-49q0 -20 -18 -20h-58q-19 0 -19 20v33
q0 87 -125 87q-124 0 -124 -87v-356q0 -87 124 -87q125 0 125 87v47q0 19 19 19h58q18 0 18 -19z" />
    <glyph glyph-name="ccaron" unicode="&#x10d;" horiz-adv-x="487" 
d="M202 689l42 -66l41 66q13 19 26 19h45q10 0 13 -5.5t-3 -13.5l-75 -106q-13 -18 -30 -18h-35q-16 0 -30 19l-75 105q-6 8 -3 13.5t13 5.5h45q13 0 26 -19zM253 504q191 0 191 -137v-18q0 -19 -18 -19h-54q-19 0 -19 19v11q0 33 -22 49.5t-77 16.5q-54 0 -76 -16.5
t-22 -49.5v-224q0 -33 22 -49.5t76 -16.5q55 0 77 16.5t22 49.5v20q0 19 19 19h54q18 0 18 -19v-27q0 -137 -192 -137q-191 0 -191 137v238q0 137 192 137z" />
    <glyph glyph-name="Dcaron" unicode="&#x10e;" horiz-adv-x="607" 
d="M252 859l41 -66l41 66q13 19 26 19h45q10 0 13 -5.5t-3 -13.5l-75 -106q-13 -18 -30 -18h-35q-16 0 -30 19l-75 105q-6 8 -3 13.5t13 5.5h45q14 0 27 -19zM309 0h-211q-16 0 -16 20v640q0 20 18 20h209q120 0 174 -43t54 -111v-372q0 -68 -54 -111t-174 -43zM309 597
h-130v-514h130q130 0 130 87v340q0 87 -130 87z" />
    <glyph glyph-name="dcaron" unicode="&#x10f;" horiz-adv-x="548" 
d="M536 681v29q0 19 19 19h43q19 0 19 -19v-34q0 -57 -42 -125q-8 -13 -25 -10l-33 8q-19 5 -9 26q3 7 9.5 21.5t8.5 19.5t5 16t4 22t1 27zM371 20l-2 30q-76 -58 -166 -58q-71 0 -106 36t-35 100v240q0 64 35 100t106 36q86 0 164 -57v232q0 20 18 20h58q19 0 19 -20v-659
q0 -20 -19 -20h-53q-18 0 -19 20zM157 353v-210q0 -65 74 -65q66 0 136 51v237q-67 52 -136 52q-74 0 -74 -65z" />
    <glyph glyph-name="Dcroat" unicode="&#x110;" horiz-adv-x="619" 
d="M321 0h-211q-16 0 -16 20v287h-56q-19 0 -19 18v36q0 18 19 18h56v281q0 20 18 20h209q120 0 174 -43t54 -111v-372q0 -68 -54 -111t-174 -43zM191 83h130q130 0 130 87v340q0 87 -130 87h-130v-218h115q19 0 19 -18v-36q0 -18 -19 -18h-115v-224z" />
    <glyph glyph-name="dcroat" unicode="&#x111;" horiz-adv-x="531" 
d="M369 50q-76 -58 -166 -58q-71 0 -106 36t-35 100v240q0 64 35 100t106 36q86 0 164 -57v104h-127q-19 0 -19 18v31q0 18 19 18h127v61q0 20 18 20h58q19 0 19 -20v-61h35q19 0 19 -18v-31q0 -18 -19 -18h-35v-531q0 -20 -19 -20h-53q-18 0 -19 20zM157 353v-210
q0 -65 74 -65q66 0 136 51v237q-67 52 -136 52q-74 0 -74 -65z" />
    <glyph glyph-name="Emacron" unicode="&#x112;" horiz-adv-x="517" 
d="M138 836h243q19 0 19 -18v-36q0 -19 -19 -19h-243q-19 0 -19 19v36q0 18 19 18zM453 0h-353q-18 0 -18 20v640q0 20 18 20h342q19 0 19 -19v-45q0 -19 -19 -19h-263v-202h245q20 0 20 -19v-43q0 -19 -20 -19h-245v-231h274q19 0 19 -18v-46q0 -19 -19 -19z" />
    <glyph glyph-name="emacron" unicode="&#x113;" horiz-adv-x="498" 
d="M128 659h242q19 0 19 -18v-36q0 -18 -19 -18h-242q-20 0 -20 18v36q0 18 20 18zM443 367v-122q0 -18 -17 -18h-272v-92q0 -33 21.5 -50t78.5 -17t78.5 17t21.5 50v11q0 19 19 19h51q19 0 19 -19v-17q0 -137 -191 -137t-191 137v238q0 137 193 137q189 0 189 -137z
M154 361v-63h200v63q0 67 -100 67t-100 -67z" />
    <glyph glyph-name="Ebreve" unicode="&#x114;" horiz-adv-x="517" 
d="M208 871v-17q0 -27 12.5 -41.5t45.5 -14.5t45.5 14.5t12.5 41.5v17q0 17 17 17h35q17 0 17 -17v-15q0 -118 -129 -118q-126 0 -126 118v15q0 17 17 17h36q17 0 17 -17zM453 0h-353q-18 0 -18 20v640q0 20 18 20h342q19 0 19 -19v-45q0 -19 -19 -19h-263v-202h245
q20 0 20 -19v-43q0 -19 -20 -19h-245v-231h274q19 0 19 -18v-46q0 -19 -19 -19z" />
    <glyph glyph-name="ebreve" unicode="&#x115;" horiz-adv-x="498" 
d="M190 669v-17q0 -27 12.5 -41.5t45.5 -14.5t45.5 14.5t12.5 41.5v17q0 17 17 17h35q17 0 17 -17v-15q0 -118 -129 -118q-126 0 -126 118v15q0 17 17 17h36q17 0 17 -17zM443 367v-122q0 -18 -17 -18h-272v-92q0 -33 21.5 -50t78.5 -17t78.5 17t21.5 50v11q0 19 19 19h51
q19 0 19 -19v-17q0 -137 -191 -137t-191 137v238q0 137 193 137q189 0 189 -137zM154 361v-63h200v63q0 67 -100 67t-100 -67z" />
    <glyph glyph-name="Edotaccent" unicode="&#x116;" horiz-adv-x="517" 
d="M322 839v-80q0 -19 -18 -19h-60q-18 0 -18 19v80q0 19 18 19h60q18 0 18 -19zM453 0h-353q-18 0 -18 20v640q0 20 18 20h342q19 0 19 -19v-45q0 -19 -19 -19h-263v-202h245q20 0 20 -19v-43q0 -19 -20 -19h-245v-231h274q19 0 19 -18v-46q0 -19 -19 -19z" />
    <glyph glyph-name="edotaccent" unicode="&#x117;" horiz-adv-x="498" 
d="M296 676v-79q0 -19 -18 -19h-60q-19 0 -19 19v79q0 19 19 19h60q18 0 18 -19zM443 367v-122q0 -18 -17 -18h-272v-92q0 -33 21.5 -50t78.5 -17t78.5 17t21.5 50v11q0 19 19 19h51q19 0 19 -19v-17q0 -137 -191 -137t-191 137v238q0 137 193 137q189 0 189 -137zM154 361
v-63h200v63q0 67 -100 67t-100 -67z" />
    <glyph glyph-name="Eogonek" unicode="&#x118;" horiz-adv-x="517" 
d="M453 0h-33q-27 0 -40 -16t-13 -39q0 -41 49 -41h28q19 0 19 -18v-28q0 -19 -25 -19h-46q-39 0 -69 21.5t-30 67.5q0 41 24 72h-217q-18 0 -18 20v640q0 20 18 20h342q19 0 19 -19v-45q0 -19 -19 -19h-263v-202h245q20 0 20 -19v-43q0 -19 -20 -19h-245v-231h274
q19 0 19 -18v-46q0 -19 -19 -19z" />
    <glyph glyph-name="eogonek" unicode="&#x119;" horiz-adv-x="499" 
d="M443 367v-122q0 -18 -17 -18h-272v-92q0 -33 21.5 -50t78.5 -17t78.5 17t21.5 50v11q0 19 19 19h51q19 0 19 -19v-17q0 -64 -37 -95q-4 -3 -13.5 -11t-13 -11t-11 -10t-10.5 -12.5t-7 -12.5t-5.5 -15.5t-1.5 -17.5q0 -40 48 -40h30q19 0 19 -18v-28q0 -19 -24 -19h-52
q-37 0 -64.5 20.5t-27.5 62.5q0 41 20 72q-26 -2 -41 -2q-191 0 -191 137v238q0 137 193 137q189 0 189 -137zM154 361v-63h200v63q0 67 -100 67t-100 -67z" />
    <glyph glyph-name="Ecaron" unicode="&#x11a;" horiz-adv-x="517" 
d="M229 859l41 -66l41 66q13 19 26 19h45q10 0 13 -5.5t-3 -13.5l-75 -106q-13 -18 -30 -18h-35q-16 0 -30 19l-75 105q-6 8 -3 13.5t13 5.5h45q14 0 27 -19zM453 0h-353q-18 0 -18 20v640q0 20 18 20h342q19 0 19 -19v-45q0 -19 -19 -19h-263v-202h245q20 0 20 -19v-43
q0 -19 -20 -19h-245v-231h274q19 0 19 -18v-46q0 -19 -19 -19z" />
    <glyph glyph-name="ecaron" unicode="&#x11b;" horiz-adv-x="498" 
d="M207 689l42 -66l41 66q13 19 26 19h45q10 0 13 -5.5t-3 -13.5l-75 -106q-13 -18 -30 -18h-35q-16 0 -30 19l-75 105q-6 8 -3 13.5t13 5.5h45q13 0 26 -19zM443 367v-122q0 -18 -17 -18h-272v-92q0 -33 21.5 -50t78.5 -17t78.5 17t21.5 50v11q0 19 19 19h51q19 0 19 -19
v-17q0 -137 -191 -137t-191 137v238q0 137 193 137q189 0 189 -137zM154 361v-63h200v63q0 67 -100 67t-100 -67z" />
    <glyph glyph-name="Gcircumflex" unicode="&#x11c;" horiz-adv-x="577" 
d="M286 820l-41 -67q-10 -18 -27 -18h-45q-10 0 -12.5 5.5t2.5 12.5l75 106q14 19 30 19h35q16 0 30 -19l75 -106q6 -7 3 -12.5t-13 -5.5h-45q-15 0 -26 18zM299 340h195q19 0 19 -18v-176q0 -154 -221 -154t-221 154v388q0 154 221 154t221 -154v-44q0 -19 -18 -19h-58
q-19 0 -19 19v28q0 87 -125 87q-124 0 -124 -87v-356q0 -87 124 -87q125 0 125 86v96h-119q-19 0 -19 19v46q0 18 19 18z" />
    <glyph glyph-name="gcircumflex" unicode="&#x11d;" horiz-adv-x="531" 
d="M268 650l-42 -67q-11 -18 -26 -18h-45q-10 0 -12.5 5.5t2.5 12.5l75 106q14 19 30 19h35q16 0 30 -19l75 -106q5 -7 2.5 -12.5t-12.5 -5.5h-45q-15 0 -26 18zM203 -8q-71 0 -106 36t-35 100v240q0 64 35 100t106 36q93 0 166 -60l2 32q1 20 19 20h53q19 0 19 -20v-543
q0 -137 -198 -137h-138q-20 0 -20 19v42q0 19 20 19h138q103 0 103 67v105q-76 -56 -164 -56zM157 353v-210q0 -65 74 -65q66 0 136 51v237q-67 52 -136 52q-74 0 -74 -65z" />
    <glyph glyph-name="Gbreve" unicode="&#x11e;" horiz-adv-x="577" 
d="M228 871v-17q0 -27 12.5 -41.5t45.5 -14.5t45.5 14.5t12.5 41.5v17q0 17 17 17h35q17 0 17 -17v-15q0 -118 -129 -118q-126 0 -126 118v15q0 17 17 17h36q17 0 17 -17zM299 340h195q19 0 19 -18v-176q0 -154 -221 -154t-221 154v388q0 154 221 154t221 -154v-44
q0 -19 -18 -19h-58q-19 0 -19 19v28q0 87 -125 87q-124 0 -124 -87v-356q0 -87 124 -87q125 0 125 86v96h-119q-19 0 -19 19v46q0 18 19 18z" />
    <glyph glyph-name="gbreve" unicode="&#x11f;" horiz-adv-x="531" 
d="M202 669v-17q0 -27 12.5 -41.5t45.5 -14.5t45.5 14.5t12.5 41.5v17q0 17 17 17h35q17 0 17 -17v-15q0 -118 -129 -118q-126 0 -126 118v15q0 17 17 17h36q17 0 17 -17zM203 -8q-71 0 -106 36t-35 100v240q0 64 35 100t106 36q93 0 166 -60l2 32q1 20 19 20h53
q19 0 19 -20v-543q0 -137 -198 -137h-138q-20 0 -20 19v42q0 19 20 19h138q103 0 103 67v105q-76 -56 -164 -56zM157 353v-210q0 -65 74 -65q66 0 136 51v237q-67 52 -136 52q-74 0 -74 -65z" />
    <glyph glyph-name="Gdotaccent" unicode="&#x120;" horiz-adv-x="577" 
d="M334 838v-80q0 -19 -18 -19h-60q-18 0 -18 19v80q0 19 18 19h60q18 0 18 -19zM299 339h195q19 0 19 -18v-176q0 -154 -221 -154t-221 154v388q0 154 221 154t221 -154v-44q0 -19 -18 -19h-58q-19 0 -19 19v28q0 87 -125 87q-124 0 -124 -87v-356q0 -87 124 -87
q125 0 125 86v96h-119q-19 0 -19 19v46q0 18 19 18z" />
    <glyph glyph-name="gdotaccent" unicode="&#x121;" horiz-adv-x="531" 
d="M310 676v-79q0 -19 -18 -19h-60q-19 0 -19 19v79q0 19 19 19h60q18 0 18 -19zM203 -8q-71 0 -106 36t-35 100v240q0 64 35 100t106 36q93 0 166 -60l2 32q1 20 19 20h53q19 0 19 -20v-543q0 -137 -198 -137h-138q-20 0 -20 19v42q0 19 20 19h138q103 0 103 67v105
q-76 -56 -164 -56zM157 353v-210q0 -65 74 -65q66 0 136 51v237q-67 52 -136 52q-74 0 -74 -65z" />
    <glyph glyph-name="Gcommaaccent" unicode="&#x122;" horiz-adv-x="577" 
d="M299 340h195q19 0 19 -18v-176q0 -154 -221 -154t-221 154v388q0 154 221 154t221 -154v-44q0 -19 -18 -19h-58q-19 0 -19 19v28q0 87 -125 87q-124 0 -124 -87v-356q0 -87 124 -87q125 0 125 86v96h-119q-19 0 -19 19v46q0 18 19 18zM253 -97v29q0 19 19 19h43
q19 0 19 -19v-34q0 -57 -42 -125q-8 -13 -25 -10l-33 8q-19 5 -9 26q3 7 9.5 21.5t8.5 19.5t5 16t4 22t1 27z" />
    <glyph glyph-name="gcommaaccent" unicode="&#x123;" horiz-adv-x="531" 
d="M291 618v-29q0 -19 -19 -19h-43q-19 0 -19 19v34q0 57 42 125q8 13 25 10l33 -8q19 -5 9 -26q-3 -7 -9.5 -21.5t-8.5 -19.5t-5 -16t-4 -22t-1 -27zM203 -8q-71 0 -106 36t-35 100v240q0 64 35 100t106 36q93 0 166 -60l2 32q1 20 19 20h53q19 0 19 -20v-543
q0 -137 -198 -137h-138q-20 0 -20 19v42q0 19 20 19h138q103 0 103 67v105q-76 -56 -164 -56zM157 353v-210q0 -65 74 -65q66 0 136 51v237q-67 52 -136 52q-74 0 -74 -65z" />
    <glyph glyph-name="Hcircumflex" unicode="&#x124;" horiz-adv-x="619" 
d="M309 820l-41 -67q-10 -18 -27 -18h-45q-10 0 -12.5 5.5t2.5 12.5l75 106q14 19 30 19h35q16 0 30 -19l75 -106q5 -7 2.5 -12.5t-12.5 -5.5h-45q-15 0 -26 18zM179 660v-263h260v263q0 20 18 20h62q18 0 18 -20v-640q0 -20 -18 -20h-62q-18 0 -18 20v294h-260v-294
q0 -20 -18 -20h-61q-18 0 -18 20v640q0 20 18 20h61q18 0 18 -20z" />
    <glyph glyph-name="hcircumflex" unicode="&#x125;" horiz-adv-x="536" 
d="M117 820l-41 -67q-10 -18 -27 -18h-45q-10 0 -12.5 5.5t2.5 12.5l75 106q14 19 30 19h35q16 0 30 -19l75 -106q5 -7 2.5 -12.5t-12.5 -5.5h-45q-15 0 -26 18zM164 679v-231q71 56 164 56q68 0 104.5 -35.5t36.5 -92.5v-356q0 -20 -18 -20h-58q-19 0 -19 20v333
q0 66 -74 66q-70 0 -136 -51v-348q0 -20 -18 -20h-58q-19 0 -19 20v659q0 20 19 20h58q18 0 18 -20z" />
    <glyph glyph-name="Hbar" unicode="&#x126;" horiz-adv-x="623" 
d="M181 20q0 -20 -18 -20h-61q-18 0 -18 20v467h-35q-19 0 -19 18v31q0 18 19 18h35v106q0 20 18 20h61q18 0 18 -20v-106h260v106q0 20 18 20h62q18 0 18 -20v-106h34q19 0 19 -18v-31q0 -18 -19 -18h-34v-467q0 -20 -18 -20h-62q-18 0 -18 20v294h-260v-294zM181 397h260
v90h-260v-90z" />
    <glyph glyph-name="hbar" unicode="&#x127;" horiz-adv-x="536" 
d="M164 20q0 -20 -18 -20h-58q-19 0 -19 20v531h-41q-20 0 -20 19v31q0 18 20 18h41v60q0 20 19 20h58q18 0 18 -20v-60h120q20 0 20 -18v-31q0 -19 -20 -19h-120v-103q71 56 164 56q68 0 104.5 -35.5t36.5 -92.5v-356q0 -20 -18 -20h-58q-19 0 -19 20v333q0 66 -74 66
q-70 0 -136 -51v-348z" />
    <glyph glyph-name="Itilde" unicode="&#x128;" horiz-adv-x="261" 
d="M199 816q12 0 15.5 8t3.5 30v7q0 17 21 17h31q16 0 16 -22l-1 -32q-1 -39 -24.5 -59.5t-56.5 -20.5q-32 0 -58 16l-43 26q-33 19 -40 19q-13 0 -16 -7.5t-3 -30.5v-7q0 -17 -20 -17h-32q-16 0 -16 22l1 32q1 40 24 60t56 20t59 -16l43 -26q33 -19 40 -19zM179 660v-640
q0 -20 -18 -20h-61q-18 0 -18 20v640q0 20 18 20h61q18 0 18 -20z" />
    <glyph glyph-name="itilde" unicode="&#x129;" horiz-adv-x="233" 
d="M190 567q-32 0 -58 16l-43 26q-33 19 -40 19q-13 0 -16 -7.5t-3 -30.5v-7q0 -17 -20 -17h-32q-16 0 -16 22l1 32q1 40 24 60t56 20t59 -16l43 -26q33 -19 40 -19q12 0 15.5 8t3.5 30v7q0 17 21 17h31q16 0 16 -22l-1 -32q-1 -39 -24.5 -59.5t-56.5 -20.5zM164 476v-457
q0 -19 -18 -19h-59q-18 0 -18 19v457q0 20 18 20h59q18 0 18 -20z" />
    <glyph glyph-name="Imacron" unicode="&#x12a;" horiz-adv-x="261" 
d="M10 836h243q19 0 19 -18v-36q0 -19 -19 -19h-243q-19 0 -19 19v36q0 18 19 18zM179 660v-640q0 -20 -18 -20h-61q-18 0 -18 20v640q0 20 18 20h61q18 0 18 -20z" />
    <glyph glyph-name="imacron" unicode="&#x12b;" horiz-adv-x="233" 
d="M-4 659h242q19 0 19 -18v-36q0 -18 -19 -18h-242q-20 0 -20 18v36q0 18 20 18zM164 476v-457q0 -19 -18 -19h-59q-18 0 -18 19v457q0 20 18 20h59q18 0 18 -20z" />
    <glyph glyph-name="Ibreve" unicode="&#x12c;" horiz-adv-x="261" 
d="M73 871v-17q0 -27 12.5 -41.5t45.5 -14.5t45.5 14.5t12.5 41.5v17q0 17 17 17h35q17 0 17 -17v-15q0 -118 -129 -118q-126 0 -126 118v15q0 17 17 17h36q17 0 17 -17zM179 660v-640q0 -20 -18 -20h-61q-18 0 -18 20v640q0 20 18 20h61q18 0 18 -20z" />
    <glyph glyph-name="ibreve" unicode="&#x12d;" horiz-adv-x="233" 
d="M59 669v-17q0 -27 12.5 -41.5t45.5 -14.5t45.5 14.5t12.5 41.5v17q0 17 17 17h35q17 0 17 -17v-15q0 -118 -129 -118q-126 0 -126 118v15q0 17 17 17h36q17 0 17 -17zM164 476v-457q0 -19 -18 -19h-59q-18 0 -18 19v457q0 20 18 20h59q18 0 18 -20z" />
    <glyph glyph-name="Iogonek" unicode="&#x12e;" horiz-adv-x="264" 
d="M182 660v-640q0 -20 -18 -20h-20q-24 0 -37.5 -16t-13.5 -39q0 -41 49 -41h28q19 0 19 -18v-28q0 -19 -25 -19h-46q-39 0 -69 21.5t-30 67.5q0 25 15.5 56.5t50.5 51.5v624q0 20 18 20h61q18 0 18 -20z" />
    <glyph glyph-name="iogonek" unicode="&#x12f;" horiz-adv-x="240" 
d="M171 679v-90q0 -19 -18 -19h-58q-19 0 -19 19v90q0 20 19 20h58q18 0 18 -20zM155 -161h-46q-39 0 -69 21.5t-30 67.5q0 26 15 57.5t51 50.5v440q0 20 19 20h58q18 0 18 -20v-456q0 -20 -18 -20h-18q-51 -3 -51 -55q0 -41 49 -41h28q19 0 19 -18v-28q0 -19 -25 -19z" />
    <glyph glyph-name="Idotaccent" unicode="&#x130;" horiz-adv-x="261" 
d="M179 839v-80q0 -19 -18 -19h-60q-18 0 -18 19v80q0 19 18 19h60q18 0 18 -19zM179 660v-640q0 -20 -18 -20h-61q-18 0 -18 20v640q0 20 18 20h61q18 0 18 -20z" />
    <glyph glyph-name="dotlessi" unicode="&#x131;" horiz-adv-x="233" 
d="M164 476v-457q0 -19 -18 -19h-59q-18 0 -18 19v457q0 20 18 20h59q18 0 18 -20z" />
    <glyph glyph-name="IJ" unicode="&#x132;" horiz-adv-x="768" 
d="M179 660v-640q0 -20 -18 -20h-61q-18 0 -18 20v640q0 20 18 20h61q18 0 18 -20zM381 197v-35q0 -43 24.5 -65t82.5 -22q57 0 80 22t23 65v498q0 20 18 20h61q19 0 19 -20v-514q0 -154 -201 -154q-203 0 -203 154v51q0 20 19 20h59q18 0 18 -20z" />
    <glyph glyph-name="ij" unicode="&#x133;" horiz-adv-x="470" 
d="M164 679v-90q0 -19 -18 -19h-58q-19 0 -19 19v90q0 20 19 20h58q18 0 18 -20zM401 679v-90q0 -19 -18 -19h-59q-18 0 -18 19v90q0 20 18 20h59q18 0 18 -20zM164 476v-456q0 -20 -18 -20h-58q-19 0 -19 20v456q0 20 19 20h58q18 0 18 -20zM401 476v-543q0 -137 -198 -137
h-8q-19 0 -19 19v42q0 19 19 19h8q103 0 103 67v533q0 20 18 20h58q19 0 19 -20z" />
    <glyph glyph-name="Jcircumflex" unicode="&#x134;" horiz-adv-x="507" 
d="M375 820l-41 -67q-10 -18 -27 -18h-45q-10 0 -12.5 5.5t2.5 12.5l75 106q14 19 30 19h35q16 0 30 -19l75 -106q5 -7 2.5 -12.5t-12.5 -5.5h-45q-15 0 -26 18zM120 197v-35q0 -43 24.5 -65t82.5 -22q57 0 80 22t23 65v498q0 20 18 20h61q19 0 19 -20v-514
q0 -154 -201 -154q-203 0 -203 154v51q0 20 19 20h59q18 0 18 -20z" />
    <glyph glyph-name="jcircumflex" unicode="&#x135;" horiz-adv-x="233" 
d="M118 650l-42 -67q-11 -18 -26 -18h-45q-10 0 -12.5 5.5t2.5 12.5l75 106q14 19 30 19h35q16 0 30 -19l75 -106q5 -7 2.5 -12.5t-12.5 -5.5h-45q-15 0 -26 18zM164 476v-544q0 -136 -198 -136h-7q-19 0 -19 18v41q0 19 19 19h7q103 0 103 68v534q0 20 18 20h59
q18 0 18 -20z" />
    <glyph glyph-name="Kcommaaccent" unicode="&#x136;" horiz-adv-x="559" 
d="M287 345l259 -325q6 -7 3 -13.5t-12 -6.5h-85q-14 0 -29 19l-222 283h-21v-283q0 -19 -19 -19h-61q-18 0 -18 19v642q0 19 18 19h61q19 0 19 -19v-286h20l206 286q13 19 31 19h73q10 0 12 -6t-3 -13zM242 -97v29q0 19 19 19h43q19 0 19 -19v-34q0 -57 -42 -125
q-8 -13 -25 -10l-33 8q-19 5 -9 26q3 7 9.5 21.5t8.5 19.5t5 16t4 22t1 27z" />
    <glyph glyph-name="kcommaaccent" unicode="&#x137;" horiz-adv-x="479" 
d="M269 281l196 -262q6 -7 3 -13t-12 -6h-75q-15 0 -30 19l-163 223h-24v-223q0 -19 -18 -19h-59q-18 0 -18 19v661q0 19 18 19h59q18 0 18 -19v-366h27l145 163q17 19 31 19h70q10 0 13 -6.5t-4 -13.5zM205 -97v29q0 19 19 19h43q19 0 19 -19v-34q0 -57 -42 -125
q-8 -13 -25 -10l-33 8q-19 5 -9 26q3 7 9.5 21.5t8.5 19.5t5 16t4 22t1 27z" />
    <glyph glyph-name="kgreenlandic" unicode="&#x138;" horiz-adv-x="479" 
d="M269 281l196 -262q6 -7 3 -13t-12 -6h-75q-15 0 -30 19l-163 223h-24v-223q0 -19 -18 -19h-59q-18 0 -18 19v458q0 19 18 19h59q18 0 18 -19v-163h27l145 163q17 19 31 19h70q10 0 13 -6.5t-4 -13.5z" />
    <glyph glyph-name="Lacute" unicode="&#x139;" horiz-adv-x="471" 
d="M251 859l-77 -112q-7 -12 -24 -12h-46q-20 0 -10 18l59 107q10 18 26 18h62q22 0 10 -19zM180 660v-577h256q19 0 19 -18v-46q0 -19 -19 -19h-338q-16 0 -16 20v640q0 20 19 20h61q18 0 18 -20z" />
    <glyph glyph-name="lacute" unicode="&#x13a;" horiz-adv-x="233" 
d="M238 859l-77 -112q-7 -12 -24 -12h-46q-20 0 -10 18l59 107q10 18 26 18h62q22 0 10 -19zM164 679v-659q0 -20 -18 -20h-58q-19 0 -19 20v659q0 20 19 20h58q18 0 18 -20z" />
    <glyph glyph-name="Lcommaaccent" unicode="&#x13b;" horiz-adv-x="471" 
d="M180 660v-577h256q19 0 19 -18v-46q0 -19 -19 -19h-338q-16 0 -16 20v640q0 20 19 20h61q18 0 18 -20zM216 -97v29q0 19 19 19h43q19 0 19 -19v-34q0 -57 -42 -125q-8 -13 -25 -10l-33 8q-19 5 -9 26q3 7 9.5 21.5t8.5 19.5t5 16t4 22t1 27z" />
    <glyph glyph-name="lcommaaccent" unicode="&#x13c;" horiz-adv-x="233" 
d="M164 679v-659q0 -20 -18 -20h-58q-19 0 -19 20v659q0 20 19 20h58q18 0 18 -20zM76 -98v29q0 19 19 19h43q19 0 19 -19v-34q0 -57 -42 -125q-8 -13 -25 -10l-33 8q-19 5 -9 26q3 7 9.5 21.5t8.5 19.5t5 16t4 22t1 27z" />
    <glyph glyph-name="Lcaron" unicode="&#x13d;" horiz-adv-x="473" 
d="M324 672v29q0 19 19 19h43q19 0 19 -19v-34q0 -57 -42 -125q-8 -13 -25 -10l-33 8q-19 5 -9 26q3 7 9.5 21.5t8.5 19.5t5 16t4 22t1 27zM180 660v-577h256q19 0 19 -18v-46q0 -19 -19 -19h-338q-16 0 -16 20v640q0 20 19 20h61q18 0 18 -20z" />
    <glyph glyph-name="lcaron" unicode="&#x13e;" horiz-adv-x="250" 
d="M239 681v29q0 19 19 19h43q19 0 19 -19v-34q0 -57 -42 -125q-8 -13 -25 -10l-33 8q-19 5 -9 26q3 7 9.5 21.5t8.5 19.5t5 16t4 22t1 27zM164 679v-659q0 -20 -18 -20h-58q-19 0 -19 20v659q0 20 19 20h58q18 0 18 -20z" />
    <glyph glyph-name="Ldot" unicode="&#x13f;" horiz-adv-x="471" 
d="M180 660v-577h256q19 0 19 -18v-46q0 -19 -19 -19h-338q-16 0 -16 20v640q0 20 19 20h61q18 0 18 -20zM415 394v-80q0 -19 -18 -19h-60q-19 0 -19 19v80q0 19 19 19h60q18 0 18 -19z" />
    <glyph glyph-name="ldot" unicode="&#x140;" horiz-adv-x="322" 
d="M164 679v-659q0 -20 -18 -20h-58q-19 0 -19 20v659q0 20 19 20h58q18 0 18 -20zM326 394v-80q0 -19 -18 -19h-60q-19 0 -19 19v80q0 19 19 19h60q18 0 18 -19z" />
    <glyph glyph-name="Lslash" unicode="&#x141;" horiz-adv-x="483" 
d="M448 0h-338q-16 0 -16 20v269l-41 -17q-16 -6 -24 11l-9 20q-7 17 11 24l63 26v307q0 20 19 20h61q18 0 18 -20v-268l53 22q18 7 25 -10l9 -21q6 -15 -11 -23l-76 -31v-246h256q19 0 19 -18v-46q0 -19 -19 -19z" />
    <glyph glyph-name="lslash" unicode="&#x142;" horiz-adv-x="279" 
d="M170 0h-58q-19 0 -19 20v272l-49 -20q-17 -7 -25 11l-9 20q-7 17 11 24l72 29v323q0 20 19 20h58q18 0 18 -20v-284l47 19q18 7 25 -10l9 -21q6 -16 -11 -23l-70 -29v-311q0 -20 -18 -20z" />
    <glyph glyph-name="Nacute" unicode="&#x143;" horiz-adv-x="618" 
d="M406 859l-77 -112q-7 -12 -24 -12h-46q-20 0 -10 18l59 107q10 18 26 18h62q22 0 10 -19zM536 661v-642q0 -19 -18 -19h-55q-12 0 -18 9l-235 412q-22 38 -36 73v-475q0 -19 -18 -19h-56q-18 0 -18 19v642q0 19 18 19h56q11 0 16 -8l241 -421q19 -32 31 -64v474
q0 19 19 19h55q18 0 18 -19z" />
    <glyph glyph-name="nacute" unicode="&#x144;" horiz-adv-x="536" 
d="M388 689l-76 -112q-7 -12 -24 -12h-46q-20 0 -10 18l59 107q10 18 26 18h62q23 0 9 -19zM88 496h53q18 0 19 -19l2 -32q69 59 166 59q68 0 104.5 -35.5t36.5 -92.5v-356q0 -20 -18 -20h-58q-19 0 -19 20v333q0 66 -74 66q-70 0 -136 -51v-348q0 -20 -18 -20h-58
q-19 0 -19 20v457q0 19 19 19z" />
    <glyph glyph-name="Ncommaaccent" unicode="&#x145;" horiz-adv-x="618" 
d="M536 661v-642q0 -19 -18 -19h-55q-12 0 -18 9l-235 412q-22 38 -36 73v-475q0 -19 -18 -19h-56q-18 0 -18 19v642q0 19 18 19h56q11 0 16 -8l241 -421q19 -32 31 -64v474q0 19 19 19h55q18 0 18 -19zM271 -97v29q0 19 19 19h43q19 0 19 -19v-34q0 -57 -42 -125
q-8 -13 -25 -10l-33 8q-19 5 -9 26q3 7 9.5 21.5t8.5 19.5t5 16t4 22t1 27z" />
    <glyph glyph-name="ncommaaccent" unicode="&#x146;" horiz-adv-x="536" 
d="M88 496h53q18 0 19 -19l2 -32q69 59 166 59q68 0 104.5 -35.5t36.5 -92.5v-356q0 -20 -18 -20h-58q-19 0 -19 20v333q0 66 -74 66q-70 0 -136 -51v-348q0 -20 -18 -20h-58q-19 0 -19 20v457q0 19 19 19zM228 -97v29q0 19 19 19h43q19 0 19 -19v-34q0 -57 -42 -125
q-8 -13 -25 -10l-33 8q-19 5 -9 26q3 7 9.5 21.5t8.5 19.5t5 16t4 22t1 27z" />
    <glyph glyph-name="Ncaron" unicode="&#x147;" horiz-adv-x="618" 
d="M268 859l41 -66l41 66q13 19 26 19h45q10 0 13 -5.5t-3 -13.5l-75 -106q-13 -18 -30 -18h-35q-16 0 -30 19l-75 105q-6 8 -3 13.5t13 5.5h45q14 0 27 -19zM536 661v-642q0 -19 -18 -19h-55q-12 0 -18 9l-235 412q-22 38 -36 73v-475q0 -19 -18 -19h-56q-18 0 -18 19v642
q0 19 18 19h56q11 0 16 -8l241 -421q19 -32 31 -64v474q0 19 19 19h55q18 0 18 -19z" />
    <glyph glyph-name="ncaron" unicode="&#x148;" horiz-adv-x="536" 
d="M224 689l42 -66l41 66q13 19 26 19h45q10 0 13 -5.5t-3 -13.5l-75 -106q-13 -18 -30 -18h-35q-16 0 -30 19l-75 105q-6 8 -3 13.5t13 5.5h45q13 0 26 -19zM88 496h53q18 0 19 -19l2 -32q69 59 166 59q68 0 104.5 -35.5t36.5 -92.5v-356q0 -20 -18 -20h-58q-19 0 -19 20
v333q0 66 -74 66q-70 0 -136 -51v-348q0 -20 -18 -20h-58q-19 0 -19 20v457q0 19 19 19z" />
    <glyph glyph-name="napostrophe" unicode="&#x149;" horiz-adv-x="536" 
d="M22 686v29q0 19 19 19h43q19 0 19 -19v-34q0 -57 -42 -125q-8 -13 -25 -10l-33 8q-19 5 -9 26q3 7 9.5 21.5t8.5 19.5t5 16t4 22t1 27zM88 496h53q18 0 19 -19l2 -32q69 59 166 59q68 0 104.5 -35.5t36.5 -92.5v-356q0 -20 -18 -20h-58q-19 0 -19 20v333q0 66 -74 66
q-70 0 -136 -51v-348q0 -20 -18 -20h-58q-19 0 -19 20v457q0 19 19 19z" />
    <glyph glyph-name="Eng" unicode="&#x14a;" horiz-adv-x="618" 
d="M536 661v-729q0 -136 -195 -136h-7q-20 0 -20 18v41q0 19 20 19h7q103 0 103 68v69l-234 410q-22 38 -36 73v-475q0 -19 -18 -19h-56q-18 0 -18 19v642q0 19 18 19h56q11 0 16 -8l241 -421q19 -32 31 -64v474q0 19 19 19h55q18 0 18 -19z" />
    <glyph glyph-name="eng" unicode="&#x14b;" horiz-adv-x="536" 
d="M141 496q19 0 19 -19l1 -32q74 59 167 59q67 0 104 -35t37 -92v-445q0 -136 -198 -136h-7q-20 0 -20 18v41q0 19 20 19h7q103 0 103 68v412q0 67 -74 67q-75 0 -136 -52v-350q0 -19 -18 -19h-59q-18 0 -18 19v458q0 19 18 19h54z" />
    <glyph glyph-name="Omacron" unicode="&#x14c;" horiz-adv-x="597" 
d="M177 836h243q19 0 19 -18v-36q0 -19 -19 -19h-243q-19 0 -19 19v36q0 18 19 18zM71 146v388q0 68 53.5 111t173.5 43t174 -43t54 -111v-388q0 -68 -54 -111t-174 -43t-173.5 43t-53.5 111zM428 162v356q0 87 -130 87q-129 0 -129 -87v-356q0 -87 129 -87q130 0 130 87z
" />
    <glyph glyph-name="omacron" unicode="&#x14d;" horiz-adv-x="520" 
d="M134 659h242q19 0 19 -18v-36q0 -18 -19 -18h-242q-20 0 -20 18v36q0 18 20 18zM60 129v238q0 64 49 100.5t151 36.5t151 -36.5t49 -100.5v-238q0 -64 -49 -100.5t-151 -36.5t-151 36.5t-49 100.5zM365 137v222q0 67 -105 67t-105 -67v-222q0 -67 105 -67t105 67z" />
    <glyph glyph-name="Obreve" unicode="&#x14e;" horiz-adv-x="597" 
d="M240 871v-17q0 -27 12.5 -41.5t45.5 -14.5t45.5 14.5t12.5 41.5v17q0 17 17 17h35q17 0 17 -17v-15q0 -118 -129 -118q-126 0 -126 118v15q0 17 17 17h36q17 0 17 -17zM71 146v388q0 68 53.5 111t173.5 43t174 -43t54 -111v-388q0 -68 -54 -111t-174 -43t-173.5 43
t-53.5 111zM428 162v356q0 87 -130 87q-129 0 -129 -87v-356q0 -87 129 -87q130 0 130 87z" />
    <glyph glyph-name="obreve" unicode="&#x14f;" horiz-adv-x="520" 
d="M199 669v-17q0 -27 12.5 -41.5t45.5 -14.5t45.5 14.5t12.5 41.5v17q0 17 17 17h35q17 0 17 -17v-15q0 -118 -129 -118q-126 0 -126 118v15q0 17 17 17h36q17 0 17 -17zM60 129v238q0 64 49 100.5t151 36.5t151 -36.5t49 -100.5v-238q0 -64 -49 -100.5t-151 -36.5
t-151 36.5t-49 100.5zM365 137v222q0 67 -105 67t-105 -67v-222q0 -67 105 -67t105 67z" />
    <glyph glyph-name="Ohungarumlaut" unicode="&#x150;" horiz-adv-x="597" 
d="M475 859l-74 -107q-11 -17 -27 -17h-45q-20 0 -9 18l64 106q11 19 29 19h53q21 0 9 -19zM340 859l-59 -106q-10 -18 -25 -18h-43q-21 0 -12 18l49 106q8 19 27 19h50q10 0 14 -6t-1 -13zM71 146v388q0 68 53.5 111t173.5 43t174 -43t54 -111v-388q0 -68 -54 -111
t-174 -43t-173.5 43t-53.5 111zM428 162v356q0 87 -130 87q-129 0 -129 -87v-356q0 -87 129 -87q130 0 130 87z" />
    <glyph glyph-name="ohungarumlaut" unicode="&#x151;" horiz-adv-x="520" 
d="M431 689l-74 -107q-11 -17 -28 -17h-43q-21 0 -10 18l64 106q11 19 30 19h51q10 0 13 -6t-3 -13zM297 689l-60 -106q-10 -18 -25 -18h-43q-10 0 -13.5 5.5t0.5 12.5l50 106q10 19 26 19h52q10 0 14 -6t-1 -13zM60 129v238q0 64 49 100.5t151 36.5t151 -36.5t49 -100.5
v-238q0 -64 -49 -100.5t-151 -36.5t-151 36.5t-49 100.5zM365 137v222q0 67 -105 67t-105 -67v-222q0 -67 105 -67t105 67z" />
    <glyph glyph-name="OE" unicode="&#x152;" horiz-adv-x="863" 
d="M428 19v4q-52 -31 -130 -31q-120 0 -173.5 42.5t-53.5 110.5v390q0 68 53.5 110.5t173.5 42.5q78 0 130 -31v4q0 19 19 19h341q19 0 19 -18v-44q0 -19 -19 -19h-262v-205h245q19 0 19 -18v-42q0 -18 -19 -18h-245v-235h274q19 0 19 -18v-44q0 -19 -19 -19h-354
q-18 0 -18 19zM428 161v358q0 88 -130 88q-129 0 -129 -88v-358q0 -88 129 -88q130 0 130 88z" />
    <glyph glyph-name="oe" unicode="&#x153;" horiz-adv-x="802" 
d="M558 -8q-102 0 -152 40q-43 -40 -146 -40q-102 0 -151 36t-49 100v239q0 64 49 100.5t151 36.5q103 0 146 -40q50 40 152 40q190 0 190 -137v-117q0 -18 -18 -18h-272v-100q0 -33 23 -50.5t77 -17.5q101 0 101 68v13q0 19 18 19h49q19 0 19 -19v-17q0 -136 -187 -136z
M458 363v-66h201v66q0 69 -101 69q-100 0 -100 -69zM365 136v224q0 68 -105 68t-105 -68v-224q0 -68 105 -68t105 68z" />
    <glyph glyph-name="Racute" unicode="&#x154;" horiz-adv-x="590" 
d="M386 859l-77 -112q-7 -12 -24 -12h-46q-20 0 -10 18l59 107q10 18 26 18h62q22 0 10 -19zM179 20q0 -20 -18 -20h-61q-18 0 -18 20v640q0 20 18 20h203q120 0 173.5 -43t53.5 -111v-104q0 -107 -117 -140l120 -262q4 -9 -1.5 -14.5t-16.5 -5.5h-66q-14 0 -23 20l-111 249
h-136v-249zM303 597h-124v-245h124q130 0 130 87v71q0 87 -130 87z" />
    <glyph glyph-name="racute" unicode="&#x155;" horiz-adv-x="355" 
d="M294 689l-76 -112q-7 -12 -24 -12h-46q-20 0 -10 18l59 107q10 18 26 18h62q23 0 9 -19zM319 504q20 0 20 -19v-46q0 -18 -20 -20q-87 -5 -155 -64v-335q0 -20 -18 -20h-58q-19 0 -19 20v457q0 19 19 19h53q18 0 19 -19l3 -43q70 70 156 70z" />
    <glyph glyph-name="Rcommaaccent" unicode="&#x156;" horiz-adv-x="590" 
d="M179 20q0 -20 -18 -20h-61q-18 0 -18 20v640q0 20 18 20h203q120 0 173.5 -43t53.5 -111v-104q0 -107 -117 -140l120 -262q4 -9 -1.5 -14.5t-16.5 -5.5h-66q-14 0 -23 20l-111 249h-136v-249zM303 597h-124v-245h124q130 0 130 87v71q0 87 -130 87zM256 -97v29
q0 19 19 19h43q19 0 19 -19v-34q0 -57 -42 -125q-8 -13 -25 -10l-33 8q-19 5 -9 26q3 7 9.5 21.5t8.5 19.5t5 16t4 22t1 27z" />
    <glyph glyph-name="rcommaaccent" unicode="&#x157;" horiz-adv-x="355" 
d="M319 504q20 0 20 -19v-46q0 -18 -20 -20q-87 -5 -155 -64v-335q0 -20 -18 -20h-58q-19 0 -19 20v457q0 19 19 19h53q18 0 19 -19l3 -43q70 70 156 70zM77 -97v29q0 19 19 19h43q19 0 19 -19v-34q0 -57 -42 -125q-8 -13 -25 -10l-33 8q-19 5 -9 26q3 7 9.5 21.5t8.5 19.5
t5 16t4 22t1 27z" />
    <glyph glyph-name="Rcaron" unicode="&#x158;" horiz-adv-x="590" 
d="M246 859l41 -66l41 66q13 19 26 19h45q10 0 13 -5.5t-3 -13.5l-75 -106q-13 -18 -30 -18h-35q-16 0 -30 19l-75 105q-6 8 -3 13.5t13 5.5h45q14 0 27 -19zM179 20q0 -20 -18 -20h-61q-18 0 -18 20v640q0 20 18 20h203q120 0 173.5 -43t53.5 -111v-104q0 -107 -117 -140
l120 -262q4 -9 -1.5 -14.5t-16.5 -5.5h-66q-14 0 -23 20l-111 249h-136v-249zM303 597h-124v-245h124q130 0 130 87v71q0 87 -130 87z" />
    <glyph glyph-name="rcaron" unicode="&#x159;" horiz-adv-x="355" 
d="M134 689l42 -66l41 66q13 19 26 19h45q10 0 13 -5.5t-3 -13.5l-75 -106q-13 -18 -30 -18h-35q-16 0 -30 19l-75 105q-6 8 -3 13.5t13 5.5h45q13 0 26 -19zM319 504q20 0 20 -19v-46q0 -18 -20 -20q-87 -5 -155 -64v-335q0 -20 -18 -20h-58q-19 0 -19 20v457q0 19 19 19
h53q18 0 19 -19l3 -43q70 70 156 70z" />
    <glyph glyph-name="Sacute" unicode="&#x15a;" horiz-adv-x="557" 
d="M395 859l-77 -112q-7 -12 -24 -12h-46q-20 0 -10 18l59 107q10 18 26 18h62q22 0 10 -19zM400 490v31q0 85 -121 85t-121 -85v-20q0 -48 51 -67l182 -69q110 -42 110 -136v-83q0 -68 -53.5 -111t-170.5 -43t-171 43t-54 111v58q0 20 19 20h59q18 0 18 -20v-45
q0 -85 128 -85q129 0 129 85v47q0 23 -14.5 40.5t-28.5 24.5t-41 17l-169 65q-36 14 -62.5 47t-26.5 77v57q0 68 50.5 111t164.5 43t165.5 -43t51.5 -111v-44q0 -19 -18 -19h-59q-18 0 -18 19z" />
    <glyph glyph-name="sacute" unicode="&#x15b;" horiz-adv-x="472" 
d="M355 689l-76 -112q-7 -12 -24 -12h-46q-20 0 -10 18l59 107q10 18 26 18h62q23 0 9 -19zM330 357v24q0 53 -95 53q-93 0 -93 -53v-17q0 -32 42 -46l150 -52q90 -31 90 -98v-56q0 -51 -47.5 -85.5t-142.5 -34.5q-96 0 -142.5 34.5t-46.5 85.5v25q0 18 17 18h53
q17 0 17 -18v-21q0 -53 102 -53t102 53v27q0 30 -53 48l-150 52q-31 11 -54.5 38.5t-23.5 62.5v37q0 52 43.5 87.5t137.5 35.5q93 0 137 -35.5t44 -87.5v-24q0 -18 -18 -18h-52q-17 0 -17 18z" />
    <glyph glyph-name="Scircumflex" unicode="&#x15c;" horiz-adv-x="557" 
d="M274 820l-41 -67q-10 -18 -27 -18h-45q-10 0 -12.5 5.5t2.5 12.5l75 106q14 19 30 19h35q16 0 30 -19l75 -106q6 -7 3 -12.5t-13 -5.5h-45q-15 0 -26 18zM400 490v31q0 85 -121 85t-121 -85v-20q0 -48 51 -67l182 -69q110 -42 110 -136v-83q0 -68 -53.5 -111t-170.5 -43
t-171 43t-54 111v58q0 20 19 20h59q18 0 18 -20v-45q0 -85 128 -85q129 0 129 85v47q0 23 -14.5 40.5t-28.5 24.5t-41 17l-169 65q-36 14 -62.5 47t-26.5 77v57q0 68 50.5 111t164.5 43t165.5 -43t51.5 -111v-44q0 -19 -18 -19h-59q-18 0 -18 19z" />
    <glyph glyph-name="scircumflex" unicode="&#x15d;" horiz-adv-x="472" 
d="M231 650l-42 -67q-11 -18 -26 -18h-45q-10 0 -12.5 5.5t2.5 12.5l75 106q14 19 30 19h35q16 0 30 -19l75 -106q5 -7 2.5 -12.5t-12.5 -5.5h-45q-15 0 -26 18zM330 357v24q0 53 -95 53q-93 0 -93 -53v-17q0 -32 42 -46l150 -52q90 -31 90 -98v-56q0 -51 -47.5 -85.5
t-142.5 -34.5q-96 0 -142.5 34.5t-46.5 85.5v25q0 18 17 18h53q17 0 17 -18v-21q0 -53 102 -53t102 53v27q0 30 -53 48l-150 52q-31 11 -54.5 38.5t-23.5 62.5v37q0 52 43.5 87.5t137.5 35.5q93 0 137 -35.5t44 -87.5v-24q0 -18 -18 -18h-52q-17 0 -17 18z" />
    <glyph glyph-name="Scedilla" unicode="&#x15e;" horiz-adv-x="557" 
d="M317 -211h-113q-19 0 -19 19v20q0 18 19 18h99q32 0 32 23q0 22 -32 22h-66q-17 0 -23 6t-3 18l21 79q-94 8 -137 49.5t-43 102.5v58q0 20 19 20h59q18 0 18 -20v-45q0 -85 128 -85q129 0 129 85v47q0 23 -14.5 40.5t-28.5 24.5t-41 17l-169 65q-36 14 -62.5 47t-26.5 77
v57q0 68 50.5 111t164.5 43t165.5 -43t51.5 -111v-44q0 -19 -18 -19h-59q-18 0 -18 19v31q0 85 -121 85t-121 -85v-20q0 -48 51 -67l182 -69q110 -42 110 -136v-83q0 -65 -49.5 -107.5t-156.5 -46.5l-12 -44h34q37 0 61 -20t24 -59q0 -40 -24 -60t-61 -20z" />
    <glyph glyph-name="scedilla" unicode="&#x15f;" horiz-adv-x="472" 
d="M262 -211h-113q-19 0 -19 19v20q0 18 19 18h99q32 0 32 23q0 22 -32 22h-66q-18 0 -23.5 6t-2.5 18l21 81q-67 10 -99.5 42t-32.5 74v25q0 18 17 18h53q17 0 17 -18v-21q0 -53 102 -53t102 53v27q0 30 -53 48l-150 52q-31 11 -54.5 38.5t-23.5 62.5v37q0 52 43.5 87.5
t137.5 35.5q93 0 137 -35.5t44 -87.5v-24q0 -18 -18 -18h-52q-17 0 -17 18v24q0 53 -95 53q-93 0 -93 -53v-17q0 -32 42 -46l150 -52q90 -31 90 -98v-56q0 -51 -46.5 -85.5t-137.5 -34.5l-12 -44h34q37 0 61 -20t24 -59q0 -40 -24 -60t-61 -20z" />
    <glyph glyph-name="Scaron" unicode="&#x160;" horiz-adv-x="557" 
d="M235 859l41 -66l41 66q13 19 26 19h45q10 0 13 -5.5t-3 -13.5l-75 -106q-13 -18 -30 -18h-35q-16 0 -30 19l-75 105q-6 8 -3 13.5t13 5.5h45q14 0 27 -19zM400 490v31q0 85 -121 85t-121 -85v-20q0 -48 51 -67l182 -69q110 -42 110 -136v-83q0 -68 -53.5 -111t-170.5 -43
t-171 43t-54 111v58q0 20 19 20h59q18 0 18 -20v-45q0 -85 128 -85q129 0 129 85v47q0 23 -14.5 40.5t-28.5 24.5t-41 17l-169 65q-36 14 -62.5 47t-26.5 77v57q0 68 50.5 111t164.5 43t165.5 -43t51.5 -111v-44q0 -19 -18 -19h-59q-18 0 -18 19z" />
    <glyph glyph-name="scaron" unicode="&#x161;" horiz-adv-x="472" 
d="M194 689l42 -66l41 66q13 19 26 19h45q10 0 13 -5.5t-3 -13.5l-75 -106q-13 -18 -30 -18h-35q-16 0 -30 19l-75 105q-6 8 -3 13.5t13 5.5h45q13 0 26 -19zM330 357v24q0 53 -95 53q-93 0 -93 -53v-17q0 -32 42 -46l150 -52q90 -31 90 -98v-56q0 -51 -47.5 -85.5
t-142.5 -34.5q-96 0 -142.5 34.5t-46.5 85.5v25q0 18 17 18h53q17 0 17 -18v-21q0 -53 102 -53t102 53v27q0 30 -53 48l-150 52q-31 11 -54.5 38.5t-23.5 62.5v37q0 52 43.5 87.5t137.5 35.5q93 0 137 -35.5t44 -87.5v-24q0 -18 -18 -18h-52q-17 0 -17 18z" />
    <glyph glyph-name="uni0162" unicode="&#x162;" horiz-adv-x="492" 
d="M360 -131q0 -40 -24 -60t-61 -20h-113q-19 0 -19 19v20q0 18 19 18h99q32 0 32 23q0 22 -32 22h-66q-17 0 -23 6t-3 18l28 105v577h-160q-19 0 -19 19v45q0 19 19 19h418q19 0 19 -19v-45q0 -19 -19 -19h-160v-577q0 -20 -18 -20h-21l-15 -52h34q37 0 61 -20t24 -59z" />
    <glyph glyph-name="uni0163" unicode="&#x163;" horiz-adv-x="350" 
d="M298 -131q0 -40 -24 -60t-61 -20h-113q-19 0 -19 19v20q0 18 19 18h99q32 0 32 23q0 22 -32 22h-66q-17 0 -23 6t-3 18l30 119q-41 31 -41 103v279h-55q-19 0 -19 20v35q0 18 19 19l49 4h6v101q0 20 19 20h59q18 0 18 -20v-101h103q19 0 19 -18v-40q0 -20 -19 -20h-103
v-269q0 -36 22 -51t78 -15h20q19 0 19 -20v-42q0 -19 -19 -19h-33q-47 0 -85 8l-15 -60h34q37 0 61 -20t24 -59z" />
    <glyph glyph-name="Tcaron" unicode="&#x164;" horiz-adv-x="492" 
d="M205 859l41 -66l41 66q13 19 26 19h45q10 0 13 -5.5t-3 -13.5l-75 -106q-13 -18 -30 -18h-35q-16 0 -30 19l-75 105q-6 8 -3 13.5t13 5.5h45q14 0 27 -19zM37 680h418q19 0 19 -19v-45q0 -19 -19 -19h-160v-577q0 -20 -18 -20h-62q-18 0 -18 20v577h-160q-19 0 -19 19v45
q0 19 19 19z" />
    <glyph glyph-name="tcaron" unicode="&#x165;" horiz-adv-x="350" 
d="M267 676v29q0 19 19 19h43q19 0 19 -19v-34q0 -57 -42 -125q-8 -13 -25 -10l-33 8q-19 5 -9 26q3 7 9.5 21.5t8.5 19.5t5 16t4 22t1 27zM192 494h103q19 0 19 -18v-40q0 -20 -19 -20h-103v-269q0 -36 22 -51t78 -15h20q19 0 19 -20v-42q0 -19 -19 -19h-33
q-101 0 -142 33.5t-41 103.5v279h-55q-19 0 -19 20v35q0 18 19 19l49 4h6v101q0 20 19 20h59q18 0 18 -20v-101z" />
    <glyph glyph-name="Tbar" unicode="&#x166;" horiz-adv-x="518" 
d="M308 20q0 -20 -18 -20h-62q-18 0 -18 20v350h-126q-19 0 -19 19v30q0 18 19 18h126v160h-160q-19 0 -19 19v45q0 19 19 19h418q19 0 19 -19v-45q0 -19 -19 -19h-160v-160h129q19 0 19 -18v-30q0 -19 -19 -19h-129v-350z" />
    <glyph glyph-name="tbar" unicode="&#x167;" horiz-adv-x="354" 
d="M334 19q0 -19 -19 -19h-33q-101 0 -142 33.5t-41 103.5v125h-55q-19 0 -19 19v30q0 18 19 18h55v87h-55q-19 0 -19 20v35q0 18 19 19l49 4h6v101q0 20 19 20h59q18 0 18 -20v-101h103q19 0 19 -18v-40q0 -20 -19 -20h-103v-87h103q20 0 20 -18v-30q0 -19 -20 -19h-103
v-115q0 -66 101 -66h19q19 0 19 -20v-42z" />
    <glyph glyph-name="Utilde" unicode="&#x168;" horiz-adv-x="613" 
d="M375 816q12 0 15.5 8t3.5 30v7q0 17 21 17h31q16 0 16 -22l-1 -32q-1 -39 -24.5 -59.5t-56.5 -20.5q-32 0 -58 16l-43 26q-33 19 -40 19q-13 0 -16 -7.5t-3 -30.5v-7q0 -17 -20 -17h-32q-16 0 -16 22l1 32q1 40 24 60t56 20t59 -16l43 -26q33 -19 40 -19zM177 660v-498
q0 -87 129 -87q131 0 131 87v498q0 20 18 20h61q18 0 18 -20v-514q0 -68 -54 -111t-174 -43t-173.5 43t-53.5 111v514q0 20 19 20h61q18 0 18 -20z" />
    <glyph glyph-name="utilde" unicode="&#x169;" horiz-adv-x="530" 
d="M340 567q-32 0 -58 16l-43 26q-33 19 -40 19q-13 0 -16 -7.5t-3 -30.5v-7q0 -17 -20 -17h-32q-16 0 -16 22l1 32q1 40 24 60t56 20t59 -16l43 -26q33 -19 40 -19q12 0 15.5 8t3.5 30v7q0 17 21 17h31q16 0 16 -22l-1 -32q-1 -39 -24.5 -59.5t-56.5 -20.5zM370 19l-2 30
q-67 -57 -160 -57q-67 0 -104 35t-37 92v357q0 20 18 20h58q19 0 19 -20v-333q0 -66 74 -66q68 0 130 50v349q0 20 18 20h59q18 0 18 -20v-457q0 -19 -18 -19h-54q-18 0 -19 19z" />
    <glyph glyph-name="Umacron" unicode="&#x16a;" horiz-adv-x="613" 
d="M186 836h243q19 0 19 -18v-36q0 -19 -19 -19h-243q-19 0 -19 19v36q0 18 19 18zM177 660v-498q0 -87 129 -87q131 0 131 87v498q0 20 18 20h61q18 0 18 -20v-514q0 -68 -54 -111t-174 -43t-173.5 43t-53.5 111v514q0 20 19 20h61q18 0 18 -20z" />
    <glyph glyph-name="umacron" unicode="&#x16b;" horiz-adv-x="530" 
d="M146 659h242q19 0 19 -18v-36q0 -18 -19 -18h-242q-20 0 -20 18v36q0 18 20 18zM370 19l-2 30q-67 -57 -160 -57q-67 0 -104 35t-37 92v357q0 20 18 20h58q19 0 19 -20v-333q0 -66 74 -66q68 0 130 50v349q0 20 18 20h59q18 0 18 -20v-457q0 -19 -18 -19h-54
q-18 0 -19 19z" />
    <glyph glyph-name="Ubreve" unicode="&#x16c;" horiz-adv-x="613" 
d="M249 871v-17q0 -27 12.5 -41.5t45.5 -14.5t45.5 14.5t12.5 41.5v17q0 17 17 17h35q17 0 17 -17v-15q0 -118 -129 -118q-126 0 -126 118v15q0 17 17 17h36q17 0 17 -17zM177 660v-498q0 -87 129 -87q131 0 131 87v498q0 20 18 20h61q18 0 18 -20v-514q0 -68 -54 -111
t-174 -43t-173.5 43t-53.5 111v514q0 20 19 20h61q18 0 18 -20z" />
    <glyph glyph-name="ubreve" unicode="&#x16d;" horiz-adv-x="530" 
d="M208 669v-17q0 -27 12.5 -41.5t45.5 -14.5t45.5 14.5t12.5 41.5v17q0 17 17 17h35q17 0 17 -17v-15q0 -118 -129 -118q-126 0 -126 118v15q0 17 17 17h36q17 0 17 -17zM370 19l-2 30q-67 -57 -160 -57q-67 0 -104 35t-37 92v357q0 20 18 20h58q19 0 19 -20v-333
q0 -66 74 -66q68 0 130 50v349q0 20 18 20h59q18 0 18 -20v-457q0 -19 -18 -19h-54q-18 0 -19 19z" />
    <glyph glyph-name="Uring" unicode="&#x16e;" horiz-adv-x="613" 
d="M407 815v-23q0 -33 -25.5 -54.5t-74.5 -21.5t-74.5 21.5t-25.5 54.5v23q0 33 25.5 54.5t74.5 21.5t74.5 -21.5t25.5 -54.5zM350 800v7q0 34 -43 34t-43 -34v-7q0 -34 43 -34t43 34zM177 660v-498q0 -87 129 -87q131 0 131 87v498q0 20 18 20h61q18 0 18 -20v-514
q0 -68 -54 -111t-174 -43t-173.5 43t-53.5 111v514q0 20 19 20h61q18 0 18 -20z" />
    <glyph glyph-name="uring" unicode="&#x16f;" horiz-adv-x="530" 
d="M364 653v-33q0 -32 -24.5 -51t-71.5 -19t-71.5 19t-24.5 51v33q0 32 24.5 51.5t71.5 19.5t71.5 -19.5t24.5 -51.5zM312 630v13q0 33 -44 33t-44 -33v-13q0 -33 44 -33t44 33zM370 19l-2 30q-67 -57 -160 -57q-67 0 -104 35t-37 92v357q0 20 18 20h58q19 0 19 -20v-333
q0 -66 74 -66q68 0 130 50v349q0 20 18 20h59q18 0 18 -20v-457q0 -19 -18 -19h-54q-18 0 -19 19z" />
    <glyph glyph-name="Uhungarumlaut" unicode="&#x170;" horiz-adv-x="613" 
d="M484 859l-74 -107q-11 -17 -27 -17h-45q-20 0 -9 18l64 106q11 19 29 19h53q21 0 9 -19zM349 859l-59 -106q-10 -18 -25 -18h-43q-21 0 -12 18l49 106q8 19 27 19h50q10 0 14 -6t-1 -13zM177 660v-498q0 -87 129 -87q131 0 131 87v498q0 20 18 20h61q18 0 18 -20v-514
q0 -68 -54 -111t-174 -43t-173.5 43t-53.5 111v514q0 20 19 20h61q18 0 18 -20z" />
    <glyph glyph-name="uhungarumlaut" unicode="&#x171;" horiz-adv-x="530" 
d="M441 689l-74 -107q-11 -17 -28 -17h-43q-21 0 -10 18l64 106q11 19 30 19h51q10 0 13 -6t-3 -13zM307 689l-60 -106q-10 -18 -25 -18h-43q-10 0 -13.5 5.5t0.5 12.5l50 106q10 19 26 19h52q10 0 14 -6t-1 -13zM370 19l-2 30q-67 -57 -160 -57q-67 0 -104 35t-37 92v357
q0 20 18 20h58q19 0 19 -20v-333q0 -66 74 -66q68 0 130 50v349q0 20 18 20h59q18 0 18 -20v-457q0 -19 -18 -19h-54q-18 0 -19 19z" />
    <glyph glyph-name="Uogonek" unicode="&#x172;" horiz-adv-x="613" 
d="M177 660v-498q0 -87 129 -87q131 0 131 87v498q0 20 18 20h61q18 0 18 -20v-514q0 -60 -36 -96q-6 -6 -24.5 -22t-26 -24.5t-16 -25.5t-8.5 -36q0 -38 48 -38h29q20 0 20 -18v-28q0 -19 -25 -19h-52q-37 0 -64.5 21.5t-27.5 63.5q0 40 22 72q-27 -4 -67 -4
q-120 0 -173.5 43t-53.5 111v514q0 20 19 20h61q18 0 18 -20z" />
    <glyph glyph-name="uogonek" unicode="&#x173;" horiz-adv-x="530" 
d="M441 -161h-37q-37 0 -65.5 23t-28.5 66q0 60 59 99l-1 22q-67 -57 -160 -57q-67 0 -104 35t-37 92v357q0 20 18 20h58q19 0 19 -20v-333q0 -66 74 -66q68 0 130 50v349q0 20 18 20h59q18 0 18 -20v-457q0 -19 -18 -19h-6q-25 0 -39 -19t-14 -39q0 -38 48 -38h14
q19 0 19 -18v-28q0 -19 -24 -19z" />
    <glyph glyph-name="Wcircumflex" unicode="&#x174;" horiz-adv-x="832" 
d="M418 820l-41 -67q-10 -18 -27 -18h-45q-10 0 -12.5 5.5t2.5 12.5l75 106q14 19 30 19h35q16 0 30 -19l75 -106q6 -7 3 -12.5t-13 -5.5h-45q-15 0 -26 18zM472 661l104 -416q12 -46 16 -88q6 48 17 88l106 416q5 19 22 19h54q18 0 14 -19l-162 -642q-4 -19 -24 -19h-60
q-17 0 -22 19l-107 424q-10 39 -13 80q-5 -44 -14 -81l-108 -423q-4 -19 -23 -19h-60q-17 0 -22 19l-163 642q-4 19 15 19h62q18 0 23 -19l104 -416q11 -49 16 -78q3 23 17 78l106 416q5 19 22 19h57q18 0 23 -19z" />
    <glyph glyph-name="wcircumflex" unicode="&#x175;" horiz-adv-x="695" 
d="M350 650l-42 -67q-11 -18 -26 -18h-45q-10 0 -12.5 5.5t2.5 12.5l75 106q14 19 30 19h35q16 0 30 -19l75 -106q5 -7 2.5 -12.5t-12.5 -5.5h-45q-15 0 -26 18zM674 476l-129 -458q-3 -10 -7 -14t-13 -4h-69q-16 0 -20 18l-75 295q-6 25 -10 51q-6 -32 -12 -51l-85 -295
q-4 -18 -19 -18h-68q-16 0 -20 18l-124 458q-6 20 18 20h56q17 0 22 -20l83 -311q6 -19 8 -45q5 23 11 45l86 311q5 20 22 20h58q16 0 21 -20l78 -311q6 -27 9 -44q2 14 10 44l83 311q5 20 21 20h48q23 0 17 -20z" />
    <glyph glyph-name="Ycircumflex" unicode="&#x176;" horiz-adv-x="532" 
d="M266 820l-41 -67q-10 -18 -27 -18h-45q-10 0 -12.5 5.5t2.5 12.5l75 106q14 19 30 19h35q16 0 30 -19l75 -106q6 -7 3 -12.5t-13 -5.5h-45q-15 0 -26 18zM126 661l125 -264q8 -18 16 -45q7 28 16 45l133 264q10 19 22 19h61q23 0 13 -19l-196 -391v-251q0 -19 -18 -19
h-61q-19 0 -19 19v240l-198 402q-10 19 14 19h69q13 0 23 -19z" />
    <glyph glyph-name="ycircumflex" unicode="&#x177;" horiz-adv-x="460" 
d="M230 650l-42 -67q-11 -18 -26 -18h-45q-10 0 -12.5 5.5t2.5 12.5l75 106q14 19 30 19h35q16 0 30 -19l75 -106q5 -7 2.5 -12.5t-12.5 -5.5h-45q-15 0 -26 18zM118 476l97 -289q11 -36 15 -70q11 45 18 68l99 291q6 20 22 20h54q23 0 17 -20l-226 -661q-6 -19 -21 -19h-43
q-24 0 -18 19l56 177l-168 484q-6 20 17 20h59q15 0 22 -20z" />
    <glyph glyph-name="Ydieresis" unicode="&#x178;" horiz-adv-x="532" 
d="M241 853v-95q0 -19 -18 -19h-35q-18 0 -18 19v95q0 20 18 20h35q18 0 18 -20zM362 853v-95q0 -19 -18 -19h-35q-18 0 -18 19v95q0 20 18 20h35q18 0 18 -20zM126 661l125 -264q8 -18 16 -45q7 28 16 45l133 264q10 19 22 19h61q23 0 13 -19l-196 -391v-251q0 -19 -18 -19
h-61q-19 0 -19 19v240l-198 402q-10 19 14 19h69q13 0 23 -19z" />
    <glyph glyph-name="Zacute" unicode="&#x179;" horiz-adv-x="492" 
d="M369 859l-77 -112q-7 -12 -24 -12h-46q-20 0 -10 18l59 107q10 18 26 18h62q22 0 10 -19zM70 680h352q20 0 20 -19v-45q0 -7 -4 -15l-287 -518h288q19 0 19 -18v-46q0 -19 -19 -19h-386q-19 0 -19 19v46q0 7 3 13l286 519h-253q-19 0 -19 19v45q0 19 19 19z" />
    <glyph glyph-name="zacute" unicode="&#x17a;" horiz-adv-x="439" 
d="M332 689l-76 -112q-7 -12 -24 -12h-46q-20 0 -10 18l59 107q10 18 26 18h62q23 0 9 -19zM68 496h302q19 0 19 -19v-40q0 -10 -4 -15l-234 -344h235q19 0 19 -18v-41q0 -19 -19 -19h-332q-19 0 -19 19v41q0 8 4 14l232 343h-203q-19 0 -19 19v41q0 19 19 19z" />
    <glyph glyph-name="Zdotaccent" unicode="&#x17b;" horiz-adv-x="492" 
d="M294 839v-80q0 -19 -18 -19h-60q-18 0 -18 19v80q0 19 18 19h60q18 0 18 -19zM70 680h352q20 0 20 -19v-45q0 -7 -4 -15l-287 -518h288q19 0 19 -18v-46q0 -19 -19 -19h-386q-19 0 -19 19v46q0 7 3 13l286 519h-253q-19 0 -19 19v45q0 19 19 19z" />
    <glyph glyph-name="zdotaccent" unicode="&#x17c;" horiz-adv-x="439" 
d="M268 676v-79q0 -19 -18 -19h-60q-19 0 -19 19v79q0 19 19 19h60q18 0 18 -19zM68 496h302q19 0 19 -19v-40q0 -10 -4 -15l-234 -344h235q19 0 19 -18v-41q0 -19 -19 -19h-332q-19 0 -19 19v41q0 8 4 14l232 343h-203q-19 0 -19 19v41q0 19 19 19z" />
    <glyph glyph-name="Zcaron" unicode="&#x17d;" horiz-adv-x="492" 
d="M202 868l42 -66l41 66q13 19 26 19h45q10 0 13 -5.5t-3 -13.5l-75 -106q-13 -18 -30 -18h-35q-16 0 -30 19l-75 105q-6 8 -3 13.5t13 5.5h45q13 0 26 -19zM70 680h352q20 0 20 -19v-45q0 -7 -4 -15l-287 -518h288q19 0 19 -18v-46q0 -19 -19 -19h-386q-19 0 -19 19v46
q0 7 3 13l286 519h-253q-19 0 -19 19v45q0 19 19 19z" />
    <glyph glyph-name="zcaron" unicode="&#x17e;" horiz-adv-x="439" 
d="M181 689l42 -66l41 66q13 19 26 19h45q10 0 13 -5.5t-3 -13.5l-75 -106q-13 -18 -30 -18h-35q-16 0 -30 19l-75 105q-6 8 -3 13.5t13 5.5h45q13 0 26 -19zM68 496h302q19 0 19 -19v-40q0 -10 -4 -15l-234 -344h235q19 0 19 -18v-41q0 -19 -19 -19h-332q-19 0 -19 19v41
q0 8 4 14l232 343h-203q-19 0 -19 19v41q0 19 19 19z" />
    <glyph glyph-name="longs" unicode="&#x17f;" horiz-adv-x="285" 
d="M94 494h7v73q0 136 198 136h7q19 0 19 -19v-40q0 -19 -19 -19h-7q-103 0 -103 -68v-538q0 -19 -18 -19h-59q-18 0 -18 19v399h-59q-19 0 -19 19v34q0 18 19 19z" />
    <glyph glyph-name="florin" unicode="&#x192;" horiz-adv-x="425" 
d="M395 627h-15q-103 0 -111 -66l-17 -137h87q19 0 19 -19v-40q0 -19 -19 -19h-94l-48 -422q-15 -137 -213 -137h-7q-19 0 -19 19v41q0 20 19 20h15q102 0 110 67l47 412h-77q-19 0 -19 19v40q0 19 19 19h85l17 147q15 137 213 137h8q19 0 19 -19v-42q0 -20 -19 -20z" />
    <glyph glyph-name="Aringacute" unicode="&#x1fa;" horiz-adv-x="542" 
d="M269 716q-49 0 -74.5 21.5t-25.5 54.5v23q0 29 19.5 49.5t57.5 25.5l31 56q10 18 26 18h62q22 0 10 -19l-48 -66q42 -19 42 -64v-23q0 -33 -25.5 -54.5t-74.5 -21.5zM312 800v7q0 34 -43 34t-43 -34v-7q0 -34 43 -34t43 34zM240 680h62q18 0 24 -19l194 -642
q6 -19 -15 -19h-63q-16 0 -22 19l-47 155h-211l-46 -155q-6 -19 -22 -19h-58q-20 0 -14 19l194 642q6 19 24 19zM352 252l-56 182q-18 60 -27 148q-15 -105 -28 -146l-57 -184h168z" />
    <glyph glyph-name="aringacute" unicode="&#x1fb;" horiz-adv-x="504" 
d="M247 550q-47 0 -71.5 19t-24.5 51v33q0 27 18 45.5t52 23.5l44 80q10 18 26 18h62q23 0 9 -19l-59 -87q40 -18 40 -61v-33q0 -32 -24.5 -51t-71.5 -19zM291 630v13q0 33 -44 33t-44 -33v-13q0 -33 44 -33t44 33zM59 354v15q0 135 189 135t189 -135v-349q0 -20 -18 -20
h-52q-18 0 -19 20l-2 29q-72 -57 -158 -57q-67 0 -104 34.5t-37 86.5v48q0 52 36 86.5t103 34.5h158v77q0 33 -21.5 50.5t-75.5 17.5q-55 0 -77 -16t-22 -49v-8q0 -20 -19 -20h-52q-18 0 -18 20zM212 71q67 0 132 51v86h-138q-36 0 -51 -15t-15 -46v-20q0 -56 72 -56z" />
    <glyph glyph-name="AEacute" unicode="&#x1fc;" horiz-adv-x="822" 
d="M585 859l-77 -112q-7 -12 -24 -12h-46q-20 0 -10 18l59 107q10 18 26 18h62q22 0 10 -19zM414 680h334q19 0 19 -18v-43q0 -19 -19 -19h-262v-207h245q19 0 19 -18v-40q0 -19 -19 -19h-245v-236h274q19 0 19 -18v-43q0 -19 -19 -19h-346q-21 0 -21 19v155h-200l-89 -155
q-11 -19 -23 -19h-57q-10 0 -14.5 5t0.5 14l377 642q11 19 27 19zM359 459l-120 -207h154v270q-9 -18 -34 -63z" />
    <glyph glyph-name="aeacute" unicode="&#x1fd;" horiz-adv-x="780" 
d="M510 689l-76 -112q-7 -12 -24 -12h-46q-20 0 -10 18l59 107q10 18 26 18h62q23 0 9 -19zM726 367v-117q0 -18 -18 -18h-272v-102q0 -33 22.5 -49.5t77.5 -16.5q101 0 101 68v13q0 19 18 19h49q19 0 19 -19v-17q0 -136 -187 -136q-135 0 -175 64q-82 -64 -173 -64
q-70 0 -105.5 34t-35.5 87v48q0 53 36.5 87t102.5 34h157v83q0 33 -21.5 51t-75.5 18t-76.5 -17t-22.5 -50v-13q0 -19 -18 -19h-52q-19 0 -19 19v16q0 134 190 134q100 0 140 -47q49 47 148 47q190 0 190 -137zM436 363v-66h201v66q0 69 -101 69q-100 0 -100 -69zM211 67
q60 0 132 56v94h-141q-62 0 -62 -60v-32q0 -28 18.5 -43t52.5 -15z" />
    <glyph glyph-name="Oslashacute" unicode="&#x1fe;" horiz-adv-x="597" 
d="M412 859l-77 -112q-7 -12 -24 -12h-46q-20 0 -10 18l59 107q10 18 26 18h62q22 0 10 -19zM164 -8q-9 -17 -16 -23.5t-22 -6.5h-34q-11 0 -13.5 9t3.5 21l28 55q-39 38 -39 98v388q0 68 53.5 111t173.5 43q77 0 125 -18l9 18q15 30 36 30h36q25 0 10 -30l-28 -55
q40 -37 40 -99v-388q0 -68 -54 -111t-174 -43q-73 0 -125 18zM169 517v-352l214 424q-31 15 -85 15q-129 0 -129 -87zM298 74q130 0 130 87v355l-215 -426q31 -16 85 -16z" />
    <glyph glyph-name="oslashacute" unicode="&#x1ff;" horiz-adv-x="520" 
d="M380 689l-76 -112q-7 -12 -24 -12h-46q-20 0 -10 18l59 107q10 18 26 18h62q23 0 9 -19zM123 -39h-32q-12 0 -12.5 10.5t5.5 19.5l21 40q-45 35 -45 98v238q0 64 49 100.5t151 36.5q55 0 91 -10l7 13q16 30 36 30h35q25 0 8 -30l-22 -42q45 -35 45 -98v-238
q0 -64 -49 -100.5t-151 -36.5q-55 0 -91 10l-6 -11q-9 -17 -17 -23.5t-23 -6.5zM155 137q0 -7 1 -11l156 295q-23 5 -52 5q-105 0 -105 -67v-222zM260 70q105 0 105 67v222q0 7 -1 11l-156 -295q23 -5 52 -5z" />
    <glyph glyph-name="uni0218" unicode="&#x218;" horiz-adv-x="557" 
d="M400 490v31q0 85 -121 85t-121 -85v-20q0 -48 51 -67l182 -69q110 -42 110 -136v-83q0 -68 -53.5 -111t-170.5 -43t-171 43t-54 111v58q0 20 19 20h59q18 0 18 -20v-45q0 -85 128 -85q129 0 129 85v47q0 23 -14.5 40.5t-28.5 24.5t-41 17l-169 65q-36 14 -62.5 47
t-26.5 77v57q0 68 50.5 111t164.5 43t165.5 -43t51.5 -111v-44q0 -19 -18 -19h-59q-18 0 -18 19zM240 -97v29q0 19 19 19h43q19 0 19 -19v-34q0 -57 -42 -125q-8 -13 -25 -10l-33 8q-19 5 -9 26q3 7 9.5 21.5t8.5 19.5t5 16t4 22t1 27z" />
    <glyph glyph-name="uni0219" unicode="&#x219;" horiz-adv-x="472" 
d="M330 357v24q0 53 -95 53q-93 0 -93 -53v-17q0 -32 42 -46l150 -52q90 -31 90 -98v-56q0 -51 -47.5 -85.5t-142.5 -34.5q-96 0 -142.5 34.5t-46.5 85.5v25q0 18 17 18h53q17 0 17 -18v-21q0 -53 102 -53t102 53v27q0 30 -53 48l-150 52q-31 11 -54.5 38.5t-23.5 62.5v37
q0 52 43.5 87.5t137.5 35.5q93 0 137 -35.5t44 -87.5v-24q0 -18 -18 -18h-52q-17 0 -17 18zM207 -98v29q0 19 19 19h43q19 0 19 -19v-34q0 -57 -42 -125q-8 -13 -25 -10l-33 8q-19 5 -9 26q3 7 9.5 21.5t8.5 19.5t5 16t4 22t1 27z" />
    <glyph glyph-name="uni021A" unicode="&#x21a;" horiz-adv-x="492" 
d="M37 680h418q19 0 19 -19v-45q0 -19 -19 -19h-160v-577q0 -20 -18 -20h-62q-18 0 -18 20v577h-160q-19 0 -19 19v45q0 19 19 19zM206 -97v29q0 19 19 19h43q19 0 19 -19v-34q0 -57 -42 -125q-8 -13 -25 -10l-33 8q-19 5 -9 26q3 7 9.5 21.5t8.5 19.5t5 16t4 22t1 27z" />
    <glyph glyph-name="uni021B" unicode="&#x21b;" horiz-adv-x="350" 
d="M192 494h103q19 0 19 -18v-40q0 -20 -19 -20h-103v-269q0 -36 22 -51t78 -15h20q19 0 19 -20v-42q0 -19 -19 -19h-33q-101 0 -142 33.5t-41 103.5v279h-55q-19 0 -19 20v35q0 18 19 19l49 4h6v101q0 20 19 20h59q18 0 18 -20v-101zM111 -98v29q0 19 19 19h43q19 0 19 -19
v-34q0 -57 -42 -125q-8 -13 -25 -10l-33 8q-19 5 -9 26q3 7 9.5 21.5t8.5 19.5t5 16t4 22t1 27z" />
    <glyph glyph-name="dotlessj" unicode="&#x237;" horiz-adv-x="233" 
d="M164 476v-544q0 -136 -198 -136h-7q-19 0 -19 18v41q0 19 19 19h7q103 0 103 68v534q0 20 18 20h59q18 0 18 -20z" />
    <glyph glyph-name="circumflex" unicode="&#x2c6;" horiz-adv-x="350" 
d="M175 650l-42 -67q-11 -18 -26 -18h-45q-10 0 -12.5 5.5t2.5 12.5l75 106q14 19 30 19h35q16 0 30 -19l75 -106q5 -7 2.5 -12.5t-12.5 -5.5h-45q-15 0 -26 18z" />
    <glyph glyph-name="caron" unicode="&#x2c7;" horiz-adv-x="350" 
d="M133 689l42 -66l41 66q13 19 26 19h45q10 0 13 -5.5t-3 -13.5l-75 -106q-13 -18 -30 -18h-35q-16 0 -30 19l-75 105q-6 8 -3 13.5t13 5.5h45q13 0 26 -19z" />
    <glyph glyph-name="breve" unicode="&#x2d8;" horiz-adv-x="370" 
d="M127 669v-17q0 -27 12.5 -41.5t45.5 -14.5t45.5 14.5t12.5 41.5v17q0 17 17 17h35q17 0 17 -17v-15q0 -118 -129 -118q-126 0 -126 118v15q0 17 17 17h36q17 0 17 -17z" />
    <glyph glyph-name="dotaccent" unicode="&#x2d9;" horiz-adv-x="244" 
d="M170 676v-79q0 -19 -18 -19h-60q-19 0 -19 19v79q0 19 19 19h60q18 0 18 -19z" />
    <glyph glyph-name="ring" unicode="&#x2da;" horiz-adv-x="366" 
d="M279 653v-33q0 -32 -24.5 -51t-71.5 -19t-71.5 19t-24.5 51v33q0 32 24.5 51.5t71.5 19.5t71.5 -19.5t24.5 -51.5zM227 630v13q0 33 -44 33t-44 -33v-13q0 -33 44 -33t44 33z" />
    <glyph glyph-name="ogonek" unicode="&#x2db;" horiz-adv-x="229" 
d="M173 -161h-47q-45 0 -75 23t-30 64q0 58 57 101q19 15 39 9l25 -7q8 -3 10.5 -9t-6.5 -12q-52 -32 -52 -65q0 -39 59 -39h20q19 0 19 -18v-28q0 -19 -19 -19z" />
    <glyph glyph-name="tilde" unicode="&#x2dc;" horiz-adv-x="416" 
d="M280 567q-32 0 -58 16l-43 26q-33 19 -40 19q-13 0 -16 -7.5t-3 -30.5v-7q0 -17 -20 -17h-32q-16 0 -16 22l1 32q1 40 24 60t56 20t59 -16l43 -26q33 -19 40 -19q12 0 15.5 8t3.5 30v7q0 17 21 17h31q16 0 16 -22l-1 -32q-1 -39 -24.5 -59.5t-56.5 -20.5z" />
    <glyph glyph-name="hungarumlaut" unicode="&#x2dd;" horiz-adv-x="382" 
d="M328 689l-74 -107q-11 -17 -28 -17h-43q-21 0 -10 18l64 106q11 19 30 19h51q10 0 13 -6t-3 -13zM194 689l-60 -106q-10 -18 -25 -18h-43q-10 0 -13.5 5.5t0.5 12.5l50 106q9 19 26 19h52q10 0 14 -6t-1 -13z" />
    <glyph glyph-name="pi" unicode="&#x3c0;" horiz-adv-x="355" 
d="M48 440h257q8 0 11.5 -5t3 -12.5t-5.5 -15.5l-120 -194q-6 -10 -16.5 -10t-16.5 10l-120 194q-5 7 -6 14.5t2 13t11 5.5z" />
    <glyph glyph-name="Wgrave" unicode="&#x1e80;" horiz-adv-x="832" 
d="M367 747l-76 111q-6 8 -3.5 14t12.5 6h62q16 0 26 -19l59 -106q10 -19 -9 -19h-47q-15 0 -24 13zM472 661l104 -416q12 -46 16 -88q6 48 17 88l106 416q5 19 22 19h54q18 0 14 -19l-162 -642q-4 -19 -24 -19h-60q-17 0 -22 19l-107 424q-10 39 -13 80q-5 -44 -14 -81
l-108 -423q-4 -19 -23 -19h-60q-17 0 -22 19l-163 642q-4 19 15 19h62q18 0 23 -19l104 -416q11 -49 16 -78q3 23 17 78l106 416q5 19 22 19h57q18 0 23 -19z" />
    <glyph glyph-name="wgrave" unicode="&#x1e81;" horiz-adv-x="695" 
d="M308 577l-76 112q-14 19 9 19h62q16 0 26 -18l59 -107q10 -18 -9 -18h-47q-14 0 -24 12zM674 476l-129 -458q-3 -10 -7 -14t-13 -4h-69q-16 0 -20 18l-75 295q-6 25 -10 51q-6 -32 -12 -51l-85 -295q-4 -18 -19 -18h-68q-16 0 -20 18l-124 458q-6 20 18 20h56
q17 0 22 -20l83 -311q6 -19 8 -45q5 23 11 45l86 311q5 20 22 20h58q16 0 21 -20l78 -311q6 -27 9 -44q2 14 10 44l83 311q5 20 21 20h48q23 0 17 -20z" />
    <glyph glyph-name="Wacute" unicode="&#x1e82;" horiz-adv-x="832" 
d="M543 859l-77 -112q-7 -12 -24 -12h-46q-20 0 -10 18l59 107q10 18 26 18h62q22 0 10 -19zM472 661l104 -416q12 -46 16 -88q6 48 17 88l106 416q5 19 22 19h54q18 0 14 -19l-162 -642q-4 -19 -24 -19h-60q-17 0 -22 19l-107 424q-10 39 -13 80q-5 -44 -14 -81l-108 -423
q-4 -19 -23 -19h-60q-17 0 -22 19l-163 642q-4 19 15 19h62q18 0 23 -19l104 -416q11 -49 16 -78q3 23 17 78l106 416q5 19 22 19h57q18 0 23 -19z" />
    <glyph glyph-name="wacute" unicode="&#x1e83;" horiz-adv-x="695" 
d="M479 689l-76 -112q-7 -12 -24 -12h-46q-20 0 -10 18l59 107q10 18 26 18h62q23 0 9 -19zM674 476l-129 -458q-3 -10 -7 -14t-13 -4h-69q-16 0 -20 18l-75 295q-6 25 -10 51q-6 -32 -12 -51l-85 -295q-4 -18 -19 -18h-68q-16 0 -20 18l-124 458q-6 20 18 20h56
q17 0 22 -20l83 -311q6 -19 8 -45q5 23 11 45l86 311q5 20 22 20h58q16 0 21 -20l78 -311q6 -27 9 -44q2 14 10 44l83 311q5 20 21 20h48q23 0 17 -20z" />
    <glyph glyph-name="Wdieresis" unicode="&#x1e84;" horiz-adv-x="832" 
d="M391 853v-95q0 -19 -18 -19h-35q-18 0 -18 19v95q0 20 18 20h35q18 0 18 -20zM512 853v-95q0 -19 -18 -19h-35q-18 0 -18 19v95q0 20 18 20h35q18 0 18 -20zM472 661l104 -416q12 -46 16 -88q6 48 17 88l106 416q5 19 22 19h54q18 0 14 -19l-162 -642q-4 -19 -24 -19h-60
q-17 0 -22 19l-107 424q-10 39 -13 80q-5 -44 -14 -81l-108 -423q-4 -19 -23 -19h-60q-17 0 -22 19l-163 642q-4 19 15 19h62q18 0 23 -19l104 -416q11 -49 16 -78q3 23 17 78l106 416q5 19 22 19h57q18 0 23 -19z" />
    <glyph glyph-name="wdieresis" unicode="&#x1e85;" horiz-adv-x="695" 
d="M331 685v-95q0 -19 -18 -19h-35q-19 0 -19 19v95q0 19 19 19h35q18 0 18 -19zM452 685v-95q0 -19 -18 -19h-35q-19 0 -19 19v95q0 19 19 19h35q18 0 18 -19zM674 476l-129 -458q-3 -10 -7 -14t-13 -4h-69q-16 0 -20 18l-75 295q-6 25 -10 51q-6 -32 -12 -51l-85 -295
q-4 -18 -19 -18h-68q-16 0 -20 18l-124 458q-6 20 18 20h56q17 0 22 -20l83 -311q6 -19 8 -45q5 23 11 45l86 311q5 20 22 20h58q16 0 21 -20l78 -311q6 -27 9 -44q2 14 10 44l83 311q5 20 21 20h48q23 0 17 -20z" />
    <glyph glyph-name="Ygrave" unicode="&#x1ef2;" horiz-adv-x="532" 
d="M224 747l-76 111q-6 8 -3.5 14t12.5 6h62q16 0 26 -19l59 -106q10 -19 -9 -19h-47q-15 0 -24 13zM126 661l125 -264q8 -18 16 -45q7 28 16 45l133 264q10 19 22 19h61q23 0 13 -19l-196 -391v-251q0 -19 -18 -19h-61q-19 0 -19 19v240l-198 402q-10 19 14 19h69
q13 0 23 -19z" />
    <glyph glyph-name="ygrave" unicode="&#x1ef3;" horiz-adv-x="460" 
d="M187 577l-76 112q-14 19 9 19h62q16 0 26 -18l59 -107q10 -18 -9 -18h-47q-14 0 -24 12zM118 476l97 -289q11 -36 15 -70q11 45 18 68l99 291q6 20 22 20h54q23 0 17 -20l-226 -661q-6 -19 -21 -19h-43q-24 0 -18 19l56 177l-168 484q-6 20 17 20h59q15 0 22 -20z" />
    <glyph glyph-name="endash" unicode="&#x2013;" horiz-adv-x="533" 
d="M86 328h361q19 0 19 -18v-42q0 -18 -19 -18h-361q-19 0 -19 18v42q0 18 19 18z" />
    <glyph glyph-name="emdash" unicode="&#x2014;" horiz-adv-x="842" 
d="M86 328h670q19 0 19 -18v-42q0 -18 -19 -18h-670q-19 0 -19 18v42q0 18 19 18z" />
    <glyph glyph-name="quoteleft" unicode="&#x2018;" horiz-adv-x="245" 
d="M150 601v-64q0 -19 -18 -19h-61q-18 0 -18 19v69q0 100 119 133q18 4 24 -12l14 -41q6 -16 -12 -24q-48 -18 -48 -61z" />
    <glyph glyph-name="quoteright" unicode="&#x2019;" horiz-adv-x="242" 
d="M100 656v64q0 19 18 19h61q18 0 18 -19v-69q0 -100 -119 -133q-18 -4 -24 12l-14 41q-6 16 12 24q48 18 48 61z" />
    <glyph glyph-name="quotesinglbase" unicode="&#x201a;" horiz-adv-x="191" 
d="M49 35v64q0 19 18 19h61q18 0 18 -19v-69q0 -100 -119 -133q-18 -4 -24 12l-14 41q-6 16 12 24q48 18 48 61z" />
    <glyph glyph-name="quotedblleft" unicode="&#x201c;" horiz-adv-x="428" 
d="M150 601v-64q0 -19 -18 -19h-61q-18 0 -18 19v69q0 100 119 133q18 4 24 -12l14 -41q6 -16 -12 -24q-48 -18 -48 -61zM333 601v-64q0 -19 -18 -19h-61q-18 0 -18 19v69q0 100 119 133q18 4 24 -12l14 -41q6 -16 -12 -24q-48 -18 -48 -61z" />
    <glyph glyph-name="quotedblright" unicode="&#x201d;" horiz-adv-x="425" 
d="M100 656v64q0 19 18 19h61q18 0 18 -19v-69q0 -100 -119 -133q-18 -4 -24 12l-14 41q-6 16 12 24q48 18 48 61zM283 656v64q0 19 18 19h61q18 0 18 -19v-69q0 -100 -119 -133q-18 -4 -24 12l-14 41q-6 16 12 24q48 18 48 61z" />
    <glyph glyph-name="quotedblbase" unicode="&#x201e;" horiz-adv-x="374" 
d="M49 35v64q0 19 18 19h61q18 0 18 -19v-69q0 -100 -119 -133q-18 -4 -24 12l-14 41q-6 16 12 24q48 18 48 61zM232 35v64q0 19 18 19h61q18 0 18 -19v-69q0 -100 -119 -133q-18 -4 -24 12l-14 41q-6 16 12 24q48 18 48 61z" />
    <glyph glyph-name="dagger" unicode="&#x2020;" horiz-adv-x="514" 
d="M305 679v-659q0 -20 -18 -20h-59q-18 0 -18 20v659q0 20 18 20h59q18 0 18 -20zM47 507h120q19 0 19 -18v-43q0 -19 -19 -19h-120q-19 0 -19 19v43q0 18 19 18zM348 507h119q19 0 19 -18v-43q0 -19 -19 -19h-119q-20 0 -20 19v43q0 18 20 18z" />
    <glyph glyph-name="daggerdbl" unicode="&#x2021;" horiz-adv-x="514" 
d="M305 679v-659q0 -20 -18 -20h-59q-18 0 -18 20v659q0 20 18 20h59q18 0 18 -20zM47 507h120q19 0 19 -18v-43q0 -19 -19 -19h-120q-19 0 -19 19v43q0 18 19 18zM348 507h119q19 0 19 -18v-43q0 -19 -19 -19h-119q-20 0 -20 19v43q0 18 20 18zM47 271h120q19 0 19 -19v-42
q0 -20 -19 -20h-120q-19 0 -19 20v42q0 19 19 19zM348 271h119q19 0 19 -19v-42q0 -20 -19 -20h-119q-20 0 -20 20v42q0 19 20 19z" />
    <glyph glyph-name="bullet" unicode="&#x2022;" horiz-adv-x="275" 
d="M186 335v-137q0 -19 -18 -19h-60q-19 0 -19 19v137q0 19 19 19h60q18 0 18 -19z" />
    <glyph glyph-name="ellipsis" unicode="&#x2026;" horiz-adv-x="716" 
d="M159 99v-80q0 -19 -18 -19h-60q-19 0 -19 19v80q0 19 19 19h60q18 0 18 -19zM654 99v-80q0 -19 -18 -19h-60q-19 0 -19 19v80q0 19 19 19h60q18 0 18 -19zM407 99v-80q0 -19 -18 -19h-60q-19 0 -19 19v80q0 19 19 19h60q18 0 18 -19z" />
    <glyph glyph-name="perthousand" unicode="&#x2030;" horiz-adv-x="1096" 
d="M582 668l-319 -656q-10 -20 -27 -20h-45q-8 0 -10.5 7t1.5 13l320 656q9 20 27 20h44q18 0 9 -20zM45 418v173q0 40 31.5 66.5t101.5 26.5t101.5 -26.5t31.5 -66.5v-173q0 -40 -31.5 -66.5t-101.5 -26.5t-101.5 26.5t-31.5 66.5zM233 430v149q0 42 -55 42q-56 0 -56 -42
v-149q0 -42 56 -42q55 0 55 42zM461 89v173q0 40 32 66.5t102 26.5t101.5 -26.5t31.5 -66.5v-173q0 -40 -31.5 -66.5t-101.5 -26.5t-102 26.5t-32 66.5zM787 89v173q0 40 31.5 66.5t101.5 26.5q69 0 100.5 -26.5t31.5 -66.5v-173q0 -40 -31.5 -66.5t-100.5 -26.5
q-70 0 -101.5 26.5t-31.5 66.5zM650 101v149q0 42 -55 42q-56 0 -56 -42v-149q0 -42 56 -42q55 0 55 42zM975 101v149q0 42 -55 42q-56 0 -56 -42v-149q0 -42 56 -42q55 0 55 42z" />
    <glyph glyph-name="guilsinglleft" unicode="&#x2039;" horiz-adv-x="328" 
d="M247 337l-126 -92l126 -91q19 -13 19 -29v-60q0 -10 -6 -13t-13 2l-184 136q-17 12 -17 30v50q0 19 17 30l184 137q7 6 13 2.5t6 -13.5v-60q0 -14 -19 -29z" />
    <glyph glyph-name="guilsinglright" unicode="&#x203a;" horiz-adv-x="328" 
d="M207 245l-126 92q-19 15 -19 29v60q0 10 6 13.5t13 -2.5l184 -137q17 -11 17 -30v-50q0 -18 -17 -30l-184 -136q-7 -5 -13 -2t-6 13v60q0 16 19 29z" />
    <glyph glyph-name="fraction" unicode="&#x2044;" horiz-adv-x="112" 
d="M256 668l-319 -656q-10 -20 -27 -20h-45q-8 0 -10.5 7t1.5 13l320 656q9 20 27 20h44q18 0 9 -20z" />
    <glyph glyph-name="zero.superior" unicode="&#x2070;" 
d="M31 545v196q0 41 31.5 67t101.5 26q69 0 100.5 -26.5t31.5 -66.5v-196q0 -40 -31.5 -66.5t-100.5 -26.5q-70 0 -101.5 26t-31.5 67zM218 557v172q0 42 -54 42q-57 0 -57 -42v-172q0 -42 57 -42q54 0 54 42z" />
    <glyph glyph-name="four.superior" unicode="&#x2074;" 
d="M161 817l-61 -198h110v198q0 13 13 13h50q13 0 13 -13v-348q0 -13 -13 -13h-50q-13 0 -13 13v89h-176q-14 0 -14 14v25q0 13 2 18l64 202q4 13 16 13h49q13 0 10 -13z" />
    <glyph glyph-name="five.superior" unicode="&#x2075;" 
d="M60 830h209q13 0 13 -12v-35q0 -13 -14 -13h-145v-74h49q121 0 121 -87v-68q0 -38 -32 -64t-98 -26q-67 0 -99 26t-32 64v15q0 12 13 12h50q12 0 12 -12v-6q0 -42 56 -42q54 0 54 42v49q0 39 -55 39h-102q-14 0 -14 14v165q0 13 14 13z" />
    <glyph glyph-name="six.superior" unicode="&#x2076;" 
d="M36 543v202q0 38 30.5 63.5t97.5 25.5q68 0 97.5 -25.5t29.5 -63.5v-9q0 -14 -13 -14h-50q-12 0 -12 14v4q0 35 -51 35q-52 0 -52 -40v-68q22 17 62 17q120 0 120 -84v-57q0 -91 -130 -91q-129 0 -129 91zM219 551v34q0 41 -54 41q-52 0 -52 -38v-37q0 -40 52 -40
q54 0 54 40z" />
    <glyph glyph-name="seven.superior" unicode="&#x2077;" 
d="M43 830h243q14 0 14 -12v-31q0 -7 -4 -15l-132 -303q-6 -13 -18 -13h-58q-15 0 -9 13l133 298h-169q-14 0 -14 14v37q0 12 14 12z" />
    <glyph glyph-name="eight.superior" unicode="&#x2078;" 
d="M39 709v36q0 89 125 89t125 -89v-36q0 -42 -45 -59q51 -16 51 -59v-50q0 -89 -131 -89t-131 89v50q0 43 50 59q-44 16 -44 59zM214 718v19q0 21 -11.5 31t-38.5 10q-28 0 -39.5 -9.5t-11.5 -31.5v-19q0 -21 11.5 -30.5t39.5 -9.5q27 0 38.5 9.5t11.5 30.5zM220 550v31
q0 41 -56 41t-56 -41v-31q0 -42 56 -42t56 42z" />
    <glyph glyph-name="nine.superior" unicode="&#x2079;" 
d="M291 743v-202q0 -38 -30 -63.5t-98 -25.5t-97.5 25.5t-29.5 63.5v9q0 14 13 14h49q13 0 13 -14v-4q0 -35 52 -35q51 0 51 40v68q-22 -17 -62 -17q-120 0 -120 84v57q0 91 130 91q129 0 129 -91zM108 735v-34q0 -41 54 -41q52 0 52 38v37q0 40 -52 40q-54 0 -54 -40z" />
    <glyph glyph-name="parenleft.superior" unicode="&#x207d;" horiz-adv-x="215" 
d="M44 471v348q0 82 123 82h6q15 0 15 -13v-33q0 -15 -15 -15h-6q-45 0 -45 -29v-332q0 -29 45 -29h6q15 0 15 -15v-32q0 -14 -15 -14h-6q-123 0 -123 82z" />
    <glyph glyph-name="parenright.superior" unicode="&#x207e;" horiz-adv-x="214" 
d="M93 811q0 29 -46 29h-6q-14 0 -14 15v33q0 13 14 13h6q123 0 123 -82v-348q0 -82 -123 -82h-6q-14 0 -14 14v32q0 15 14 15h6q46 0 46 29v332z" />
    <glyph glyph-name="zero.inferior" unicode="&#x2080;" 
d="M31 -61v196q0 41 31.5 67t101.5 26q69 0 100.5 -26.5t31.5 -66.5v-196q0 -40 -31.5 -66.5t-100.5 -26.5q-70 0 -101.5 26t-31.5 67zM218 -49v172q0 42 -54 42q-57 0 -57 -42v-172q0 -42 57 -42q54 0 54 42z" />
    <glyph glyph-name="one.inferior" unicode="&#x2081;" 
d="M58 203l139 23q13 2 13 -12v-301h74q14 0 14 -13v-37q0 -13 -14 -13h-226q-13 0 -13 13v37q0 13 13 13h75v238l-75 -11q-13 -2 -13 11v37q0 13 13 15z" />
    <glyph glyph-name="two.inferior" unicode="&#x2082;" 
d="M115 -87h168q12 0 12 -13v-37q0 -13 -12 -13h-233q-13 0 -13 13v89q0 51 54 71l94 35q10 4 15 6.5t10.5 10t5.5 18.5v35q0 39 -55 39t-55 -39v-21q0 -13 -13 -13h-50q-12 0 -12 13v29q0 39 33 65.5t101 26.5q69 0 98.5 -26t29.5 -66v-47q0 -56 -57 -79l-98 -37
q-16 -6 -19.5 -10.5t-3.5 -16.5v-33z" />
    <glyph glyph-name="three.inferior" unicode="&#x2083;" 
d="M217 -57v31q0 42 -56 42h-43q-13 0 -13 12v30q0 12 13 12h39q54 0 54 44v17q0 21 -12 30t-39 9q-54 0 -54 -39v-6q0 -13 -13 -13h-49q-13 0 -13 13v14q0 89 129 89q127 0 127 -86v-40q0 -42 -44 -58q50 -16 50 -62v-50q0 -38 -32 -62t-100 -24q-67 0 -99.5 25t-32.5 64
v15q0 14 12 14h50q13 0 13 -14v-7q0 -39 57 -39q56 0 56 39z" />
    <glyph glyph-name="four.inferior" unicode="&#x2084;" 
d="M161 211l-61 -198h110v198q0 13 13 13h50q13 0 13 -13v-348q0 -13 -13 -13h-50q-13 0 -13 13v89h-176q-14 0 -14 14v25q0 13 2 18l64 202q4 13 16 13h49q13 0 10 -13z" />
    <glyph glyph-name="five.inferior" unicode="&#x2085;" 
d="M60 224h209q13 0 13 -12v-35q0 -13 -14 -13h-145v-74h49q121 0 121 -87v-68q0 -38 -32 -64t-98 -26q-67 0 -99 26t-32 64v15q0 12 13 12h50q12 0 12 -12v-6q0 -42 56 -42q54 0 54 42v49q0 39 -55 39h-102q-14 0 -14 14v165q0 13 14 13z" />
    <glyph glyph-name="six.inferior" unicode="&#x2086;" 
d="M36 -63v202q0 38 30.5 63.5t97.5 25.5q68 0 97.5 -25.5t29.5 -63.5v-9q0 -14 -13 -14h-50q-12 0 -12 14v4q0 35 -51 35q-52 0 -52 -40v-68q22 17 62 17q120 0 120 -84v-57q0 -91 -130 -91q-129 0 -129 91zM219 -55v34q0 41 -54 41q-52 0 -52 -38v-37q0 -40 52 -40
q54 0 54 40z" />
    <glyph glyph-name="seven.inferior" unicode="&#x2087;" 
d="M43 224h243q14 0 14 -12v-31q0 -7 -4 -15l-132 -303q-6 -13 -18 -13h-58q-15 0 -9 13l133 298h-169q-14 0 -14 14v37q0 12 14 12z" />
    <glyph glyph-name="eight.inferior" unicode="&#x2088;" 
d="M39 103v36q0 89 125 89t125 -89v-36q0 -42 -45 -59q51 -16 51 -59v-50q0 -89 -131 -89t-131 89v50q0 43 50 59q-44 16 -44 59zM214 112v19q0 21 -11.5 31t-38.5 10q-28 0 -39.5 -9.5t-11.5 -31.5v-19q0 -21 11.5 -30.5t39.5 -9.5q27 0 38.5 9.5t11.5 30.5zM220 -56v31
q0 41 -56 41t-56 -41v-31q0 -42 56 -42t56 42z" />
    <glyph glyph-name="nine.inferior" unicode="&#x2089;" 
d="M291 137v-202q0 -38 -30 -63.5t-98 -25.5t-97.5 25.5t-29.5 63.5v9q0 14 13 14h49q13 0 13 -14v-4q0 -35 52 -35q51 0 51 40v68q-22 -17 -62 -17q-120 0 -120 84v57q0 91 130 91q129 0 129 -91zM108 129v-34q0 -41 54 -41q52 0 52 38v37q0 40 -52 40q-54 0 -54 -40z" />
    <glyph glyph-name="parenleft.inferior" unicode="&#x208d;" horiz-adv-x="215" 
d="M44 -135v348q0 82 123 82h6q15 0 15 -13v-33q0 -15 -15 -15h-6q-45 0 -45 -29v-332q0 -29 45 -29h6q15 0 15 -15v-32q0 -14 -15 -14h-6q-123 0 -123 82z" />
    <glyph glyph-name="parenright.inferior" unicode="&#x208e;" horiz-adv-x="214" 
d="M93 205q0 29 -46 29h-6q-14 0 -14 15v33q0 13 14 13h6q123 0 123 -82v-348q0 -82 -123 -82h-6q-14 0 -14 14v32q0 15 14 15h6q46 0 46 29v332z" />
    <glyph glyph-name="Euro" unicode="&#x20ac;" horiz-adv-x="611" 
d="M552 146q0 -154 -221 -154t-221 154v98h-40q-19 0 -19 19v25q0 18 19 18h40v67h-40q-19 0 -19 19v25q0 18 19 18h40v99q0 154 221 154t221 -154v-49q0 -20 -18 -20h-58q-19 0 -19 20v33q0 87 -125 87q-124 0 -124 -87v-83h132q19 0 19 -18v-25q0 -19 -19 -19h-132v-67
h132q19 0 19 -18v-25q0 -19 -19 -19h-132v-82q0 -87 124 -87q125 0 125 87v47q0 19 19 19h58q18 0 18 -19v-63z" />
    <glyph glyph-name="afii61289" unicode="&#x2113;" horiz-adv-x="514" 
d="M139 144v64q-66 -31 -71 -33q-17 -8 -24 9l-19 44q-7 17 10 25q67 29 104 46v232q0 68 43 110.5t136 42.5q89 0 130.5 -42.5t41.5 -110.5q0 -150 -256 -279v-95q0 -79 99 -79h103q20 0 20 -18v-41q0 -19 -19 -19h-105q-193 0 -193 144zM234 519v-172q166 95 166 178
q0 81 -83 81t-83 -87z" />
    <glyph glyph-name="trademark" unicode="&#x2122;" horiz-adv-x="850" 
d="M776 664v-376q0 -16 -16 -16h-47q-16 0 -16 16v242q-1 -10 -9 -28l-69 -153q-7 -15 -21 -15h-35q-14 0 -21 15l-72 155q-6 12 -9 29v-245q0 -16 -15 -16h-45q-16 0 -16 16v376q0 16 16 16h45q10 0 13 -7l108 -220q5 -9 13 -31q3 8 12 29l106 222q3 7 15 7h47q16 0 16 -16
zM50 680h272q16 0 16 -15v-37q0 -15 -16 -15h-95v-325q0 -16 -15 -16h-51q-16 0 -16 16v325h-95q-16 0 -16 15v37q0 15 16 15z" />
    <glyph glyph-name="Omega" unicode="&#x2126;" horiz-adv-x="388" 
d="M66 317q0 53 37.5 90.5t89.5 37.5q53 0 90.5 -37.5t37.5 -90.5q0 -52 -37.5 -89.5t-90.5 -37.5t-90 37t-37 90zM84 317q0 -46 31.5 -77.5t77.5 -31.5q45 0 77 31.5t32 77.5q0 45 -32 77t-77 32q-46 0 -77.5 -32t-31.5 -77z" />
    <glyph glyph-name="estimated" unicode="&#x212e;" horiz-adv-x="779" 
d="M745 340q0 -16 -17 -16h-559v-199q91 -104 230 -104q140 0 242 111q5 5 10 5q13 0 13 -14q0 -7 -7 -16q-46 -53 -114 -84t-144 -31q-146 0 -247 99.5t-101 248.5q0 144 102 246t246 102q143 0 244.5 -102t101.5 -246zM399 659q-138 0 -230 -105v-204h460v202
q-94 107 -230 107z" />
    <glyph glyph-name="uni2153" unicode="&#x2153;" horiz-adv-x="798" 
d="M603 668l-319 -656q-10 -20 -27 -20h-45q-8 0 -10.5 7t1.5 13l320 656q9 20 27 20h44q18 0 9 -20zM60 659l139 23q13 2 13 -12v-301h74q14 0 14 -13v-37q0 -13 -14 -13h-226q-13 0 -13 13v37q0 13 13 13h75v238l-75 -11q-13 -2 -13 11v37q0 13 13 15zM678 93v31
q0 42 -56 42h-43q-13 0 -13 12v30q0 12 13 12h39q54 0 54 44v17q0 21 -12 30t-39 9q-54 0 -54 -39v-6q0 -13 -13 -13h-49q-13 0 -13 13v14q0 89 129 89q127 0 127 -86v-40q0 -42 -44 -58q50 -16 50 -62v-50q0 -38 -32 -62t-100 -24q-67 0 -99.5 25t-32.5 64v15q0 14 12 14
h50q13 0 13 -14v-7q0 -39 57 -39q56 0 56 39z" />
    <glyph glyph-name="uni2154" unicode="&#x2154;" horiz-adv-x="798" 
d="M607 668l-319 -656q-10 -20 -27 -20h-45q-8 0 -10.5 7t1.5 13l320 656q9 20 27 20h44q18 0 9 -20zM130 369h168q12 0 12 -13v-37q0 -13 -12 -13h-233q-13 0 -13 13v89q0 51 54 71l94 35q10 4 15 6.5t10.5 10t5.5 18.5v35q0 39 -55 39t-55 -39v-21q0 -13 -13 -13h-50
q-12 0 -12 13v29q0 39 33 65.5t101 26.5q69 0 98.5 -26t29.5 -66v-47q0 -56 -57 -79l-98 -37q-16 -6 -19.5 -10.5t-3.5 -16.5v-33zM678 93v31q0 42 -56 42h-43q-13 0 -13 12v30q0 12 13 12h39q54 0 54 44v17q0 21 -12 30t-39 9q-54 0 -54 -39v-6q0 -13 -13 -13h-49
q-13 0 -13 13v14q0 89 129 89q127 0 127 -86v-40q0 -42 -44 -58q50 -16 50 -62v-50q0 -38 -32 -62t-100 -24q-67 0 -99.5 25t-32.5 64v15q0 14 12 14h50q13 0 13 -14v-7q0 -39 57 -39q56 0 56 39z" />
    <glyph glyph-name="uni2155" unicode="&#x2155;" horiz-adv-x="805" 
d="M603 668l-319 -656q-10 -20 -27 -20h-45q-8 0 -10.5 7t1.5 13l320 656q9 20 27 20h44q18 0 9 -20zM60 659l139 23q13 2 13 -12v-301h74q14 0 14 -13v-37q0 -13 -14 -13h-226q-13 0 -13 13v37q0 13 13 13h75v238l-75 -11q-13 -2 -13 11v37q0 13 13 15zM527 374h209
q13 0 13 -12v-35q0 -13 -14 -13h-145v-74h49q121 0 121 -87v-68q0 -38 -32 -64t-98 -26q-67 0 -99 26t-32 64v15q0 12 13 12h50q12 0 12 -12v-6q0 -42 56 -42q54 0 54 42v49q0 39 -55 39h-102q-14 0 -14 14v165q0 13 14 13z" />
    <glyph glyph-name="uni2156" unicode="&#x2156;" horiz-adv-x="809" 
d="M608 668l-319 -656q-10 -20 -27 -20h-45q-8 0 -10.5 7t1.5 13l320 656q9 20 27 20h44q18 0 9 -20zM130 369h168q12 0 12 -13v-37q0 -13 -12 -13h-233q-13 0 -13 13v89q0 51 54 71l94 35q10 4 15 6.5t10.5 10t5.5 18.5v35q0 39 -55 39t-55 -39v-21q0 -13 -13 -13h-50
q-12 0 -12 13v29q0 39 33 65.5t101 26.5q69 0 98.5 -26t29.5 -66v-47q0 -56 -57 -79l-98 -37q-16 -6 -19.5 -10.5t-3.5 -16.5v-33zM531 374h209q13 0 13 -12v-35q0 -13 -14 -13h-145v-74h49q121 0 121 -87v-68q0 -38 -32 -64t-98 -26q-67 0 -99 26t-32 64v15q0 12 13 12h50
q12 0 12 -12v-6q0 -42 56 -42q54 0 54 42v49q0 39 -55 39h-102q-14 0 -14 14v165q0 13 14 13z" />
    <glyph glyph-name="uni2157" unicode="&#x2157;" horiz-adv-x="800" 
d="M598 668l-319 -656q-10 -20 -27 -20h-45q-8 0 -10.5 7t1.5 13l320 656q9 20 27 20h44q18 0 9 -20zM231 399v31q0 42 -56 42h-43q-13 0 -13 12v30q0 12 13 12h39q54 0 54 44v17q0 21 -12 30t-39 9q-54 0 -54 -39v-6q0 -13 -13 -13h-49q-13 0 -13 13v14q0 89 129 89
q127 0 127 -86v-40q0 -42 -44 -58q50 -16 50 -62v-50q0 -38 -32 -62t-100 -24q-67 0 -99.5 25t-32.5 64v15q0 14 12 14h50q13 0 13 -14v-7q0 -39 57 -39q56 0 56 39zM522 374h209q13 0 13 -12v-35q0 -13 -14 -13h-145v-74h49q121 0 121 -87v-68q0 -38 -32 -64t-98 -26
q-67 0 -99 26t-32 64v15q0 12 13 12h50q12 0 12 -12v-6q0 -42 56 -42q54 0 54 42v49q0 39 -55 39h-102q-14 0 -14 14v165q0 13 14 13z" />
    <glyph glyph-name="uni2158" unicode="&#x2158;" horiz-adv-x="805" 
d="M606 668l-319 -656q-10 -20 -27 -20h-45q-8 0 -10.5 7t1.5 13l320 656q9 20 27 20h44q18 0 9 -20zM171 667l-61 -198h110v198q0 13 13 13h50q13 0 13 -13v-348q0 -13 -13 -13h-50q-13 0 -13 13v89h-176q-14 0 -14 14v25q0 13 2 18l64 202q4 13 16 13h49q13 0 10 -13z
M527 374h209q13 0 13 -12v-35q0 -13 -14 -13h-145v-74h49q121 0 121 -87v-68q0 -38 -32 -64t-98 -26q-67 0 -99 26t-32 64v15q0 12 13 12h50q12 0 12 -12v-6q0 -42 56 -42q54 0 54 42v49q0 39 -55 39h-102q-14 0 -14 14v165q0 13 14 13z" />
    <glyph glyph-name="uni2159" unicode="&#x2159;" horiz-adv-x="794" 
d="M603 668l-319 -656q-10 -20 -27 -20h-45q-8 0 -10.5 7t1.5 13l320 656q9 20 27 20h44q18 0 9 -20zM60 659l139 23q13 2 13 -12v-301h74q14 0 14 -13v-37q0 -13 -14 -13h-226q-13 0 -13 13v37q0 13 13 13h75v238l-75 -11q-13 -2 -13 11v37q0 13 13 15zM491 87v202
q0 38 30.5 63.5t97.5 25.5q68 0 97.5 -25.5t29.5 -63.5v-9q0 -14 -13 -14h-50q-12 0 -12 14v4q0 35 -51 35q-52 0 -52 -40v-68q22 17 62 17q120 0 120 -84v-57q0 -91 -130 -91q-129 0 -129 91zM674 95v34q0 41 -54 41q-52 0 -52 -38v-37q0 -40 52 -40q54 0 54 40z" />
    <glyph glyph-name="uni215A" unicode="&#x215a;" horiz-adv-x="790" 
d="M590 668l-319 -656q-10 -20 -27 -20h-45q-8 0 -10.5 7t1.5 13l320 656q9 20 27 20h44q18 0 9 -20zM69 680h209q13 0 13 -12v-35q0 -13 -14 -13h-145v-74h49q121 0 121 -87v-68q0 -38 -32 -64t-98 -26q-67 0 -99 26t-32 64v15q0 12 13 12h50q12 0 12 -12v-6q0 -42 56 -42
q54 0 54 42v49q0 39 -55 39h-102q-14 0 -14 14v165q0 13 14 13zM487 87v202q0 38 30.5 63.5t97.5 25.5q68 0 97.5 -25.5t29.5 -63.5v-9q0 -14 -13 -14h-50q-12 0 -12 14v4q0 35 -51 35q-52 0 -52 -40v-68q22 17 62 17q120 0 120 -84v-57q0 -91 -130 -91q-129 0 -129 91z
M670 95v34q0 41 -54 41q-52 0 -52 -38v-37q0 -40 52 -40q54 0 54 40z" />
    <glyph glyph-name="uni215B" unicode="&#x215b;" horiz-adv-x="794" 
d="M603 668l-319 -656q-10 -20 -27 -20h-45q-8 0 -10.5 7t1.5 13l320 656q9 20 27 20h44q18 0 9 -20zM60 659l139 23q13 2 13 -12v-301h74q14 0 14 -13v-37q0 -13 -14 -13h-226q-13 0 -13 13v37q0 13 13 13h75v238l-75 -11q-13 -2 -13 11v37q0 13 13 15zM494 253v36
q0 89 125 89t125 -89v-36q0 -42 -45 -59q51 -17 51 -59v-50q0 -89 -131 -89t-131 89v50q0 43 50 59q-44 16 -44 59zM669 262v19q0 21 -11.5 31t-38.5 10q-28 0 -39.5 -9.5t-11.5 -31.5v-19q0 -21 11.5 -30.5t39.5 -9.5q27 0 38.5 9.5t11.5 30.5zM675 94v31q0 41 -56 41
t-56 -41v-31q0 -42 56 -42t56 42z" />
    <glyph glyph-name="uni215C" unicode="&#x215c;" horiz-adv-x="794" 
d="M594 668l-319 -656q-10 -20 -27 -20h-45q-8 0 -10.5 7t1.5 13l320 656q9 20 27 20h44q18 0 9 -20zM231 399v31q0 42 -56 42h-43q-13 0 -13 12v30q0 12 13 12h39q54 0 54 44v17q0 21 -12 30t-39 9q-54 0 -54 -39v-6q0 -13 -13 -13h-49q-13 0 -13 13v14q0 89 129 89
q127 0 127 -86v-40q0 -42 -44 -58q50 -16 50 -62v-50q0 -38 -32 -62t-100 -24q-67 0 -99.5 25t-32.5 64v15q0 14 12 14h50q13 0 13 -14v-7q0 -39 57 -39q56 0 56 39zM494 253v36q0 89 125 89t125 -89v-36q0 -42 -45 -59q51 -17 51 -59v-50q0 -89 -131 -89t-131 89v50
q0 43 50 59q-44 16 -44 59zM669 262v19q0 21 -11.5 31t-38.5 10q-28 0 -39.5 -9.5t-11.5 -31.5v-19q0 -21 11.5 -30.5t39.5 -9.5q27 0 38.5 9.5t11.5 30.5zM675 94v31q0 41 -56 41t-56 -41v-31q0 -42 56 -42t56 42z" />
    <glyph glyph-name="uni215D" unicode="&#x215d;" horiz-adv-x="790" 
d="M592 668l-319 -656q-10 -20 -27 -20h-45q-8 0 -10.5 7t1.5 13l320 656q9 20 27 20h44q18 0 9 -20zM69 680h209q13 0 13 -12v-35q0 -13 -14 -13h-145v-74h49q121 0 121 -87v-68q0 -38 -32 -64t-98 -26q-67 0 -99 26t-32 64v15q0 12 13 12h50q12 0 12 -12v-6q0 -42 56 -42
q54 0 54 42v49q0 39 -55 39h-102q-14 0 -14 14v165q0 13 14 13zM490 253v36q0 89 125 89t125 -89v-36q0 -42 -45 -59q51 -17 51 -59v-50q0 -89 -131 -89t-131 89v50q0 43 50 59q-44 16 -44 59zM665 262v19q0 21 -11.5 31t-38.5 10q-28 0 -39.5 -9.5t-11.5 -31.5v-19
q0 -21 11.5 -30.5t39.5 -9.5q27 0 38.5 9.5t11.5 30.5zM671 94v31q0 41 -56 41t-56 -41v-31q0 -42 56 -42t56 42z" />
    <glyph glyph-name="uni215E" unicode="&#x215e;" horiz-adv-x="738" 
d="M534 668l-319 -656q-10 -20 -27 -20h-45q-8 0 -10.5 7t1.5 13l320 656q9 20 27 20h44q18 0 9 -20zM44 680h243q14 0 14 -12v-31q0 -7 -4 -15l-132 -303q-6 -13 -18 -13h-58q-15 0 -9 13l133 298h-169q-14 0 -14 14v37q0 12 14 12zM439 253v36q0 89 125 89t125 -89v-36
q0 -42 -45 -59q51 -17 51 -59v-50q0 -89 -131 -89t-131 89v50q0 43 50 59q-44 16 -44 59zM614 262v19q0 21 -11.5 31t-38.5 10q-28 0 -39.5 -9.5t-11.5 -31.5v-19q0 -21 11.5 -30.5t39.5 -9.5q27 0 38.5 9.5t11.5 30.5zM620 94v31q0 41 -56 41t-56 -41v-31q0 -42 56 -42
t56 42z" />
    <glyph glyph-name="uni215F" unicode="&#x215f;" horiz-adv-x="450" 
d="M598 668l-319 -656q-10 -20 -27 -20h-45q-8 0 -10.5 7t1.5 13l320 656q9 20 27 20h44q18 0 9 -20zM53 659l139 23q13 2 13 -12v-301h74q14 0 14 -13v-37q0 -13 -14 -13h-226q-13 0 -13 13v37q0 13 13 13h75v238l-75 -11q-13 -2 -13 11v37q0 13 13 15z" />
    <glyph glyph-name="partialdiff" unicode="&#x2202;" horiz-adv-x="388" 
d="M86 191v257q0 12 11 14t22 -5l195 -121q9 -6 9 -16t-9 -16l-195 -120q-11 -7 -22 -6t-11 13z" />
    <glyph glyph-name="Delta" unicode="&#x2206;" horiz-adv-x="388" 
d="M109 426h170q23 0 23 -23v-170q0 -24 -23 -24h-170q-24 0 -24 24v170q0 23 24 23z" />
    <glyph glyph-name="product" unicode="&#x220f;" horiz-adv-x="388" 
d="M323 200h-257q-8 0 -11.5 5t-2.5 12.5t6 15.5l120 194q6 10 16 10t16 -10l120 -194q5 -7 6 -14.5t-2 -13t-11 -5.5z" />
    <glyph glyph-name="summation" unicode="&#x2211;" horiz-adv-x="388" 
d="M301 448v-257q0 -12 -11.5 -13t-21.5 6l-194 120q-10 6 -10 16t10 16l194 121q7 5 14.5 6t13 -3t5.5 -12z" />
    <glyph glyph-name="minus" unicode="&#x2212;" horiz-adv-x="585" 
d="M90 371h405q19 0 19 -19v-42q0 -20 -19 -20h-405q-19 0 -19 20v42q0 19 19 19z" />
    <glyph glyph-name="radical" unicode="&#x221a;" horiz-adv-x="388" 
d="M109 435h170q17 0 24.5 -7.5t7.5 -24.5v-170q0 -18 -7.5 -25.5t-24.5 -7.5h-170q-18 0 -25.5 7.5t-7.5 25.5v170q0 17 7.5 24.5t25.5 7.5zM279 416h-170q-15 0 -15 -13v-170q0 -15 15 -15h170q14 0 14 15v170q0 13 -14 13z" />
    <glyph glyph-name="infinity" unicode="&#x221e;" horiz-adv-x="388" 
d="M50 340l121 121q12 12 23 12q12 0 23 -12l120 -121q12 -12 12 -22q0 -11 -12 -23l-120 -121q-11 -12 -23 -12q-11 0 -23 12l-121 121q-12 12 -12 23q0 10 12 22zM184 448l-120 -121q-5 -5 -5 -10t4 -9l121 -121q5 -5 10 -5q4 0 9 5l121 121q5 5 5 9q0 5 -5 10l-121 121
q-4 4 -9 4q-6 0 -10 -4z" />
    <glyph glyph-name="integral" unicode="&#x222b;" horiz-adv-x="388" 
d="M26 317q0 69 49 118.5t118 49.5t118.5 -49.5t49.5 -118.5t-49.5 -118t-118.5 -49q-70 0 -118.5 48.5t-48.5 118.5z" />
    <glyph glyph-name="approxequal" unicode="&#x2248;" horiz-adv-x="484" 
d="M419 441l-3 -43q-3 -42 -25 -61.5t-50 -19.5q-27 0 -56 13l-92 43q-24 12 -33 12q-14 0 -18.5 -6t-5.5 -23l-1 -16q-1 -17 -21 -17h-30q-18 0 -16 22l3 39q3 42 25.5 63t52.5 21q24 0 48 -11l90 -42q30 -14 44 -14q11 0 15 6t5 22l1 17q1 17 20 17h31q17 0 16 -22z
M419 269l-3 -43q-3 -42 -25 -61.5t-50 -19.5q-27 0 -56 13l-92 43q-24 12 -33 12q-14 0 -18.5 -6t-5.5 -23l-1 -16q-1 -17 -21 -17h-30q-18 0 -16 22l3 39q3 42 25.5 63t52.5 21q24 0 48 -11l90 -42q30 -14 44 -14q11 0 15 6t5 22l1 17q1 17 20 17h31q17 0 16 -22z" />
    <glyph glyph-name="notequal" unicode="&#x2260;" horiz-adv-x="583" 
d="M262 129q-7 -19 -25 -19h-55q-18 0 -12 19l24 63h-105q-19 0 -19 19v43q0 18 19 18h135l42 110h-177q-19 0 -19 19v43q0 18 19 18h207l24 63q8 20 24 20h55q21 0 13 -20l-24 -63h106q19 0 19 -18v-43q0 -19 -19 -19h-136l-42 -110h178q19 0 19 -18v-43q0 -19 -19 -19
h-208z" />
    <glyph glyph-name="lessequal" unicode="&#x2264;" horiz-adv-x="529" 
d="M436 509l-278 -95l278 -95q19 -6 19 -21v-57q0 -23 -19 -16l-354 136q-17 7 -17 20v65q0 14 17 21l354 137q19 7 19 -17v-57q0 -15 -19 -21zM84 172h352q19 0 19 -18v-41q0 -19 -19 -19h-352q-19 0 -19 19v41q0 18 19 18z" />
    <glyph glyph-name="greaterequal" unicode="&#x2265;" horiz-adv-x="529" 
d="M371 414l-278 94q-19 6 -19 22v58q0 25 19 18l354 -136q17 -7 17 -22v-67q0 -14 -17 -21l-354 -137q-19 -7 -19 18v58q0 16 19 22zM93 173h352q19 0 19 -19v-43q0 -19 -19 -19h-352q-19 0 -19 19v43q0 19 19 19z" />
    <glyph glyph-name="lozenge" unicode="&#x25ca;" horiz-adv-x="388" 
d="M57 334l121 121q8 8 16 8t16 -8l121 -121q8 -8 8 -16t-8 -16l-121 -121q-9 -9 -16 -9t-16 9l-121 121q-9 9 -9 16t9 16z" />
    <glyph glyph-name="cent.denominator" unicode="&#xf629;" horiz-adv-x="308" 
d="M194 14q0 -14 -13 -14h-47q-14 0 -14 14v34q-82 13 -82 79v121q0 67 82 80v34q0 14 14 14h47q13 0 13 -14v-35q81 -11 81 -79v-8q0 -14 -13 -14h-45q-14 0 -14 13v4q0 29 -45 29q-46 0 -46 -29v-110q0 -29 46 -29q45 0 45 29v9q0 13 14 13h45q13 0 13 -13v-15
q0 -66 -81 -79v-34z" />
    <glyph glyph-name="dollar.denominator" unicode="&#xf62a;" horiz-adv-x="301" 
d="M176 0h-48q-14 0 -14 14v34q-41 6 -61 25t-20 44v12q0 13 12 13h44q13 0 13 -13v-9q0 -22 46 -22q49 0 49 22v10q0 11 -26 20l-86 31q-18 6 -31.5 22t-13.5 35v18q0 25 18 45t56 26v35q0 14 14 14h48q13 0 13 -14v-35q37 -7 54.5 -26.5t17.5 -43.5v-10q0 -13 -13 -13h-43
q-12 0 -12 13v10q0 22 -43 22q-42 0 -42 -22v-6q0 -14 19 -20l84 -28q54 -18 54 -59v-27q0 -24 -19 -42.5t-57 -25.5v-35q0 -14 -13 -14z" />
    <glyph glyph-name="hyphen.denominator" unicode="&#xf62b;" horiz-adv-x="277" 
d="M61 189h155q14 0 14 -13v-33q0 -13 -14 -13h-155q-14 0 -14 13v33q0 13 14 13z" />
    <glyph glyph-name="parenleft.denominator" unicode="&#xf62c;" horiz-adv-x="215" 
d="M44 15v348q0 82 123 82h6q15 0 15 -13v-33q0 -15 -15 -15h-6q-45 0 -45 -29v-332q0 -29 45 -29h6q15 0 15 -15v-32q0 -14 -15 -14h-6q-123 0 -123 82z" />
    <glyph glyph-name="parenright.denominator" unicode="&#xf62d;" horiz-adv-x="214" 
d="M93 355q0 29 -46 29h-6q-14 0 -14 15v33q0 13 14 13h6q123 0 123 -82v-348q0 -82 -123 -82h-6q-14 0 -14 14v32q0 15 14 15h6q46 0 46 29v332z" />
    <glyph glyph-name="cent.numerator" unicode="&#xf62e;" horiz-adv-x="308" 
d="M194 320q0 -14 -13 -14h-47q-14 0 -14 14v34q-82 13 -82 79v121q0 67 82 80v34q0 14 14 14h47q13 0 13 -14v-35q81 -11 81 -79v-8q0 -14 -13 -14h-45q-14 0 -14 13v4q0 29 -45 29q-46 0 -46 -29v-110q0 -29 46 -29q45 0 45 29v9q0 13 14 13h45q13 0 13 -13v-15
q0 -66 -81 -79v-34z" />
    <glyph glyph-name="dollar.numerator" unicode="&#xf62f;" horiz-adv-x="302" 
d="M177 306h-48q-14 0 -14 14v34q-41 6 -61 25t-20 44v12q0 13 12 13h44q13 0 13 -13v-9q0 -22 46 -22q49 0 49 22v10q0 11 -26 20l-86 31q-18 6 -31.5 22t-13.5 35v18q0 25 18 45t56 26v35q0 14 14 14h48q13 0 13 -14v-35q37 -7 54.5 -26.5t17.5 -43.5v-10q0 -13 -13 -13
h-43q-12 0 -12 13v10q0 22 -43 22q-42 0 -42 -22v-6q0 -14 19 -20l84 -28q54 -18 54 -59v-27q0 -24 -19 -42.5t-57 -25.5v-35q0 -14 -13 -14z" />
    <glyph glyph-name="hyphen.numerator" unicode="&#xf630;" horiz-adv-x="271" 
d="M58 495h155q14 0 14 -13v-33q0 -13 -14 -13h-155q-14 0 -14 13v33q0 13 14 13z" />
    <glyph glyph-name="parenleft.numerator" unicode="&#xf631;" horiz-adv-x="215" 
d="M44 321v348q0 82 123 82h6q15 0 15 -13v-33q0 -15 -15 -15h-6q-45 0 -45 -29v-332q0 -29 45 -29h6q15 0 15 -15v-32q0 -14 -15 -14h-6q-123 0 -123 82z" />
    <glyph glyph-name="parenright.numerator" unicode="&#xf632;" horiz-adv-x="214" 
d="M93 661q0 29 -46 29h-6q-14 0 -14 15v33q0 13 14 13h6q123 0 123 -82v-348q0 -82 -123 -82h-6q-14 0 -14 14v32q0 15 14 15h6q46 0 46 29v332z" />
    <glyph glyph-name="zero.denominator" unicode="&#xf655;" 
d="M31 89v196q0 41 31.5 67t101.5 26q69 0 100.5 -26.5t31.5 -66.5v-196q0 -40 -31.5 -66.5t-100.5 -26.5q-70 0 -101.5 26t-31.5 67zM218 101v172q0 42 -54 42q-57 0 -57 -42v-172q0 -42 57 -42q54 0 54 42z" />
    <glyph glyph-name="one.denominator" unicode="&#xf656;" 
d="M58 353l139 23q13 2 13 -12v-301h74q14 0 14 -13v-37q0 -13 -14 -13h-226q-13 0 -13 13v37q0 13 13 13h75v238l-75 -11q-13 -2 -13 11v37q0 13 13 15z" />
    <glyph glyph-name="two.denominator" unicode="&#xf657;" 
d="M115 63h168q12 0 12 -13v-37q0 -13 -12 -13h-233q-13 0 -13 13v89q0 51 54 71l94 35q10 4 15 6.5t10.5 10t5.5 18.5v35q0 39 -55 39t-55 -39v-21q0 -13 -13 -13h-50q-12 0 -12 13v29q0 39 33 65.5t101 26.5q69 0 98.5 -26t29.5 -66v-47q0 -56 -57 -79l-98 -37
q-16 -6 -19.5 -10.5t-3.5 -16.5v-33z" />
    <glyph glyph-name="three.denominator" unicode="&#xf658;" 
d="M217 93v31q0 42 -56 42h-43q-13 0 -13 12v30q0 12 13 12h39q54 0 54 44v17q0 21 -12 30t-39 9q-54 0 -54 -39v-6q0 -13 -13 -13h-49q-13 0 -13 13v14q0 89 129 89q127 0 127 -86v-40q0 -42 -44 -58q50 -16 50 -62v-50q0 -38 -32 -62t-100 -24q-67 0 -99.5 25t-32.5 64v15
q0 14 12 14h50q13 0 13 -14v-7q0 -39 57 -39q56 0 56 39z" />
    <glyph glyph-name="four.denominator" unicode="&#xf659;" 
d="M161 361l-61 -198h110v198q0 13 13 13h50q13 0 13 -13v-348q0 -13 -13 -13h-50q-13 0 -13 13v89h-176q-14 0 -14 14v25q0 13 2 18l64 202q4 13 16 13h49q13 0 10 -13z" />
    <glyph glyph-name="five.denominator" unicode="&#xf65a;" 
d="M60 374h209q13 0 13 -12v-35q0 -13 -14 -13h-145v-74h49q121 0 121 -87v-68q0 -38 -32 -64t-98 -26q-67 0 -99 26t-32 64v15q0 12 13 12h50q12 0 12 -12v-6q0 -42 56 -42q54 0 54 42v49q0 39 -55 39h-102q-14 0 -14 14v165q0 13 14 13z" />
    <glyph glyph-name="six.denominator" unicode="&#xf65b;" 
d="M36 87v202q0 38 30.5 63.5t97.5 25.5q68 0 97.5 -25.5t29.5 -63.5v-9q0 -14 -13 -14h-50q-12 0 -12 14v4q0 35 -51 35q-52 0 -52 -40v-68q22 17 62 17q120 0 120 -84v-57q0 -91 -130 -91q-129 0 -129 91zM219 95v34q0 41 -54 41q-52 0 -52 -38v-37q0 -40 52 -40
q54 0 54 40z" />
    <glyph glyph-name="seven.denominator" unicode="&#xf65c;" 
d="M43 374h243q14 0 14 -12v-31q0 -7 -4 -15l-132 -303q-6 -13 -18 -13h-58q-15 0 -9 13l133 298h-169q-14 0 -14 14v37q0 12 14 12z" />
    <glyph glyph-name="eight.denominator" unicode="&#xf65d;" 
d="M39 253v36q0 89 125 89t125 -89v-36q0 -42 -45 -59q51 -16 51 -59v-50q0 -89 -131 -89t-131 89v50q0 43 50 59q-44 16 -44 59zM214 262v19q0 21 -11.5 31t-38.5 10q-28 0 -39.5 -9.5t-11.5 -31.5v-19q0 -21 11.5 -30.5t39.5 -9.5q27 0 38.5 9.5t11.5 30.5zM220 94v31
q0 41 -56 41t-56 -41v-31q0 -42 56 -42t56 42z" />
    <glyph glyph-name="nine.denominator" unicode="&#xf65e;" 
d="M291 287v-202q0 -38 -30 -63.5t-98 -25.5t-97.5 25.5t-29.5 63.5v9q0 14 13 14h49q13 0 13 -14v-4q0 -35 52 -35q51 0 51 40v68q-22 -17 -62 -17q-120 0 -120 84v57q0 91 130 91q129 0 129 -91zM108 279v-34q0 -41 54 -41q52 0 52 38v37q0 40 -52 40q-54 0 -54 -40z" />
    <glyph glyph-name="comma.denominator" unicode="&#xf65f;" horiz-adv-x="170" 
d="M50 22v37q0 14 13 14h49q14 0 14 -14v-42q0 -64 -83 -82q-13 -3 -18 10l-12 31q-4 13 10 17q27 8 27 29z" />
    <glyph glyph-name="period.denominator" unicode="&#xf660;" horiz-adv-x="160" 
d="M118 59v-45q0 -14 -14 -14h-48q-14 0 -14 14v45q0 14 14 14h48q14 0 14 -14z" />
    <glyph glyph-name="zero.numerator" unicode="&#xf661;" 
d="M31 395v196q0 41 31.5 67t101.5 26q69 0 100.5 -26.5t31.5 -66.5v-196q0 -40 -31.5 -66.5t-100.5 -26.5q-70 0 -101.5 26t-31.5 67zM218 407v172q0 42 -54 42q-57 0 -57 -42v-172q0 -42 57 -42q54 0 54 42z" />
    <glyph glyph-name="one.numerator" unicode="&#xf662;" 
d="M58 659l139 23q13 2 13 -12v-301h74q14 0 14 -13v-37q0 -13 -14 -13h-226q-13 0 -13 13v37q0 13 13 13h75v238l-75 -11q-13 -2 -13 11v37q0 13 13 15z" />
    <glyph glyph-name="two.numerator" unicode="&#xf663;" 
d="M115 369h168q12 0 12 -13v-37q0 -13 -12 -13h-233q-13 0 -13 13v89q0 51 54 71l94 35q10 4 15 6.5t10.5 10t5.5 18.5v35q0 39 -55 39t-55 -39v-21q0 -13 -13 -13h-50q-12 0 -12 13v29q0 39 33 65.5t101 26.5q69 0 98.5 -26t29.5 -66v-47q0 -56 -57 -79l-98 -37
q-16 -6 -19.5 -10.5t-3.5 -16.5v-33z" />
    <glyph glyph-name="three.numerator" unicode="&#xf664;" 
d="M217 399v31q0 42 -56 42h-43q-13 0 -13 12v30q0 12 13 12h39q54 0 54 44v17q0 21 -12 30t-39 9q-54 0 -54 -39v-6q0 -13 -13 -13h-49q-13 0 -13 13v14q0 89 129 89q127 0 127 -86v-40q0 -42 -44 -58q50 -16 50 -62v-50q0 -38 -32 -62t-100 -24q-67 0 -99.5 25t-32.5 64
v15q0 14 12 14h50q13 0 13 -14v-7q0 -39 57 -39q56 0 56 39z" />
    <glyph glyph-name="four.numerator" unicode="&#xf665;" 
d="M161 667l-61 -198h110v198q0 13 13 13h50q13 0 13 -13v-348q0 -13 -13 -13h-50q-13 0 -13 13v89h-176q-14 0 -14 14v25q0 13 2 18l64 202q4 13 16 13h49q13 0 10 -13z" />
    <glyph glyph-name="five.numerator" unicode="&#xf666;" 
d="M60 680h209q13 0 13 -12v-35q0 -13 -14 -13h-145v-74h49q121 0 121 -87v-68q0 -38 -32 -64t-98 -26q-67 0 -99 26t-32 64v15q0 12 13 12h50q12 0 12 -12v-6q0 -42 56 -42q54 0 54 42v49q0 39 -55 39h-102q-14 0 -14 14v165q0 13 14 13z" />
    <glyph glyph-name="six.numerator" unicode="&#xf667;" 
d="M36 393v202q0 38 30.5 63.5t97.5 25.5q68 0 97.5 -25.5t29.5 -63.5v-9q0 -14 -13 -14h-50q-12 0 -12 14v4q0 35 -51 35q-52 0 -52 -40v-68q22 17 62 17q120 0 120 -84v-57q0 -91 -130 -91q-129 0 -129 91zM219 401v34q0 41 -54 41q-52 0 -52 -38v-37q0 -40 52 -40
q54 0 54 40z" />
    <glyph glyph-name="seven.numerator" unicode="&#xf668;" 
d="M43 680h243q14 0 14 -12v-31q0 -7 -4 -15l-132 -303q-6 -13 -18 -13h-58q-15 0 -9 13l133 298h-169q-14 0 -14 14v37q0 12 14 12z" />
    <glyph glyph-name="eight.numerator" unicode="&#xf669;" 
d="M39 559v36q0 89 125 89t125 -89v-36q0 -42 -45 -59q51 -16 51 -59v-50q0 -89 -131 -89t-131 89v50q0 43 50 59q-44 16 -44 59zM214 568v19q0 21 -11.5 31t-38.5 10q-28 0 -39.5 -9.5t-11.5 -31.5v-19q0 -21 11.5 -30.5t39.5 -9.5q27 0 38.5 9.5t11.5 30.5zM220 400v31
q0 41 -56 41t-56 -41v-31q0 -42 56 -42t56 42z" />
    <glyph glyph-name="nine.numerator" unicode="&#xf66a;" 
d="M291 593v-202q0 -38 -30 -63.5t-98 -25.5t-97.5 25.5t-29.5 63.5v9q0 14 13 14h49q13 0 13 -14v-4q0 -35 52 -35q51 0 51 40v68q-22 -17 -62 -17q-120 0 -120 84v57q0 91 130 91q129 0 129 -91zM108 585v-34q0 -41 54 -41q52 0 52 38v37q0 40 -52 40q-54 0 -54 -40z" />
    <glyph glyph-name="comma.numerator" unicode="&#xf66b;" horiz-adv-x="186" 
d="M59 328v37q0 14 13 14h49q14 0 14 -14v-42q0 -64 -83 -82q-13 -3 -18 10l-12 31q-4 13 10 17q27 8 27 29z" />
    <glyph glyph-name="period.numerator" unicode="&#xf66c;" horiz-adv-x="166" 
d="M121 365v-45q0 -14 -14 -14h-48q-14 0 -14 14v45q0 14 14 14h48q14 0 14 -14z" />
    <glyph glyph-name="commaaccent" unicode="&#xf6c3;" horiz-adv-x="278" 
d="M104 70v29q0 19 19 19h43q19 0 19 -19v-34q0 -57 -42 -125q-8 -13 -25 -10l-33 8q-19 5 -9 26q3 7 9.5 21.5t8.5 19.5t5 16t4 22t1 27z" />
    <glyph glyph-name="apple" unicode="&#xf8ff;" horiz-adv-x="1482" 
d="M69 529v8h1338v-8h-1338zM1213 332l-29 -2v4q0 20 12 20h17l-3 30q24 8 32 8q11 0 11 -8v-29h47v-3q0 -21 -12 -21h-35v-90q0 -15 16 -15q11 0 38.5 5.5t46.5 5.5q17 0 39.5 -6t22.5 -18q0 -14 -9.5 -21t-17.5 -7q-2 0 -26.5 12t-44.5 12q-7 0 -32 -4t-44 -4t-23 12.5
t-5 65.5q0 32 -1 53zM711 320q17 0 28.5 -13.5t11.5 -37.5q0 -68 -87 -68v-40l3 -32q-24 -8 -32 -8q-11 0 -11 8v75l-25 -3v-3q0 -79 -68 -79q-21 0 -31 10.5t-10 23.5q0 36 70 53v42q-17 -48 -46 -48q-28 0 -28 31v3q-19 -33 -53 -33q-29 0 -29 30v101l-29 -2v4q0 20 12 20
h17l-3 30q24 8 32 8q11 0 11 -8v-29h47v-3q0 -21 -12 -21h-35v-86q0 -16 13 -16q9 0 19 8t10 18v25l-3 33q24 8 32 8q11 0 11 -9v-66q0 -15 7 -15q8 0 17.5 17.5t8.5 30.5l-2 34q24 8 31 8q11 0 11 -9v-99l25 3v61l-3 36q24 8 32 8q11 0 11 -9v-40q17 48 47 48zM1172 258
q-16 -6 -44 -6q2 -22 26 -22q17 0 32 9q8 -5 8 -16q0 -4 -2.5 -8.5t-14 -9.5t-30.5 -5q-28 0 -44 14.5t-16 38.5q0 27 18.5 47.5t50.5 20.5q19 0 30 -9.5t11 -21.5q0 -24 -25 -32zM849 258q-16 -6 -44 -6q2 -22 26 -22q17 0 32 9q8 -5 8 -16q0 -4 -2.5 -8.5t-14 -9.5
t-30.5 -5q-28 0 -44 14.5t-16 38.5q0 27 18.5 47.5t50.5 20.5q19 0 30 -9.5t11 -21.5q0 -24 -25 -32zM150 258q-16 -6 -44 -6q2 -22 26 -22q17 0 32 9q8 -5 8 -16q0 -4 -2.5 -8.5t-14 -9.5t-30.5 -5q-28 0 -44 14.5t-16 38.5q0 27 18.5 47.5t50.5 20.5q19 0 30 -9.5
t11 -21.5q0 -24 -25 -32zM380 289v-49l3 -32q-24 -8 -31 -8q-11 0 -11 8v66q0 16 -8 16q-6 0 -16 -17.5t-10 -30.5l2 -34q-24 -8 -31 -8q-11 0 -11 8v66q0 16 -8 16q-7 0 -16.5 -17.5t-9.5 -30.5l3 -34q-24 -8 -32 -8q-11 0 -11 8v69l-3 36q24 8 32 8q11 0 11 -9v-40
q3 9 7.5 19t15 20t22.5 10q29 0 29 -32v-17q14 49 45 49q28 0 28 -32zM1071 289v-49l2 -32q-24 -8 -31 -8q-11 0 -11 8v67q0 15 -8 15q-7 0 -16.5 -17.5t-9.5 -30.5l3 -34q-24 -8 -32 -8q-11 0 -11 8v69l-3 36q24 8 32 8q11 0 11 -9v-40q17 49 45 49q29 0 29 -32zM105 264
q37 0 37 21q0 13 -13 13q-20 0 -24 -34zM1127 264q37 0 37 21q0 13 -13 13q-20 0 -24 -34zM804 264q37 0 37 21q0 13 -13 13q-20 0 -24 -34zM664 219q45 6 45 51q0 20 -13 20t-22.5 -18.5t-9.5 -29.5v-23zM914 250q11 0 18.5 -7t7.5 -17t-7.5 -16.5t-18.5 -6.5t-18 6.5
t-7 16.5t7 17t18 7zM559 194q-41 -9 -41 -32q0 -14 14 -14q25 0 27 46zM69 0v8h1338v-8h-1338z" />
    <glyph glyph-name="ff" unicode="&#xfb00;" horiz-adv-x="631" 
d="M95 494h6v72q0 64 48.5 100.5t150.5 36.5h7q19 0 19 -19v-42q0 -20 -19 -20h-7q-103 0 -103 -66v-62h203v77q0 137 199 137h7q19 0 19 -19v-42q0 -20 -19 -20h-7q-103 0 -103 -66v-67h98q19 0 19 -18v-40q0 -20 -19 -20h-98v-396q0 -20 -19 -20h-58q-19 0 -19 20v396
h-203v-396q0 -20 -18 -20h-59q-19 0 -19 20v396h-59q-18 0 -18 20v35q0 18 18 19z" />
    <glyph glyph-name="ffi" unicode="&#xfb03;" horiz-adv-x="865" 
d="M95 494h6v72q0 64 48.5 100.5t150.5 36.5h7q19 0 19 -19v-42q0 -20 -19 -20h-7q-103 0 -103 -66v-62h204v68q0 137 198 137h163q20 0 20 -19v-42q0 -20 -20 -20h-163q-103 0 -103 -66v-58h280q20 0 20 -19v-455q0 -20 -18 -20h-59q-19 0 -19 20v396h-204v-396
q0 -20 -18 -20h-58q-19 0 -19 20v396h-204v-396q0 -20 -18 -20h-59q-19 0 -19 20v396h-59q-18 0 -18 20v35q0 18 18 19z" />
    <glyph glyph-name="ffl" unicode="&#xfb04;" horiz-adv-x="864" 
d="M94 494h7v72q0 137 198 137h7q20 0 20 -19v-42q0 -20 -20 -20h-7q-103 0 -103 -66v-62h204v68q0 137 199 137h176q20 0 20 -19v-660q0 -20 -18 -20h-58q-19 0 -19 20v598h-101q-103 0 -103 -66v-58h98q19 0 19 -18v-40q0 -20 -19 -20h-98v-396q0 -20 -19 -20h-58
q-19 0 -19 20v396h-204v-396q0 -20 -18 -20h-58q-19 0 -19 20v396h-59q-19 0 -19 20v35q0 18 19 19z" />
    <glyph glyph-name="zero.tab" unicode="&#xff10;" horiz-adv-x="550" 
d="M57 146v388q0 69 50.5 111.5t166.5 42.5q117 0 167.5 -42.5t50.5 -111.5v-388q0 -69 -50.5 -111.5t-167.5 -42.5q-116 0 -166.5 42.5t-50.5 111.5zM394 162v356q0 87 -120 87q-64 0 -91.5 -22t-27.5 -65v-356q0 -43 27.5 -65t91.5 -22q120 0 120 87z" />
    <glyph glyph-name="one.tab" unicode="&#xff11;" horiz-adv-x="550" 
d="M94 636l229 49q7 2 12.5 -2t5.5 -16v-584h147q19 0 19 -18v-46q0 -19 -19 -19h-395q-19 0 -19 19v46q0 18 19 18h150v497l-149 -31q-19 -3 -19 16v49q0 17 19 22z" />
    <glyph glyph-name="two.tab" unicode="&#xff12;" horiz-adv-x="550" 
d="M168 83h304q19 0 19 -18v-46q0 -19 -19 -19h-383q-19 0 -19 19v168q0 83 82 114l188 70q51 19 51 65v83q0 43 -27.5 65t-91.5 22t-91 -22t-27 -65v-43q0 -20 -18 -20h-58q-19 0 -19 20v58q0 154 213 154q216 0 216 -154v-96q0 -102 -92 -136l-170 -61q-21 -7 -31 -12.5
t-18.5 -17.5t-8.5 -31v-97z" />
    <glyph glyph-name="three.tab" unicode="&#xff13;" horiz-adv-x="550" 
d="M187 396h77q64 0 90 20.5t26 63.5v42q0 43 -25 64t-87 21q-63 0 -88.5 -21t-25.5 -64v-13q0 -19 -19 -19h-58q-18 0 -18 19v26q0 153 210 153q208 0 208 -150v-72q0 -43 -18 -69t-64 -39q89 -25 89 -115v-101q0 -150 -214 -150q-216 0 -216 153v26q0 19 18 19h59
q18 0 18 -19v-13q0 -85 120 -85q119 0 119 85v73q0 43 -26 63.5t-91 20.5h-84q-19 0 -19 19v43q0 19 19 19z" />
    <glyph glyph-name="four.tab" unicode="&#xff14;" horiz-adv-x="550" 
d="M267 660l-129 -375h235v375q0 20 19 20h61q18 0 18 -20v-640q0 -20 -18 -20h-61q-19 0 -19 20v182h-317q-19 0 -19 19v42q0 7 4 21l128 376q6 20 23 20h61q21 0 14 -20z" />
    <glyph glyph-name="five.tab" unicode="&#xff15;" horiz-adv-x="550" 
d="M101 680h347q20 0 20 -19v-45q0 -19 -20 -19h-267v-172h91q108 0 161 -39.5t53 -105.5v-136q0 -153 -212 -153t-212 153v26q0 20 19 20h58q19 0 19 -20v-12q0 -43 26 -64.5t89 -21.5q64 0 89.5 21t25.5 65v108q0 78 -117 78h-170q-18 0 -18 20v296q0 20 18 20z" />
    <glyph glyph-name="six.tab" unicode="&#xff16;" horiz-adv-x="550" 
d="M67 146v392q0 65 48 107.5t163 42.5q208 0 208 -150v-22q0 -19 -19 -19h-58q-18 0 -18 19v8q0 83 -113 83q-114 0 -114 -83v-156q39 42 128 42q107 0 154 -42.5t47 -111.5v-110q0 -154 -213 -154t-213 154zM396 159v83q0 44 -26 65.5t-90 21.5q-116 0 -116 -79v-91
q0 -43 26 -64.5t90 -21.5t90 21.5t26 64.5z" />
    <glyph glyph-name="seven.tab" unicode="&#xff17;" horiz-adv-x="550" 
d="M64 680h420q19 0 19 -19v-44q0 -8 -4 -16l-250 -581q-9 -20 -24 -20h-70q-22 0 -13 20l250 577h-328q-20 0 -20 19v45q0 19 20 19z" />
    <glyph glyph-name="eight.tab" unicode="&#xff18;" horiz-adv-x="550" 
d="M72 469v65q0 71 44 112.5t159 41.5t159 -41.5t44 -112.5v-65q0 -86 -84 -111q93 -26 93 -112v-100q0 -154 -212 -154t-212 154v100q0 86 93 112q-84 25 -84 111zM383 484v37q0 44 -23 65t-85 21t-84.5 -21t-22.5 -65v-37q0 -45 22.5 -66t84.5 -21t85 21.5t23 65.5z
M391 159v72q0 43 -26 64.5t-90 21.5t-89.5 -21t-25.5 -65v-72q0 -43 25.5 -64.5t89.5 -21.5t90 21.5t26 64.5z" />
    <glyph glyph-name="nine.tab" unicode="&#xff19;" horiz-adv-x="550" 
d="M483 534v-392q0 -65 -47.5 -107.5t-162.5 -42.5q-208 0 -208 150v22q0 19 19 19h58q18 0 18 -19v-8q0 -40 25 -61.5t88 -21.5q62 0 87.5 21.5t25.5 61.5v155q-38 -41 -128 -41q-106 0 -153.5 43t-47.5 111v110q0 154 214 154q212 0 212 -154zM386 521q0 43 -26 64.5
t-89 21.5q-64 0 -90.5 -21.5t-26.5 -64.5v-83q0 -44 26.5 -65.5t90.5 -21.5q62 0 88.5 21t26.5 62v87z" />
    <glyph glyph-name="Lgeminada" horiz-adv-x="942" 
d="M180 660v-577h256q19 0 19 -18v-46q0 -19 -19 -19h-338q-16 0 -16 20v640q0 20 19 20h61q18 0 18 -20zM651 660v-577h256q19 0 19 -18v-46q0 -19 -19 -19h-338q-16 0 -16 20v640q0 20 19 20h61q18 0 18 -20zM415 394v-80q0 -19 -18 -19h-60q-19 0 -19 19v80q0 19 19 19
h60q18 0 18 -19z" />
    <glyph glyph-name="lgeminada" horiz-adv-x="555" 
d="M164 679v-659q0 -20 -18 -20h-58q-19 0 -19 20v659q0 20 19 20h58q18 0 18 -20zM486 679v-659q0 -20 -18 -20h-58q-19 0 -19 20v659q0 20 19 20h58q18 0 18 -20zM326 394v-80q0 -19 -18 -19h-60q-19 0 -19 19v80q0 19 19 19h60q18 0 18 -19z" />
    <glyph glyph-name="acute.case" horiz-adv-x="212" 
d="M203 859l-77 -112q-7 -12 -24 -12h-46q-20 0 -10 18l59 107q10 18 26 18h62q22 0 10 -19z" />
    <glyph glyph-name="grave.case" horiz-adv-x="212" 
d="M105 747l-76 111q-6 8 -3.5 14t12.5 6h62q16 0 26 -19l59 -106q10 -19 -9 -19h-47q-15 0 -24 13z" />
    <glyph glyph-name="hungarumlaut.case" horiz-adv-x="212" 
d="M242 859l-74 -107q-11 -17 -27 -17h-45q-20 0 -9 18l64 106q11 19 29 19h53q21 0 9 -19zM107 859l-59 -106q-10 -18 -25 -18h-43q-21 0 -12 18l49 106q8 19 27 19h50q10 0 14 -6t-1 -13z" />
    <glyph glyph-name="circumflex.case" horiz-adv-x="212" 
d="M106 820l-41 -67q-10 -18 -27 -18h-45q-10 0 -12.5 5.5t2.5 12.5l75 106q14 19 30 19h35q16 0 30 -19l75 -106q6 -7 3 -12.5t-13 -5.5h-45q-15 0 -26 18z" />
    <glyph glyph-name="caron.case" horiz-adv-x="212" 
d="M65 859l41 -66l41 66q13 19 26 19h45q10 0 13 -5.5t-3 -13.5l-75 -106q-13 -18 -30 -18h-35q-16 0 -30 19l-75 105q-6 8 -3 13.5t13 5.5h45q14 0 27 -19z" />
    <glyph glyph-name="breve.case" horiz-adv-x="212" 
d="M49 871v-17q0 -27 12.5 -41.5t45.5 -14.5t45.5 14.5t12.5 41.5v17q0 17 17 17h35q17 0 17 -17v-15q0 -118 -129 -118q-126 0 -126 118v15q0 17 17 17h36q17 0 17 -17z" />
    <glyph glyph-name="tilde.case" horiz-adv-x="212" 
d="M174 816q12 0 15.5 8t3.5 30v7q0 17 21 17h31q16 0 16 -22l-1 -32q-1 -39 -24.5 -59.5t-56.5 -20.5q-32 0 -58 16l-43 26q-33 19 -40 19q-13 0 -16 -7.5t-3 -30.5v-7q0 -17 -20 -17h-32q-16 0 -16 22l1 32q1 40 24 60t56 20t59 -16l43 -26q33 -19 40 -19z" />
    <glyph glyph-name="macron.case" horiz-adv-x="212" 
d="M-15 836h243q19 0 19 -18v-36q0 -19 -19 -19h-243q-19 0 -19 19v36q0 18 19 18z" />
    <glyph glyph-name="dieresis.case" horiz-adv-x="212" 
d="M81 853v-95q0 -19 -18 -19h-35q-18 0 -18 19v95q0 20 18 20h35q18 0 18 -20zM202 853v-95q0 -19 -18 -19h-35q-18 0 -18 19v95q0 20 18 20h35q18 0 18 -20z" />
    <glyph glyph-name="dotaccent.case" horiz-adv-x="212" 
d="M154 839v-80q0 -19 -18 -19h-60q-18 0 -18 19v80q0 19 18 19h60q18 0 18 -19z" />
    <glyph glyph-name="ring.case" horiz-adv-x="212" 
d="M206 815v-23q0 -33 -25.5 -54.5t-74.5 -21.5t-74.5 21.5t-25.5 54.5v23q0 33 25.5 54.5t74.5 21.5t74.5 -21.5t25.5 -54.5zM149 800v7q0 34 -43 34t-43 -34v-7q0 -34 43 -34t43 34z" />
    </font>
</defs>
</svg>
