<?xml version="1.0" standalone="no"?>
<!DOCTYPE svg PUBLIC "-//W3C//DTD SVG 1.1//EN" "http://www.w3.org/Graphics/SVG/1.1/DTD/svg11.dtd" >
<svg xmlns="http://www.w3.org/2000/svg" xmlns:xlink="http://www.w3.org/1999/xlink" version="1.1">
<metadata>
Created by FontForge 20170731 at Thu Dec 15 23:01:37 2016
 By Aleksey,,,
Copyright (c) 2008-2016 by Eduardo Manso. All rights reserved.
</metadata>
<defs>
<font id="Geogrotesque-Lt" horiz-adv-x="307" >
  <font-face 
    font-family="Geogrotesque Light"
    font-weight="300"
    font-stretch="normal"
    units-per-em="1000"
    panose-1="0 0 0 0 0 0 0 0 0 0"
    ascent="750"
    descent="-250"
    x-height="493"
    cap-height="680"
    bbox="-137.562 -218 1416 964"
    underline-thickness="36"
    underline-position="-197"
    unicode-range="U+000D-FF19"
  />
<missing-glyph horiz-adv-x="862" 
d="M678 94q-102 -102 -249 -102q-144 0 -246 102q-103 101 -103 247q0 144 103 247q102 102 246 102q147 0 249 -102q103 -103 103 -247q0 -146 -103 -247zM666 106q99 99 99 235t-99 235q-98 98 -237 98q-136 0 -234 -98q-99 -99 -99 -235q0 -137 99 -235q98 -98 234 -98
q139 0 237 98zM554 188l-123 122l-122 -122q-8 -8 -17 1l-14 14q-8 9 0 17l122 122l-122 122q-9 9 -1 17l15 15q8 8 17 0l122 -123l124 123q8 8 16 0l15 -14q10 -9 0 -18l-124 -122l123 -123q9 -9 0 -17l-14 -15q-7 -9 -17 1z" />
    <glyph glyph-name="fi" unicode="fi" horiz-adv-x="531" 
d="M448 479v-467q0 -12 -11 -12h-29q-12 0 -12 12v436h-238v-436q0 -12 -12 -12h-29q-11 0 -11 12v436h-65q-12 0 -12 12v16q0 12 12 12l55 3h10v85q0 123 179 123h128q12 0 12 -12v-21q0 -12 -12 -12h-128q-127 0 -127 -83v-80h278q12 0 12 -12z" />
    <glyph glyph-name="fl" unicode="fl" horiz-adv-x="531" 
d="M448 687v-675q0 -12 -11 -12h-29q-12 0 -12 12v642h-111q-127 0 -127 -83v-80h116q12 0 12 -11v-20q0 -12 -12 -12h-116v-436q0 -12 -12 -12h-29q-11 0 -11 12v436h-65q-12 0 -12 12v16q0 12 12 12l55 3h10v85q0 123 179 123h151q12 0 12 -12z" />
    <glyph glyph-name=".notdef" horiz-adv-x="862" 
d="M678 94q-102 -102 -249 -102q-144 0 -246 102q-103 101 -103 247q0 144 103 247q102 102 246 102q147 0 249 -102q103 -103 103 -247q0 -146 -103 -247zM666 106q99 99 99 235t-99 235q-98 98 -237 98q-136 0 -234 -98q-99 -99 -99 -235q0 -137 99 -235q98 -98 234 -98
q139 0 237 98zM554 188l-123 122l-122 -122q-8 -8 -17 1l-14 14q-8 9 0 17l122 122l-122 122q-9 9 -1 17l15 15q8 8 17 0l122 -123l124 123q8 8 16 0l15 -14q10 -9 0 -18l-124 -122l123 -123q9 -9 0 -17l-14 -15q-7 -9 -17 1z" />
    <glyph glyph-name=".null" horiz-adv-x="0" 
 />
    <glyph glyph-name=".null" horiz-adv-x="0" 
 />
    <glyph glyph-name="nonmarkingreturn" horiz-adv-x="333" 
 />
    <glyph glyph-name="CR" unicode="&#xd;" horiz-adv-x="0" 
 />
    <glyph glyph-name="space" unicode=" " horiz-adv-x="232" 
 />
    <glyph glyph-name="exclam" unicode="!" horiz-adv-x="221" 
d="M138 390l-5 -221q0 -12 -12 -12h-21q-11 0 -11 12l-6 221v278q0 12 12 12h31q12 0 12 -12v-278zM137 89v-77q0 -12 -12 -12h-30q-11 0 -11 12v77q0 12 11 12h30q12 0 12 -12z" />
    <glyph glyph-name="quotedbl" unicode="&#x22;" horiz-adv-x="322" 
d="M118 495q0 -13 -11 -13h-20q-12 0 -12 13l-4 173q0 12 11 12h30q11 0 11 -12zM247 495q0 -13 -12 -13h-20q-12 0 -12 13l-4 173q0 12 11 12h29q12 0 12 -12z" />
    <glyph glyph-name="numbersign" unicode="#" horiz-adv-x="575" 
d="M164 12q-2 -12 -11 -12h-22q-14 0 -12 12l27 212h-85q-12 0 -12 12v16q0 12 12 12h91l19 153h-85q-12 0 -12 12v16q0 12 12 12h91l27 211q2 12 13 12h21q13 0 11 -12l-27 -211h161l27 211q2 12 12 12h21q14 0 12 -12l-28 -211h87q12 0 12 -12v-16q0 -12 -12 -12h-92
l-20 -153h87q12 0 12 -12v-16q0 -12 -12 -12h-92l-28 -212q-1 -12 -11 -12h-21q-14 0 -12 12l27 212h-161zM197 264h161l19 153h-161z" />
    <glyph glyph-name="dollar" unicode="$" horiz-adv-x="476" 
d="M256 0h-29q-12 0 -12 12v74q-78 4 -116 33t-38 74v28q0 11 11 11h27q10 0 10 -11v-26q0 -32 32.5 -51t94.5 -19q63 0 96 19t33 51v45q0 41 -63 61l-156 49q-30 10 -54 35.5t-24 59.5v40q0 45 35.5 74.5t111.5 33.5v75q0 12 12 12h29q11 0 11 -12v-75q71 -6 105 -35
t34 -73v-31q0 -11 -12 -11h-26q-10 0 -10 11v31q0 69 -122 69q-119 0 -119 -69v-31q0 -23 17 -39.5t39 -22.5l156 -49q84 -27 84 -91v-59q0 -43 -36 -72t-110 -35v-74q0 -12 -11 -12z" />
    <glyph glyph-name="percent" unicode="%" horiz-adv-x="719" 
d="M534 676l-308 -672q-5 -12 -17 -12h-23q-11 0 -6 12l309 672q5 12 17 12h22q12 0 6 -12zM58 411v190q0 83 116 83q117 0 117 -83v-190q0 -82 -117 -82q-116 0 -116 82zM248 417v178q0 27 -16.5 40t-57.5 13t-57.5 -13t-16.5 -40v-178q0 -52 74 -52t74 52zM428 79v190
q0 82 117 82q116 0 116 -82v-190q0 -83 -116 -83q-117 0 -117 83zM618 85v178q0 26 -16.5 39t-56.5 13q-41 0 -57.5 -13t-16.5 -39v-178q0 -27 16.5 -40t57.5 -13q40 0 56.5 13t16.5 40z" />
    <glyph glyph-name="ampersand" unicode="&#x26;" horiz-adv-x="641" 
d="M512 131q0 -63 -52 -101t-167 -38q-218 0 -218 138v117q0 48 20 76t75 40q-51 12 -70 39.5t-19 73.5v74q0 65 42 101.5t148 36.5q107 0 149.5 -37t42.5 -102v-19q0 -12 -12 -12h-29q-11 0 -11 12v13q0 49 -30.5 74.5t-108.5 25.5t-108 -25.5t-30 -74.5v-60
q0 -50 28.5 -74t110.5 -24h318q12 0 12 -12v-22q0 -11 -12 -11h-79v-209zM294 37q167 0 167 100v203h-194q-82 0 -111 -24.5t-29 -74.5v-104q0 -100 167 -100z" />
    <glyph glyph-name="quotesingle" unicode="'" horiz-adv-x="194" 
d="M123 668l-5 -173q0 -13 -11 -13h-20q-12 0 -12 13l-4 173q0 12 11 12h30q11 0 11 -12z" />
    <glyph glyph-name="parenleft" unicode="(" horiz-adv-x="305" 
d="M80 -95v680q0 123 179 123h6q12 0 12 -12v-21q0 -12 -12 -12h-6q-69 0 -97 -21.5t-28 -61.5v-670q0 -40 28 -61.5t97 -21.5h6q12 0 12 -12v-21q0 -12 -12 -12h-6q-179 0 -179 123z" />
    <glyph glyph-name="parenright" unicode=")" horiz-adv-x="304" 
d="M224 585v-680q0 -123 -179 -123h-5q-12 0 -12 12v21q0 12 12 12h5q69 0 97 21.5t28 61.5v670q0 40 -28 61.5t-97 21.5h-5q-12 0 -12 12v21q0 12 12 12h5q179 0 179 -123z" />
    <glyph glyph-name="asterisk" unicode="*" horiz-adv-x="444" 
d="M214 368q-11 0 -11 13l3 131l-112 -73q-11 -7 -17 4l-7 14q-6 11 5 16l114 65l-114 66q-11 6 -5 16l7 13q6 13 17 5l113 -74l-4 134q0 12 12 12h15q11 0 11 -12l-4 -134l113 74q11 8 17 -5l7 -13q6 -10 -5 -16l-115 -66l115 -65q10 -5 5 -16l-7 -14q-6 -11 -17 -4
l-113 72l4 -130q0 -13 -11 -13h-16z" />
    <glyph glyph-name="plus" unicode="+" horiz-adv-x="515" 
d="M234 144v173h-172q-12 0 -12 11v22q0 12 12 12h172v173q0 12 12 12h20q12 0 12 -12v-173h175q12 0 12 -12v-22q0 -11 -12 -11h-175v-173q0 -12 -12 -12h-20q-12 0 -12 12z" />
    <glyph glyph-name="comma" unicode="," horiz-adv-x="201" 
d="M74 30v59q0 12 12 12h30q11 0 11 -12v-61q0 -85 -88 -114q-11 -3 -15 7l-7 21q-4 11 7 15q50 23 50 73z" />
    <glyph glyph-name="hyphen" unicode="-" horiz-adv-x="436" 
d="M84 311h268q12 0 12 -11v-21q0 -12 -12 -12h-268q-12 0 -12 12v21q0 11 12 11z" />
    <glyph glyph-name="period" unicode="." horiz-adv-x="200" 
d="M126 89v-77q0 -12 -11 -12h-30q-12 0 -12 12v77q0 12 12 12h30q11 0 11 -12z" />
    <glyph glyph-name="slash" unicode="/" horiz-adv-x="349" 
d="M312 687l-220 -823q-3 -12 -14 -12h-32q-12 0 -9 12l220 823q3 12 15 12h32q11 0 8 -12z" />
    <glyph glyph-name="zero" unicode="0" horiz-adv-x="559" 
d="M81 133v414q0 66 44 103.5t154 37.5q111 0 155 -37.5t44 -103.5v-414q0 -66 -44 -103.5t-155 -37.5q-110 0 -154 37.5t-44 103.5zM425 141v398q0 50 -32 76.5t-114 26.5t-113.5 -26.5t-31.5 -76.5v-398q0 -50 31.5 -76.5t113.5 -26.5t114 26.5t32 76.5z" />
    <glyph glyph-name="one" unicode="1" horiz-adv-x="494" 
d="M69 628l208 54q11 2 11 -10v-626h166q12 0 12 -12v-22q0 -12 -12 -12h-386q-11 0 -11 12v22q0 12 11 12h167v579l-166 -45q-11 -3 -11 10v23q0 12 11 15z" />
    <glyph glyph-name="two" unicode="2" horiz-adv-x="535" 
d="M133 46h321q11 0 11 -12v-22q0 -12 -11 -12h-363q-12 0 -12 12v186q0 76 89 101l179 53q63 20 63 74v114q0 51 -31 77t-113 26q-81 0 -112 -26.5t-31 -76.5v-49q0 -13 -11 -13h-29q-12 0 -12 13v56q0 66 42.5 103.5t152.5 37.5q111 0 154 -37.5t43 -103.5v-120
q0 -50 -28.5 -78t-59.5 -37l-171 -49q-71 -19 -71 -70v-147z" />
    <glyph glyph-name="three" unicode="3" horiz-adv-x="532" 
d="M171 385h88q82 0 110.5 24t28.5 74v60q0 49 -30 74.5t-108 25.5q-79 0 -109 -25.5t-30 -74.5v-13q0 -12 -12 -12h-29q-11 0 -11 12v19q0 65 42 102t149 37t148.5 -36.5t41.5 -101.5v-74q0 -47 -19 -74t-70 -39q55 -12 75 -40t20 -76v-117q0 -65 -43.5 -101.5
t-151.5 -36.5q-109 0 -153 37t-44 102v19q0 12 11 12h29q12 0 12 -12v-13q0 -49 32.5 -74.5t111.5 -25.5q80 0 112 25.5t32 74.5v104q0 50 -28.5 74.5t-110.5 24.5h-94q-12 0 -12 11v22q0 12 12 12z" />
    <glyph glyph-name="four" unicode="4" horiz-adv-x="522" 
d="M244 668l-148 -398h288v398q0 12 12 12h30q11 0 11 -12v-656q0 -12 -11 -12h-30q-12 0 -12 12v212h-332q-12 0 -12 12v14q0 12 5 24l145 394q4 12 15 12h30q14 0 9 -12z" />
    <glyph glyph-name="five" unicode="5" horiz-adv-x="515" 
d="M95 680h324q13 0 13 -12v-22q0 -12 -13 -12h-283v-225h119q94 0 143 -33t49 -94v-151q0 -67 -40.5 -103t-148.5 -36t-148.5 36t-40.5 103v19q0 12 12 12h29q12 0 12 -12v-13q0 -51 28 -75.5t108 -24.5t108 24.5t28 75.5v138q0 89 -139 89h-160q-12 0 -12 12v292
q0 12 12 12z" />
    <glyph glyph-name="six" unicode="6" horiz-adv-x="543" 
d="M81 133v420q0 135 193 135q191 0 191 -135v-16q0 -12 -12 -12h-29q-11 0 -11 12v10q0 96 -139 96q-80 0 -110.5 -26t-30.5 -70v-200q33 55 149 55q106 0 148 -37.5t42 -103.5v-128q0 -66 -42.5 -103.5t-153.5 -37.5q-110 0 -152.5 37.5t-42.5 103.5zM419 139v116
q0 51 -30.5 76.5t-112.5 25.5q-78 0 -110.5 -24t-32.5 -69v-125q0 -50 31 -76t112 -26q82 0 112.5 26t30.5 76z" />
    <glyph glyph-name="seven" unicode="7" horiz-adv-x="490" 
d="M45 680h404q11 0 11 -12v-22q0 -5 -2 -11l-260 -623q-5 -12 -15 -12h-35q-14 0 -9 12l261 622h-355q-12 0 -12 12v22q0 12 12 12z" />
    <glyph glyph-name="eight" unicode="8" horiz-adv-x="540" 
d="M82 482v65q0 67 39 104t149 37q109 0 148.5 -37t39.5 -104v-65q0 -48 -20.5 -77t-75.5 -41q57 -12 80 -41.5t23 -76.5v-113q0 -66 -42.5 -103.5t-152.5 -37.5t-152.5 37.5t-42.5 103.5v113q0 47 22.5 76.5t78.5 41.5q-53 12 -73.5 41t-20.5 77zM406 489v52
q0 51 -27.5 76.5t-108.5 25.5t-108.5 -25.5t-27.5 -76.5v-52q0 -52 27.5 -77.5t108.5 -25.5t108.5 25.5t27.5 77.5zM412 139v100q0 51 -30.5 77t-111.5 26q-82 0 -112 -26t-30 -77v-100q0 -50 30 -76t112 -26q81 0 111.5 26t30.5 76z" />
    <glyph glyph-name="nine" unicode="9" horiz-adv-x="543" 
d="M462 547v-420q0 -135 -192 -135q-191 0 -191 135v16q0 12 11 12h29q11 0 11 -12v-10q0 -96 140 -96q79 0 109 26t30 70v199q-31 -54 -148 -54q-106 0 -148 37.5t-42 103.5v128q0 66 42.5 103.5t153.5 37.5q110 0 152.5 -37.5t42.5 -103.5zM409 541q0 50 -30.5 76
t-111.5 26q-82 0 -113 -26t-31 -76v-116q0 -50 31 -76t113 -26q79 0 110.5 24.5t31.5 70.5v123z" />
    <glyph glyph-name="colon" unicode=":" horiz-adv-x="210" 
d="M131 480v-77q0 -12 -11 -12h-30q-12 0 -12 12v77q0 13 12 13h30q11 0 11 -13zM131 89v-77q0 -12 -11 -12h-30q-12 0 -12 12v77q0 12 12 12h30q11 0 11 -12z" />
    <glyph glyph-name="semicolon" unicode=";" horiz-adv-x="238" 
d="M150 480v-77q0 -12 -11 -12h-30q-12 0 -12 12v77q0 13 12 13h30q11 0 11 -13zM97 30v59q0 12 12 12h30q11 0 11 -12v-61q0 -85 -88 -114q-11 -3 -15 7l-8 21q-4 10 8 15q50 23 50 73z" />
    <glyph glyph-name="less" unicode="&#x3c;" horiz-adv-x="497" 
d="M410 478l-310 -138l310 -137q12 -6 12 -14v-29q0 -14 -12 -9l-351 160q-11 5 -11 13v32q0 9 11 14l351 160q12 5 12 -9v-29q0 -8 -12 -14z" />
    <glyph glyph-name="equal" unicode="=" horiz-adv-x="584" 
d="M93 442h397q12 0 12 -12v-21q0 -12 -12 -12h-397q-12 0 -12 12v21q0 12 12 12zM93 271h397q12 0 12 -12v-21q0 -12 -12 -12h-397q-12 0 -12 12v21q0 12 12 12z" />
    <glyph glyph-name="greater" unicode="&#x3e;" horiz-adv-x="498" 
d="M398 340l-311 138q-11 5 -11 13v30q0 15 11 10l352 -161q11 -6 11 -13v-33q0 -8 -11 -13l-352 -161q-11 -5 -11 10v29q0 9 11 14z" />
    <glyph glyph-name="question" unicode="?" horiz-adv-x="502" 
d="M212 169v81q0 64 67 97l64 32q54 29 54 82v79q0 50 -34 76.5t-116 26.5t-115.5 -26.5t-33.5 -76.5v-49q0 -13 -12 -13h-28q-12 0 -12 13v56q0 141 201 141q203 0 203 -141v-84q0 -83 -80 -123l-53 -26q-52 -25 -52 -75v-70q0 -12 -11 -12h-30q-12 0 -12 12zM265 89v-77
q0 -12 -11 -12h-30q-12 0 -12 12v77q0 12 12 12h30q11 0 11 -12z" />
    <glyph glyph-name="at" unicode="@" horiz-adv-x="790" 
d="M581 -113h-186q-94 0 -158.5 12.5t-97.5 36t-46.5 50.5t-13.5 62v407q0 36 13.5 63t47 50t97.5 35.5t158 12.5q93 0 157.5 -12.5t98 -35.5t47 -50t13.5 -63v-299q0 -123 -116 -123q-81 0 -101 65q-76 -65 -162 -65q-126 0 -114 122l18 180q12 124 134 124q75 0 144 -59
l6 39q2 12 13 12h24q11 0 10 -12l-27 -275q-4 -41 10.5 -66t48.5 -25q61 0 61 89v292q0 37 -21.5 62t-82 41t-161.5 16q-147 0 -206 -31t-59 -88v-404q0 -37 21.5 -62t82 -41t161.5 -16h186q12 0 12 -12v-20q0 -12 -12 -12zM286 327l-17 -165q-4 -39 15.5 -59.5t65.5 -20.5
q63 0 137 53q0 11 1 18l21 203l-7 6q-8 6 -10.5 8t-10.5 8t-13 8.5t-13.5 7.5t-16 7.5t-17 5.5t-19.5 4t-20 1q-87 0 -96 -85z" />
    <glyph glyph-name="A" unicode="A" horiz-adv-x="525" 
d="M247 680h31q12 0 15 -12l203 -656q4 -12 -10 -12h-30q-11 0 -14 12l-61 194h-241l-59 -194q-3 -12 -14 -12h-29q-12 0 -9 12l203 656q3 12 15 12zM369 249l-83 268q-17 57 -25 106q-13 -71 -23 -104l-85 -270h216z" />
    <glyph glyph-name="B" unicode="B" horiz-adv-x="578" 
d="M303 0h-195q-12 0 -12 12v656q0 12 12 12h169q209 0 209 -137v-68q0 -91 -95 -119q121 -24 121 -124v-92q0 -140 -209 -140zM277 635h-128v-262h139q145 0 145 103v60q0 48 -36 73.5t-120 25.5zM303 330h-154v-285h154q156 0 156 102v82q0 101 -156 101z" />
    <glyph glyph-name="C" unicode="C" horiz-adv-x="548" 
d="M493 198v-65q0 -141 -204 -141t-204 141v414q0 141 204 141t204 -141v-52q0 -13 -11 -13h-29q-12 0 -12 13v44q0 49 -34.5 76t-117.5 27t-117 -26.5t-34 -76.5v-398q0 -50 34 -76.5t117 -26.5t117.5 27t34.5 76v57q0 11 12 11h29q11 0 11 -11z" />
    <glyph glyph-name="D" unicode="D" horiz-adv-x="598" 
d="M305 0h-198q-11 0 -11 12v656q0 12 11 12h198q209 0 209 -141v-398q0 -141 -209 -141zM305 634h-156v-588h156q156 0 156 103v382q0 103 -156 103z" />
    <glyph glyph-name="E" unicode="E" horiz-adv-x="523" 
d="M461 0h-354q-11 0 -11 12v656q0 12 12 12h341q12 0 12 -12v-22q0 -12 -12 -12h-300v-254h282q12 0 12 -12v-21q0 -12 -12 -12h-282v-289h312q12 0 12 -12v-22q0 -12 -12 -12z" />
    <glyph glyph-name="F" unicode="F" horiz-adv-x="533" 
d="M108 680h367q12 0 12 -12v-22q0 -12 -12 -12h-326v-256h308q12 0 12 -12v-22q0 -12 -12 -12h-308v-320q0 -12 -11 -12h-30q-12 0 -12 12v656q0 12 12 12z" />
    <glyph glyph-name="G" unicode="G" horiz-adv-x="570" 
d="M298 319h183q12 0 12 -12v-174q0 -141 -204 -141t-204 141v414q0 141 204 141t204 -141v-50q0 -12 -11 -12h-29q-12 0 -12 12v42q0 49 -34.5 76t-117.5 27t-117 -26.5t-34 -76.5v-398q0 -50 34 -76.5t117 -26.5q152 0 152 101v134h-143q-12 0 -12 12v22q0 12 12 12z" />
    <glyph glyph-name="H" unicode="H" horiz-adv-x="610" 
d="M149 668v-282h312v282q0 12 11 12h31q11 0 11 -12v-656q0 -12 -11 -12h-31q-11 0 -11 12v328h-312v-328q0 -12 -11 -12h-30q-12 0 -12 12v656q0 12 12 12h30q11 0 11 -12z" />
    <glyph glyph-name="I" unicode="I" horiz-adv-x="245" 
d="M149 668v-656q0 -12 -11 -12h-30q-12 0 -12 12v656q0 12 12 12h30q11 0 11 -12z" />
    <glyph glyph-name="J" unicode="J" horiz-adv-x="492" 
d="M85 174v-33q0 -50 28.5 -76.5t102.5 -26.5t102 26.5t28 76.5v527q0 12 12 12h30q12 0 12 -12v-535q0 -66 -41 -103.5t-143 -37.5t-143 37.5t-41 103.5v41q0 12 12 12h29q12 0 12 -12z" />
    <glyph glyph-name="K" unicode="K" horiz-adv-x="538" 
d="M229 344l289 -332q3 -4 1 -8t-7 -4h-43q-7 0 -19 12l-268 308h-33v-308q0 -12 -11 -12h-30q-12 0 -12 12v656q0 12 12 12h30q11 0 11 -12v-307h32l246 308q9 11 20 11h36q15 0 6 -12z" />
    <glyph glyph-name="L" unicode="L" horiz-adv-x="478" 
d="M149 668v-622h296q12 0 12 -12v-22q0 -12 -12 -12h-339q-10 0 -10 12v656q0 12 12 12h30q11 0 11 -12z" />
    <glyph glyph-name="M" unicode="M" horiz-adv-x="720" 
d="M624 668v-656q0 -12 -11 -12h-29q-12 0 -12 12v554q-9 -31 -18 -53l-164 -397q-4 -12 -16 -12h-28q-10 0 -15 12l-170 404q-9 21 -15 45v-553q0 -12 -11 -12h-27q-12 0 -12 12v656q0 12 12 12h27q8 0 11 -7l198 -467q5 -13 16 -47q5 16 17 46l196 469q3 6 11 6h29
q11 0 11 -12z" />
    <glyph glyph-name="N" unicode="N" horiz-adv-x="609" 
d="M513 668v-656q0 -12 -11 -12h-27q-8 0 -11 6l-286 509q-10 17 -32 61v-564q0 -12 -11 -12h-27q-12 0 -12 12v656q0 12 12 12h27q7 0 10 -5l289 -513q22 -39 29 -57v563q0 12 12 12h27q11 0 11 -12z" />
    <glyph glyph-name="O" unicode="O" horiz-adv-x="587" 
d="M85 133v414q0 141 208 141q210 0 210 -141v-414q0 -141 -210 -141q-208 0 -208 141zM449 141v398q0 103 -156 103q-155 0 -155 -103v-398q0 -103 155 -103q156 0 156 103z" />
    <glyph glyph-name="P" unicode="P" horiz-adv-x="565" 
d="M302 269h-153v-257q0 -12 -11 -12h-30q-12 0 -12 12v656q0 12 11 12h195q209 0 209 -141v-129q0 -141 -209 -141zM302 634h-153v-319h153q156 0 156 103v113q0 103 -156 103z" />
    <glyph glyph-name="Q" unicode="Q" horiz-adv-x="587" 
d="M478 -169q-7 -9 -16 -1l-174 162q-203 1 -203 141v414q0 141 208 141q210 0 210 -141v-414q0 -120 -153 -138l143 -131q9 -8 1 -16zM449 141v398q0 103 -156 103q-155 0 -155 -103v-398q0 -103 155 -103q156 0 156 103z" />
    <glyph glyph-name="R" unicode="R" horiz-adv-x="583" 
d="M149 12q0 -12 -11 -12h-30q-12 0 -12 12v656q0 12 11 12h195q209 0 209 -141v-116q0 -110 -127 -134l136 -277q5 -12 -11 -12h-34q-10 0 -15 12l-130 271q-9 -1 -28 -1h-153v-270zM302 634h-153v-307h153q156 0 156 103v101q0 103 -156 103z" />
    <glyph glyph-name="S" unicode="S" horiz-adv-x="548" 
d="M422 498v43q0 49 -33.5 75.5t-114.5 26.5q-83 0 -116.5 -26.5t-33.5 -75.5v-37q0 -60 64 -85l192 -73q100 -38 100 -125v-88q0 -141 -208 -141q-207 0 -207 141v52q0 13 11 13h29q12 0 12 -13v-46q0 -102 155 -102t155 102v71q0 61 -83 93l-185 72q-36 14 -61.5 44.5
t-25.5 73.5v54q0 141 201 141t201 -141v-49q0 -12 -11 -12h-29q-12 0 -12 12z" />
    <glyph glyph-name="T" unicode="T" horiz-adv-x="488" 
d="M36 680h416q12 0 12 -12v-22q0 -12 -12 -12h-182v-622q0 -12 -11 -12h-30q-12 0 -12 12v622h-181q-12 0 -12 12v22q0 12 12 12z" />
    <glyph glyph-name="U" unicode="U" horiz-adv-x="603" 
d="M146 668v-527q0 -103 155 -103q157 0 157 103v527q0 12 11 12h30q12 0 12 -12v-535q0 -141 -210 -141q-208 0 -208 141v535q0 12 12 12h29q12 0 12 -12z" />
    <glyph glyph-name="V" unicode="V" horiz-adv-x="525" 
d="M278 0h-31q-12 0 -15 12l-203 656q-4 12 9 12h33q9 0 14 -12l156 -505q12 -43 22 -95q8 45 23 93l157 507q3 12 14 12h29q14 0 10 -12l-203 -656q-3 -12 -15 -12z" />
    <glyph glyph-name="W" unicode="W" horiz-adv-x="808" 
d="M434 668l129 -506q11 -47 15 -74q6 33 16 74l130 506q3 12 14 12h27q12 0 9 -12l-166 -656q-3 -12 -16 -12h-30q-11 0 -14 12l-131 514q-5 18 -13 65q-8 -46 -13 -66l-131 -513q-3 -12 -15 -12h-30q-11 0 -14 12l-167 656q-3 12 10 12h30q11 0 14 -12l129 -506
q3 -13 15 -71q4 21 17 71l129 506q3 12 14 12h28q11 0 14 -12z" />
    <glyph glyph-name="X" unicode="X" horiz-adv-x="523" 
d="M292 344l198 -332q6 -12 -7 -12h-36q-10 0 -18 12l-170 285l-166 -285q-6 -12 -17 -12h-33q-13 0 -6 13l194 333l-190 321q-7 13 5 13h36q11 0 18 -12l166 -278l158 278q7 12 17 12h33q13 0 6 -12z" />
    <glyph glyph-name="Y" unicode="Y" horiz-adv-x="516" 
d="M82 668l162 -308q8 -16 14 -34q5 15 15 34l164 308q6 12 15 12h30q15 0 8 -12l-205 -386v-270q0 -12 -12 -12h-29q-12 0 -12 12v264l-207 392q-6 12 9 12h34q8 0 14 -12z" />
    <glyph glyph-name="Z" unicode="Z" horiz-adv-x="475" 
d="M65 680h347q13 0 13 -12v-21q0 -4 -3 -10l-323 -591h329q11 0 11 -12v-22q0 -12 -11 -12h-381q-12 0 -12 12v22q0 6 2 9l321 591h-293q-12 0 -12 12v22q0 12 12 12z" />
    <glyph glyph-name="bracketleft" unicode="[" horiz-adv-x="308" 
d="M83 -199v886q0 12 12 12h174q12 0 12 -12v-22q0 -12 -12 -12h-133v-818h133q12 0 12 -12v-22q0 -12 -12 -12h-174q-12 0 -12 12z" />
    <glyph glyph-name="backslash" unicode="\" horiz-adv-x="349" 
d="M257 -136l-220 823q-3 12 9 12h32q11 0 14 -12l220 -823q3 -12 -8 -12h-32q-12 0 -15 12z" />
    <glyph glyph-name="bracketright" unicode="]" horiz-adv-x="308" 
d="M225 687v-886q0 -12 -12 -12h-174q-12 0 -12 12v22q0 12 12 12h133v818h-133q-12 0 -12 12v22q0 12 12 12h174q12 0 12 -12z" />
    <glyph glyph-name="asciicircum" unicode="^" horiz-adv-x="483" 
d="M379 317l-138 310l-138 -310q-5 -12 -13 -12h-29q-15 0 -10 12l161 352q6 11 13 11h32q7 0 13 -11l161 -352q5 -12 -9 -12h-29q-9 0 -14 12z" />
    <glyph glyph-name="underscore" unicode="_" horiz-adv-x="380" 
d="M12 -88h357q11 0 11 -11v-21q0 -12 -11 -12h-357q-12 0 -12 12v21q0 11 12 11z" />
    <glyph glyph-name="grave" unicode="`" horiz-adv-x="336" 
d="M184 577l-81 119q-9 12 6 12h32q9 0 16 -10l72 -117q7 -11 -5 -11h-25q-10 0 -15 7z" />
    <glyph glyph-name="a" unicode="a" horiz-adv-x="498" 
d="M69 360v18q0 123 174 123q95 0 134.5 -32t39.5 -91v-366q0 -12 -11 -12h-25q-12 0 -12 12l-2 40q-76 -60 -170 -60q-67 0 -102 32.5t-35 83.5v51q0 51 32.5 83.5t92.5 32.5h181v99q0 40 -27 62t-96 22q-70 0 -97.5 -21.5t-27.5 -61.5v-15q0 -12 -12 -12h-26q-11 0 -11 12
zM208 36q83 0 158 59v138h-172q-83 0 -83 -80v-39q0 -78 97 -78z" />
    <glyph glyph-name="b" unicode="b" horiz-adv-x="519" 
d="M120 0h-25q-12 0 -12 12v675q0 12 12 12h29q11 0 11 -12v-247q77 61 173 61q69 0 103 -33t34 -90v-263q0 -57 -34 -90t-103 -33q-97 0 -174 61l-2 -41q0 -12 -12 -12zM393 122v249q0 37 -24 59.5t-74 22.5q-87 0 -160 -60v-295q80 -59 160 -59q50 0 74 23t24 60z" />
    <glyph glyph-name="c" unicode="c" horiz-adv-x="478" 
d="M249 501q96 0 135.5 -32.5t39.5 -91.5v-19q0 -12 -11 -12h-27q-12 0 -12 12v16q0 40 -27.5 61.5t-96.5 21.5t-97 -21.5t-28 -61.5v-255q0 -41 28 -62t97 -21t96.5 21t27.5 62v24q0 12 12 12h27q11 0 11 -12v-28q0 -123 -175 -123q-95 0 -135 32t-40 91v262q0 59 40 91.5
t135 32.5z" />
    <glyph glyph-name="d" unicode="d" horiz-adv-x="519" 
d="M387 12l-2 41q-77 -61 -174 -61q-69 0 -103 33t-34 90v263q0 57 34 90t103 33q93 0 173 -61v247q0 12 11 12h29q12 0 12 -12v-675q0 -12 -12 -12h-25q-12 0 -12 12zM126 371v-249q0 -37 24 -60t74 -23q80 0 160 59v295q-73 60 -160 60q-50 0 -74 -22.5t-24 -59.5z" />
    <glyph glyph-name="e" unicode="e" horiz-adv-x="494" 
d="M427 377v-124q0 -11 -11 -11h-291v-124q0 -40 28 -61.5t98 -21.5q71 0 99 21.5t28 61.5v21q0 12 12 12h25q12 0 12 -12v-24q0 -123 -177 -123q-96 0 -136 32t-40 91v262q0 124 177 124q96 0 136 -32.5t40 -91.5zM125 375v-93h253v93q0 83 -127 83q-126 0 -126 -83z" />
    <glyph glyph-name="f" unicode="f" horiz-adv-x="306" 
d="M96 491h10v91q0 123 179 123h5q12 0 12 -12v-20q0 -13 -12 -13h-5q-127 0 -127 -83v-86h116q12 0 12 -11v-20q0 -12 -12 -12h-116v-436q0 -12 -12 -12h-28q-12 0 -12 12v436h-65q-12 0 -12 12v16q0 12 12 12z" />
    <glyph glyph-name="g" unicode="g" horiz-adv-x="519" 
d="M211 -8q-69 0 -103 33t-34 90v263q0 57 34 90t103 33q96 0 174 -62l2 41q0 13 12 13h25q12 0 12 -13v-564q0 -124 -179 -124h-135q-12 0 -12 12v21q0 12 12 12h135q127 0 127 83v132q-78 -60 -173 -60zM126 371v-249q0 -37 24 -60t74 -23q80 0 160 59v295q-73 60 -160 60
q-50 0 -74 -22.5t-24 -59.5z" />
    <glyph glyph-name="h" unicode="h" horiz-adv-x="526" 
d="M135 687v-247q74 61 173 61q67 0 102 -32.5t35 -87.5v-369q0 -12 -11 -12h-29q-12 0 -12 12v359q0 83 -98 83q-87 0 -160 -60v-382q0 -12 -11 -12h-29q-12 0 -12 12v675q0 12 12 12h29q11 0 11 -12z" />
    <glyph glyph-name="i" unicode="i" horiz-adv-x="218" 
d="M135 687v-95q0 -12 -11 -12h-29q-12 0 -12 12v95q0 12 12 12h29q11 0 11 -12zM135 480v-468q0 -12 -11 -12h-29q-12 0 -12 12v468q0 13 12 13h29q11 0 11 -13z" />
    <glyph glyph-name="j" unicode="j" horiz-adv-x="218" 
d="M135 687v-95q0 -12 -11 -12h-29q-12 0 -12 12v95q0 12 12 12h29q11 0 11 -12zM135 480v-564q0 -124 -179 -124h-5q-12 0 -12 12v21q0 12 12 12h5q127 0 127 83v560q0 13 12 13h28q12 0 12 -13z" />
    <glyph glyph-name="k" unicode="k" horiz-adv-x="454" 
d="M214 279l223 -267q4 -4 2.5 -8t-7.5 -4h-38q-10 0 -21 12l-203 245h-35v-245q0 -12 -11 -12h-29q-12 0 -12 12v675q0 12 12 12h29q11 0 11 -12v-389h36l180 183q10 12 20 12h35q6 0 8 -4.5t-2 -8.5z" />
    <glyph glyph-name="l" unicode="l" horiz-adv-x="218" 
d="M135 687v-675q0 -12 -11 -12h-29q-12 0 -12 12v675q0 12 12 12h29q11 0 11 -12z" />
    <glyph glyph-name="m" unicode="m" horiz-adv-x="824" 
d="M95 493h25q12 0 12 -12l1 -41q74 61 169 61q99 0 127 -69q78 69 177 69q67 0 102 -32.5t35 -87.5v-369q0 -12 -12 -12h-28q-12 0 -12 12v359q0 83 -98 83q-87 0 -155 -61q1 -7 1 -22v-359q0 -12 -11 -12h-29q-12 0 -12 12v359q0 83 -98 83q-88 0 -154 -60v-382
q0 -12 -11 -12h-29q-12 0 -12 12v469q0 12 12 12z" />
    <glyph glyph-name="n" unicode="n" horiz-adv-x="526" 
d="M95 493h25q12 0 12 -12l2 -42q75 62 174 62q67 0 102 -32.5t35 -87.5v-369q0 -12 -11 -12h-29q-12 0 -12 12v359q0 83 -98 83q-87 0 -160 -60v-382q0 -12 -11 -12h-29q-12 0 -12 12v469q0 12 12 12z" />
    <glyph glyph-name="o" unicode="o" horiz-adv-x="508" 
d="M73 115v262q0 124 181 124t181 -124v-262q0 -123 -181 -123t-181 123zM383 119v255q0 83 -129 83t-129 -83v-255q0 -83 129 -83t129 83z" />
    <glyph glyph-name="p" unicode="p" horiz-adv-x="519" 
d="M95 493h25q12 0 12 -13l2 -41q78 62 174 62q69 0 103 -33t34 -90v-263q0 -57 -34 -90t-103 -33q-97 0 -173 60v-248q0 -12 -11 -12h-29q-12 0 -12 12v676q0 13 12 13zM393 122v249q0 37 -24 59.5t-74 22.5q-87 0 -160 -60v-295q80 -59 160 -59q50 0 74 23t24 60z" />
    <glyph glyph-name="q" unicode="q" horiz-adv-x="519" 
d="M385 439l2 41q0 13 12 13h25q12 0 12 -13v-676q0 -12 -12 -12h-29q-11 0 -11 12v248q-78 -60 -173 -60q-69 0 -103 33t-34 90v263q0 57 34 90t103 33q96 0 174 -62zM126 371v-249q0 -37 24 -60t74 -23q80 0 160 59v295q-73 60 -160 60q-50 0 -74 -22.5t-24 -59.5z" />
    <glyph glyph-name="r" unicode="r" horiz-adv-x="335" 
d="M303 500q13 0 13 -11v-24q0 -12 -13 -12q-85 0 -168 -70v-371q0 -12 -11 -12h-29q-12 0 -12 12v469q0 12 12 12h25q12 0 12 -12l3 -54q81 73 168 73z" />
    <glyph glyph-name="s" unicode="s" horiz-adv-x="470" 
d="M355 361v31q0 69 -122 69q-119 0 -119 -69v-31q0 -23 17 -39.5t39 -22.5l156 -49q84 -27 84 -91v-59q0 -48 -44 -78t-133 -30q-88 0 -131.5 30t-43.5 78v28q0 11 11 11h27q10 0 10 -11v-26q0 -32 32.5 -51t94.5 -19q63 0 96 19t33 51v45q0 41 -63 61l-156 49
q-30 10 -54 35.5t-24 59.5v40q0 48 41 78.5t128 30.5q86 0 127.5 -30.5t41.5 -78.5v-31q0 -11 -12 -11h-26q-10 0 -10 11z" />
    <glyph glyph-name="t" unicode="t" horiz-adv-x="323" 
d="M155 491h118q12 0 12 -11v-20q0 -12 -12 -12h-118v-320q0 -41 28 -62t98 -21h16q12 0 12 -12v-21q0 -12 -12 -12h-22q-96 0 -134 31t-38 92v325h-64q-12 0 -12 12v16q0 12 12 12l54 3h10v108q0 13 11 13h29q12 0 12 -13v-108z" />
    <glyph glyph-name="u" unicode="u" horiz-adv-x="520" 
d="M387 12l-2 40q-70 -60 -167 -60q-67 0 -102 32.5t-35 86.5v369q0 13 11 13h29q12 0 12 -13v-358q0 -83 98 -83q83 0 154 59v382q0 13 11 13h29q11 0 11 -13v-468q0 -12 -11 -12h-26q-12 0 -12 12z" />
    <glyph glyph-name="v" unicode="v" horiz-adv-x="439" 
d="M235 0h-32q-9 0 -13 11l-160 469q-5 13 10 13h31q8 0 13 -13l123 -360q3 -9 6 -19.5t5 -20.5t3 -13q5 30 13 53l125 360q5 13 13 13h28q15 0 10 -13l-162 -469q-4 -11 -13 -11z" />
    <glyph glyph-name="w" unicode="w" horiz-adv-x="661" 
d="M630 480l-130 -469q-3 -11 -13 -11h-34q-10 0 -13 11l-97 366q-6 21 -11 47q-5 -27 -11 -48l-104 -365q-3 -11 -12 -11h-33q-10 0 -13 11l-127 469q-3 13 11 13h28q11 0 14 -13l100 -371q5 -15 9 -40q1 8 10 40l102 371q3 13 14 13h32q10 0 13 -13l98 -371q7 -25 9 -38
q1 4 10 38l101 371q3 13 13 13h25q12 0 9 -13z" />
    <glyph glyph-name="x" unicode="x" horiz-adv-x="456" 
d="M256 250l164 -238q3 -4 1.5 -8t-7.5 -4h-34q-10 0 -18 12l-137 199l-135 -199q-8 -12 -18 -12h-29q-6 0 -7.5 4t1.5 8l162 237l-159 231q-8 13 6 13h35q8 0 17 -13l132 -191l131 191q9 13 18 13h29q6 0 8 -4t-2 -9z" />
    <glyph glyph-name="y" unicode="y" horiz-adv-x="438" 
d="M83 480l123 -361q8 -23 14 -52q3 19 14 51l124 362q5 13 14 13h28q14 0 9 -13l-232 -676q-3 -12 -13 -12h-23q-13 0 -10 12l65 194l-167 482q-5 13 10 13h30q9 0 14 -13z" />
    <glyph glyph-name="z" unicode="z" horiz-adv-x="426" 
d="M63 493h300q12 0 12 -12v-19q0 -7 -3 -11l-268 -407h272q12 0 12 -12v-20q0 -12 -12 -12h-325q-12 0 -12 12v20q0 6 3 10l267 407h-246q-12 0 -12 12v20q0 12 12 12z" />
    <glyph glyph-name="braceleft" unicode="{" horiz-adv-x="369" 
d="M145 354v231q0 123 179 123h5q12 0 12 -12v-21q0 -12 -12 -12h-5q-69 0 -97.5 -21.5t-28.5 -61.5v-230q0 -83 -86 -102q86 -18 86 -101v-237q0 -40 28.5 -61.5t97.5 -21.5h5q12 0 12 -12v-21q0 -12 -12 -12h-5q-179 0 -179 123v238q0 83 -117 83h-1q-12 0 -12 12v21
q0 12 12 12h1q117 0 117 83z" />
    <glyph glyph-name="bar" unicode="|" horiz-adv-x="219" 
d="M136 687v-886q0 -12 -11 -12h-30q-12 0 -12 12v886q0 12 12 12h30q11 0 11 -12z" />
    <glyph glyph-name="braceright" unicode="}" horiz-adv-x="369" 
d="M224 585v-231q0 -83 117 -83h1q12 0 12 -12v-21q0 -12 -12 -12h-1q-117 0 -117 -83v-238q0 -123 -179 -123h-5q-12 0 -12 12v21q0 12 12 12h5q69 0 97.5 21.5t28.5 61.5v237q0 83 86 101q-86 19 -86 102v230q0 40 -28.5 61.5t-97.5 21.5h-5q-12 0 -12 12v21q0 12 12 12h5
q179 0 179 -123z" />
    <glyph glyph-name="asciitilde" unicode="~" horiz-adv-x="470" 
d="M187 280q-22 12 -36 12q-19 0 -25.5 -9t-6.5 -34v-20q0 -11 -13 -11h-16q-10 0 -10 14v21q0 84 67 84q21 0 49 -15l84 -46q24 -14 41 -14q19 0 25 9t6 35v19q0 11 12 11h17q10 0 10 -13v-22q0 -84 -65 -84q-26 0 -55 16z" />
    <glyph glyph-name="uni00A0" unicode="&#xa0;" horiz-adv-x="232" 
 />
    <glyph glyph-name="exclamdown" unicode="&#xa1;" horiz-adv-x="214" 
d="M80 404v77q0 12 12 12h30q11 0 11 -12v-77q0 -12 -11 -12h-30q-12 0 -12 12zM79 103l5 221q0 12 12 12h21q11 0 11 -12l6 -221v-278q0 -12 -12 -12h-31q-12 0 -12 12v278z" />
    <glyph glyph-name="cent" unicode="&#xa2;" horiz-adv-x="489" 
d="M273 12q0 -12 -11 -12h-29q-12 0 -12 12v74q-80 5 -113.5 36.5t-33.5 85.5v262q0 55 33.5 86.5t113.5 36.5v75q0 12 12 12h29q11 0 11 -12v-75q82 -4 116.5 -36t34.5 -87v-19q0 -12 -11 -12h-27q-12 0 -12 12v16q0 40 -27.5 61.5t-96.5 21.5t-97 -21.5t-28 -61.5v-255
q0 -41 28 -62t97 -21t96.5 21t27.5 62v24q0 12 12 12h27q11 0 11 -12v-28q0 -115 -151 -122v-74z" />
    <glyph glyph-name="sterling" unicode="&#xa3;" horiz-adv-x="593" 
d="M181 364h166q12 0 12 -11v-21q0 -12 -12 -12h-166v-275h215q43 0 67 25.5t24 93.5v5q0 12 12 12h27q11 0 11 -12v-5q0 -94 -34 -129t-96 -35h-338q-12 0 -12 12v21q0 12 12 12h59v275h-59q-12 0 -12 12v21q0 11 12 11h59v190q0 66 40 100t150 34t150.5 -34t40.5 -100v-27
q0 -12 -12 -12h-28q-12 0 -12 12v20q0 50 -28.5 72.5t-110.5 22.5q-81 0 -109 -22.5t-28 -72.5v-183z" />
    <glyph glyph-name="currency" unicode="&#xa4;" horiz-adv-x="632" 
d="M100 96q-10 -10 -18 -1l-11 12q-9 9 0 17l95 95q-20 26 -20 67v108q0 41 20 68l-94 95q-9 9 -1 17l12 11q9 9 17 0l97 -97q43 24 119 24t119 -24l97 97q8 9 17 0l12 -11q9 -8 0 -17l-96 -96q20 -26 20 -67v-108q0 -41 -20 -67l95 -95q8 -8 0 -17l-12 -12q-8 -7 -16 1
l-96 96q-43 -24 -120 -24t-120 24zM439 289v103q0 82 -123 82t-123 -82v-103q0 -83 123 -83t123 83z" />
    <glyph glyph-name="yen" unicode="&#xa5;" horiz-adv-x="544" 
d="M300 12q0 -12 -12 -12h-29q-12 0 -12 12v259h-160q-12 0 -12 12v14q0 12 12 12h143l-44 82h-99q-12 0 -12 12v13q0 12 12 12h80l-127 240q-6 12 9 12h34q8 0 14 -12l162 -308q8 -16 14 -34q5 15 15 34l164 308q6 12 15 12h30q15 0 8 -12l-127 -240h78q12 0 12 -12v-13
q0 -12 -12 -12h-98l-44 -82h142q12 0 12 -12v-14q0 -12 -12 -12h-156v-259z" />
    <glyph glyph-name="brokenbar" unicode="&#xa6;" horiz-adv-x="229" 
d="M140 668v-342q0 -12 -11 -12h-29q-12 0 -12 12v342q0 12 12 12h29q11 0 11 -12zM140 143v-342q0 -12 -11 -12h-29q-12 0 -12 12v342q0 12 12 12h29q11 0 11 -12z" />
    <glyph glyph-name="section" unicode="&#xa7;" horiz-adv-x="500" 
d="M420 272v-108q0 -12 -12 -12h-25q-12 0 -12 12v104q0 29 -20 45.5t-42 22.5l-141 42q-96 29 -96 102v84q0 124 178 124q96 0 137 -31.5t41 -90.5v-14q0 -12 -12 -12h-25q-12 0 -12 12v16q0 40 -28.5 61t-98.5 21t-99 -21t-29 -61v-86q0 -46 72 -65l136 -39q32 -9 60 -36
t28 -70zM80 203v107q0 12 12 12h26q11 0 11 -12v-103q0 -29 20.5 -46t41.5 -23l141 -41q96 -29 96 -102v-84q0 -124 -178 -124q-96 0 -137 31.5t-41 90.5v14q0 12 12 12h25q12 0 12 -12v-16q0 -83 128 -83t128 83v86q0 46 -73 65l-136 39q-32 9 -60 36t-28 70z" />
    <glyph glyph-name="dieresis" unicode="&#xa8;" horiz-adv-x="308" 
d="M126 690v-98q0 -12 -12 -12h-18q-12 0 -12 12v98q0 12 12 12h18q12 0 12 -12zM224 690v-98q0 -12 -12 -12h-18q-12 0 -12 12v98q0 12 12 12h18q12 0 12 -12z" />
    <glyph glyph-name="copyright" unicode="&#xa9;" horiz-adv-x="680" 
d="M600 525v-369q0 -36 -10 -63t-37 -51.5t-80.5 -37t-132.5 -12.5q-80 0 -133.5 12.5t-80.5 37t-37 51.5t-10 63v369q0 36 10 62.5t37 51t80.5 37t133.5 12.5q79 0 132.5 -12.5t80.5 -37t37 -51t10 -62.5zM560 150v381q0 57 -49.5 89t-170.5 32q-122 0 -171 -32t-49 -90
v-380q0 -58 49 -90t171 -32q121 0 170.5 32t49.5 90zM340 551q80 0 108.5 -30t28.5 -91v-17q0 -12 -12 -12h-23q-12 0 -12 12v16q0 43 -18 63.5t-72 20.5q-55 0 -72 -20.5t-17 -63.5v-179q0 -42 17 -62.5t72 -20.5q54 0 72 20.5t18 62.5v24q0 12 12 12h23q12 0 12 -12v-25
q0 -61 -28.5 -91t-108.5 -30q-79 0 -108 30.5t-29 90.5v181q0 60 29 90.5t108 30.5z" />
    <glyph glyph-name="ordfeminine" unicode="&#xaa;" horiz-adv-x="367" 
d="M72 603v10q0 75 109 75t109 -76v-216q0 -9 -9 -9h-22q-6 0 -7 1.5t-2 7.5l-2 21q-42 -35 -99 -35q-42 0 -62.5 19.5t-20.5 51.5v30q0 31 20.5 50.5t58.5 19.5h102v58q0 45 -67 45t-67 -44v-9q0 -9 -8 -9h-24q-9 0 -9 9zM161 415q46 0 86 33v76h-94q-21 0 -32.5 -12.5
t-11.5 -31.5v-22q0 -43 52 -43z" />
    <glyph glyph-name="guillemotleft" unicode="&#xab;" horiz-adv-x="529" 
d="M243 360l-154 -115l154 -114q12 -9 12 -19v-31q0 -14 -12 -6l-185 140q-11 8 -11 18v24q0 9 11 18l185 141q5 3 8.5 1.5t3.5 -7.5v-33q0 -8 -12 -17zM444 360l-154 -115l154 -114q12 -9 12 -19v-31q0 -14 -12 -6l-185 140q-11 8 -11 18v24q0 9 11 18l185 141q4 3 8 1.5
t4 -7.5v-33q0 -8 -12 -17z" />
    <glyph glyph-name="logicalnot" unicode="&#xac;" horiz-adv-x="352" 
d="M67 313q0 45 31.5 77t77.5 32q45 0 77 -32t32 -77q0 -46 -32 -77.5t-77 -31.5q-46 0 -77.5 31.5t-31.5 77.5z" />
    <glyph glyph-name="uni00AD" unicode="&#xad;" horiz-adv-x="436" 
d="M84 311h268q12 0 12 -11v-21q0 -12 -12 -12h-268q-12 0 -12 12v21q0 11 12 11z" />
    <glyph glyph-name="registered" unicode="&#xae;" horiz-adv-x="573" 
d="M499 558v-177q0 -130 -212 -130t-212 130v177q0 130 212 130t212 -130zM461 377v184q0 92 -174 92t-174 -92v-183q0 -93 174 -93t174 92zM233 342q0 -9 -8 -9h-22q-9 0 -9 9v247q0 9 9 9h94q96 0 96 -71v-24q0 -51 -51 -65l40 -96q4 -9 -8 -9h-22q-7 0 -11 9l-38 90h-70
v-90zM294 568h-61v-106h61q30 0 45 12.5t15 30.5v20q0 18 -15 30.5t-45 12.5z" />
    <glyph glyph-name="macron" unicode="&#xaf;" horiz-adv-x="419" 
d="M81 645h257q12 0 12 -11v-18q0 -12 -12 -12h-257q-12 0 -12 12v18q0 11 12 11z" />
    <glyph glyph-name="degree" unicode="&#xb0;" horiz-adv-x="395" 
d="M66 499v97q0 44 30 67t102 23t102 -23t30 -67v-97q0 -90 -132 -90t-132 90zM284 501v94q0 55 -86 55q-87 0 -87 -55v-94q0 -55 87 -55q86 0 86 55z" />
    <glyph glyph-name="plusminus" unicode="&#xb1;" horiz-adv-x="583" 
d="M268 227v131h-172q-12 0 -12 12v21q0 11 12 11h172v131q0 12 11 12h21q12 0 12 -12v-131h175q11 0 11 -11v-21q0 -12 -11 -12h-175v-131q0 -13 -12 -13h-21q-11 0 -11 13zM96 153h391q11 0 11 -12v-21q0 -12 -11 -12h-391q-12 0 -12 12v21q0 12 12 12z" />
    <glyph glyph-name="twosuperior" unicode="&#xb2;" 
d="M87 492h175q8 0 8 -8v-20q0 -8 -8 -8h-211q-8 0 -8 8v100q0 44 52 60l95 29q35 11 35 39v56q0 26 -15.5 39t-56.5 13t-57 -13t-16 -39v-25q0 -9 -8 -9h-26q-7 0 -7 9v29q0 82 116 82q113 0 113 -82v-62q0 -27 -16 -43t-36 -22l-95 -30q-18 -5 -26 -12t-8 -23v-68z" />
    <glyph glyph-name="threesuperior" unicode="&#xb3;" 
d="M224 536v51q0 26 -15.5 38.5t-56.5 12.5h-49q-8 0 -8 7v17q0 7 8 7h46q41 0 55.5 13t14.5 40v28q0 26 -15 38.5t-54 12.5q-40 0 -55.5 -12.5t-15.5 -38.5v-6q0 -8 -8 -8h-25q-8 0 -8 8v10q0 80 112 80q111 0 111 -78v-40q0 -25 -10 -39.5t-37 -22.5q52 -13 52 -63v-61
q0 -78 -115 -78q-116 0 -116 80v11q0 8 8 8h26q8 0 8 -8v-7q0 -51 74 -51q40 0 56.5 13t16.5 38z" />
    <glyph glyph-name="acute" unicode="&#xb4;" horiz-adv-x="336" 
d="M232 696l-81 -119q-5 -7 -15 -7h-24q-13 0 -6 11l72 117q7 10 16 10h32q15 0 6 -12z" />
    <glyph glyph-name="paragraph" unicode="&#xb6;" horiz-adv-x="571" 
d="M342 669v-864q0 -13 -11 -13h-30q-12 0 -12 13v477h-51q-107 0 -150 34t-43 97v136q0 63 43 97t150 34h93q11 0 11 -11zM485 668v-863q0 -13 -12 -13h-30q-12 0 -12 13v863q0 12 12 12h30q12 0 12 -12z" />
    <glyph glyph-name="periodcentered" unicode="&#xb7;" horiz-adv-x="210" 
d="M131 300v-77q0 -12 -11 -12h-30q-12 0 -12 12v77q0 12 12 12h30q11 0 11 -12z" />
    <glyph glyph-name="cedilla" unicode="&#xb8;" horiz-adv-x="164" 
d="M82 -54h39q34 0 58 -18.5t24 -59.5t-24 -60t-58 -19h-118q-12 0 -12 12v11q0 12 12 12h112q48 0 48 44q0 43 -48 43h-59q-10 0 -14 4t-2 11l22 78q4 11 13 10l15 -2q11 -2 7 -15z" />
    <glyph glyph-name="onesuperior" unicode="&#xb9;" 
d="M54 804l120 26q9 2 9 -7v-331h87q8 0 8 -8v-20q0 -8 -8 -8h-217q-8 0 -8 8v20q0 8 8 8h87v296l-86 -21q-8 -1 -8 7v19q0 10 8 11z" />
    <glyph glyph-name="ordmasculine" unicode="&#xba;" horiz-adv-x="369" 
d="M70 459v152q0 77 115 77q114 0 114 -77v-152q0 -77 -114 -77q-115 0 -115 77zM255 463v145q0 45 -70 45q-71 0 -71 -45v-145q0 -47 71 -47q70 0 70 47z" />
    <glyph glyph-name="guillemotright" unicode="&#xbb;" horiz-adv-x="527" 
d="M84 138l154 115l-154 114q-12 9 -12 19v31q0 14 12 6l185 -140q11 -8 11 -18v-24q0 -9 -11 -18l-185 -141q-4 -3 -8 -1.5t-4 7.5v33q0 8 12 17zM284 138l154 115l-154 114q-12 9 -12 19v31q0 14 12 6l185 -140q11 -8 11 -18v-24q0 -9 -11 -18l-185 -141q-4 -3 -8 -1.5
t-4 7.5v33q0 8 12 17z" />
    <glyph glyph-name="onequarter" unicode="&#xbc;" horiz-adv-x="723" 
d="M558 676l-308 -672q-5 -12 -17 -12h-23q-11 0 -6 12l309 672q5 12 17 12h22q12 0 6 -12zM65 654l120 26q9 2 9 -7v-331h87q8 0 8 -8v-20q0 -8 -8 -8h-217q-8 0 -8 8v20q0 8 8 8h87v296l-86 -21q-8 -1 -8 7v19q0 10 8 11zM542 366l-76 -213h146v213q0 8 9 8h26q8 0 8 -8
v-358q0 -8 -8 -8h-26q-9 0 -9 8v110h-182q-9 0 -9 8v13q0 3 2 11l76 216q3 8 11 8h25q10 0 7 -8z" />
    <glyph glyph-name="onehalf" unicode="&#xbd;" horiz-adv-x="737" 
d="M555 676l-308 -672q-5 -12 -17 -12h-23q-11 0 -6 12l309 672q5 12 17 12h22q12 0 6 -12zM65 654l120 26q9 2 9 -7v-331h87q8 0 8 -8v-20q0 -8 -8 -8h-217q-8 0 -8 8v20q0 8 8 8h87v296l-86 -21q-8 -1 -8 7v19q0 10 8 11zM498 36h175q8 0 8 -8v-20q0 -8 -8 -8h-211
q-8 0 -8 8v100q0 44 52 60l95 29q35 11 35 39v56q0 26 -15.5 39t-56.5 13t-57 -13t-16 -39v-25q0 -9 -8 -9h-26q-7 0 -7 9v29q0 82 116 82q113 0 113 -82v-62q0 -27 -16 -43t-36 -22l-95 -30q-18 -5 -26 -12t-8 -23v-68z" />
    <glyph glyph-name="threequarters" unicode="&#xbe;" horiz-adv-x="723" 
d="M546 676l-308 -672q-5 -12 -17 -12h-23q-11 0 -6 12l309 672q5 12 17 12h22q12 0 6 -12zM243 386v51q0 26 -15.5 38.5t-56.5 12.5h-49q-8 0 -8 7v17q0 7 8 7h46q41 0 55.5 13t14.5 40v28q0 26 -15 38.5t-54 12.5q-40 0 -55.5 -12.5t-15.5 -38.5v-6q0 -8 -8 -8h-25
q-8 0 -8 8v10q0 80 112 80q111 0 111 -78v-40q0 -25 -10 -39.5t-37 -22.5q52 -13 52 -63v-61q0 -78 -115 -78q-116 0 -116 80v11q0 8 8 8h26q8 0 8 -8v-7q0 -51 74 -51q40 0 56.5 13t16.5 38zM543 366l-76 -213h146v213q0 8 9 8h26q8 0 8 -8v-358q0 -8 -8 -8h-26q-9 0 -9 8
v110h-182q-9 0 -9 8v13q0 3 2 11l76 216q3 8 11 8h25q10 0 7 -8z" />
    <glyph glyph-name="questiondown" unicode="&#xbf;" horiz-adv-x="495" 
d="M234 404v77q0 12 11 12h30q12 0 12 -12v-77q0 -12 -12 -12h-30q-11 0 -11 12zM287 324v-81q0 -63 -67 -97l-64 -32q-54 -29 -54 -82v-79q0 -50 34 -76.5t116 -26.5t115.5 26.5t33.5 76.5v49q0 13 12 13h28q12 0 12 -13v-56q0 -141 -201 -141q-203 0 -203 141v84
q0 83 80 123l53 26q52 25 52 75v70q0 12 11 12h30q12 0 12 -12z" />
    <glyph glyph-name="Agrave" unicode="&#xc0;" horiz-adv-x="525" 
d="M235 747l-81 119q-8 12 5 12h32q9 0 16 -11l72 -116q8 -12 -5 -12h-25q-9 0 -14 8zM247 680h31q12 0 15 -12l203 -656q4 -12 -10 -12h-30q-11 0 -14 12l-61 194h-241l-59 -194q-3 -12 -14 -12h-29q-12 0 -9 12l203 656q3 12 15 12zM369 249l-83 268q-17 57 -25 106
q-13 -71 -23 -104l-85 -270h216z" />
    <glyph glyph-name="Aacute" unicode="&#xc1;" horiz-adv-x="525" 
d="M370 866l-81 -119q-5 -7 -14 -7h-25q-13 0 -6 11l72 117q7 10 16 10h32q15 0 6 -12zM247 680h31q12 0 15 -12l203 -656q4 -12 -10 -12h-30q-11 0 -14 12l-61 194h-241l-59 -194q-3 -12 -14 -12h-29q-12 0 -9 12l203 656q3 12 15 12zM369 249l-83 268q-17 57 -25 106
q-13 -71 -23 -104l-85 -270h216z" />
    <glyph glyph-name="Acircumflex" unicode="&#xc2;" horiz-adv-x="525" 
d="M262 844l-60 -93q-7 -11 -17 -11h-23q-13 0 -6 11l77 115q9 12 19 12h20q11 0 18 -11l79 -116q7 -11 -7 -11h-23q-10 0 -16 11zM247 680h31q12 0 15 -12l203 -656q4 -12 -10 -12h-30q-11 0 -14 12l-61 194h-241l-59 -194q-3 -12 -14 -12h-29q-12 0 -9 12l203 656
q3 12 15 12zM369 249l-83 268q-17 57 -25 106q-13 -71 -23 -104l-85 -270h216z" />
    <glyph glyph-name="Atilde" unicode="&#xc3;" horiz-adv-x="525" 
d="M327 796q19 0 25 11t6 43v9q0 11 13 11h16q11 0 11 -13v-19q0 -83 -69 -83q-26 0 -52 20l-45 36q-21 17 -36 17q-19 0 -25 -10.5t-6 -43.5v-9q0 -11 -13 -11h-17q-10 0 -10 14v19q0 82 68 82q29 0 52 -19l46 -37q23 -17 36 -17zM247 680h31q12 0 15 -12l203 -656
q4 -12 -10 -12h-30q-11 0 -14 12l-61 194h-241l-59 -194q-3 -12 -14 -12h-29q-12 0 -9 12l203 656q3 12 15 12zM369 249l-83 268q-17 57 -25 106q-13 -71 -23 -104l-85 -270h216z" />
    <glyph glyph-name="Adieresis" unicode="&#xc4;" horiz-adv-x="525" 
d="M234 857v-98q0 -12 -11 -12h-18q-12 0 -12 12v98q0 12 12 12h18q11 0 11 -12zM332 857v-98q0 -12 -11 -12h-18q-12 0 -12 12v98q0 12 12 12h18q11 0 11 -12zM247 680h31q12 0 15 -12l203 -656q4 -12 -10 -12h-30q-11 0 -14 12l-61 194h-241l-59 -194q-3 -12 -14 -12h-29
q-12 0 -9 12l203 656q3 12 15 12zM369 249l-83 268q-17 57 -25 106q-13 -71 -23 -104l-85 -270h216z" />
    <glyph glyph-name="Aring" unicode="&#xc5;" horiz-adv-x="525" 
d="M353 811v-15q0 -33 -22.5 -53t-69.5 -20q-91 0 -91 73v15q0 73 91 73q47 0 69.5 -20t22.5 -53zM319 800v7q0 47 -58 47q-57 0 -57 -47v-7q0 -47 57 -47q58 0 58 47zM247 680h31q12 0 15 -12l203 -656q4 -12 -10 -12h-30q-11 0 -14 12l-61 194h-241l-59 -194
q-3 -12 -14 -12h-29q-12 0 -9 12l203 656q3 12 15 12zM369 249l-83 268q-17 57 -25 106q-13 -71 -23 -104l-85 -270h216z" />
    <glyph glyph-name="AE" unicode="&#xc6;" horiz-adv-x="825" 
d="M415 680h337q12 0 12 -11v-22q0 -12 -12 -12h-300v-256h282q12 0 12 -11v-20q0 -12 -12 -12h-282v-291h312q12 0 12 -12v-21q0 -12 -12 -12h-347q-16 0 -16 12v194h-221l-111 -194q-8 -12 -14 -12h-28q-7 0 -9.5 3t0.5 9l380 656q7 12 17 12zM368 530l-162 -281h195v341
q-17 -33 -33 -60z" />
    <glyph glyph-name="Ccedilla" unicode="&#xc7;" horiz-adv-x="548" 
d="M392 -132q0 -41 -24 -60t-58 -19h-118q-12 0 -12 12v11q0 12 12 12h112q48 0 48 44q0 43 -48 43h-59q-10 0 -14 4t-2 11l19 68q-163 13 -163 139v414q0 141 204 141t204 -141v-52q0 -13 -11 -13h-29q-12 0 -12 13v44q0 49 -34.5 76t-117.5 27t-117 -26.5t-34 -76.5v-398
q0 -50 34 -76.5t117 -26.5t117.5 27t34.5 76v57q0 11 12 11h29q11 0 11 -11v-65q0 -141 -204 -141h-4l-14 -46h39q34 0 58 -18.5t24 -59.5z" />
    <glyph glyph-name="Egrave" unicode="&#xc8;" horiz-adv-x="523" 
d="M262 747l-81 119q-8 12 5 12h32q9 0 16 -11l72 -116q7 -12 -5 -12h-25q-9 0 -14 8zM461 0h-354q-11 0 -11 12v656q0 12 12 12h341q12 0 12 -12v-22q0 -12 -12 -12h-300v-254h282q12 0 12 -12v-21q0 -12 -12 -12h-282v-289h312q12 0 12 -12v-22q0 -12 -12 -12z" />
    <glyph glyph-name="Eacute" unicode="&#xc9;" horiz-adv-x="523" 
d="M376 866l-81 -119q-5 -7 -14 -7h-25q-13 0 -6 11l72 117q7 10 16 10h32q15 0 6 -12zM461 0h-354q-11 0 -11 12v656q0 12 12 12h341q12 0 12 -12v-22q0 -12 -12 -12h-300v-254h282q12 0 12 -12v-21q0 -12 -12 -12h-282v-289h312q12 0 12 -12v-22q0 -12 -12 -12z" />
    <glyph glyph-name="Ecircumflex" unicode="&#xca;" horiz-adv-x="523" 
d="M269 844l-60 -93q-7 -11 -17 -11h-23q-13 0 -6 11l77 115q9 12 19 12h20q11 0 18 -11l79 -116q7 -11 -7 -11h-23q-10 0 -16 11zM461 0h-354q-11 0 -11 12v656q0 12 12 12h341q12 0 12 -12v-22q0 -12 -12 -12h-300v-254h282q12 0 12 -12v-21q0 -12 -12 -12h-282v-289h312
q12 0 12 -12v-22q0 -12 -12 -12z" />
    <glyph glyph-name="Edieresis" unicode="&#xcb;" horiz-adv-x="523" 
d="M249 857v-98q0 -12 -11 -12h-18q-12 0 -12 12v98q0 12 12 12h18q11 0 11 -12zM347 857v-98q0 -12 -11 -12h-18q-12 0 -12 12v98q0 12 12 12h18q11 0 11 -12zM461 0h-354q-11 0 -11 12v656q0 12 12 12h341q12 0 12 -12v-22q0 -12 -12 -12h-300v-254h282q12 0 12 -12v-21
q0 -12 -12 -12h-282v-289h312q12 0 12 -12v-22q0 -12 -12 -12z" />
    <glyph glyph-name="Igrave" unicode="&#xcc;" horiz-adv-x="245" 
d="M97 747l-81 119q-8 12 5 12h32q9 0 16 -11l72 -116q7 -12 -5 -12h-25q-9 0 -14 8zM149 668v-656q0 -12 -11 -12h-30q-12 0 -12 12v656q0 12 12 12h30q11 0 11 -12z" />
    <glyph glyph-name="Iacute" unicode="&#xcd;" horiz-adv-x="245" 
d="M228 866l-81 -119q-5 -7 -14 -7h-25q-13 0 -6 11l72 117q7 10 16 10h32q15 0 6 -12zM149 668v-656q0 -12 -11 -12h-30q-12 0 -12 12v656q0 12 12 12h30q11 0 11 -12z" />
    <glyph glyph-name="Icircumflex" unicode="&#xce;" horiz-adv-x="245" 
d="M122 844l-60 -93q-7 -11 -17 -11h-23q-13 0 -6 11l77 115q9 12 19 12h20q11 0 18 -11l79 -116q7 -11 -7 -11h-23q-10 0 -16 11zM149 668v-656q0 -12 -11 -12h-30q-12 0 -12 12v656q0 12 12 12h30q11 0 11 -12z" />
    <glyph glyph-name="Idieresis" unicode="&#xcf;" horiz-adv-x="245" 
d="M94 857v-98q0 -12 -11 -12h-18q-12 0 -12 12v98q0 12 12 12h18q11 0 11 -12zM192 857v-98q0 -12 -11 -12h-18q-12 0 -12 12v98q0 12 12 12h18q11 0 11 -12zM149 668v-656q0 -12 -11 -12h-30q-12 0 -12 12v656q0 12 12 12h30q11 0 11 -12z" />
    <glyph glyph-name="Eth" unicode="&#xd0;" horiz-adv-x="606" 
d="M522 141q0 -141 -209 -141h-198q-11 0 -11 12v312h-72q-12 0 -12 11v18q0 12 12 12h72v303q0 12 11 12h198q209 0 209 -141v-398zM157 46h156q156 0 156 103v382q0 103 -156 103h-156v-269h144q11 0 11 -12v-18q0 -11 -11 -11h-144v-278z" />
    <glyph glyph-name="Ntilde" unicode="&#xd1;" horiz-adv-x="609" 
d="M370 796q19 0 25 11t6 43v9q0 11 13 11h16q11 0 11 -13v-19q0 -83 -69 -83q-26 0 -52 20l-45 36q-21 17 -36 17q-19 0 -25 -10.5t-6 -43.5v-9q0 -11 -13 -11h-17q-10 0 -10 14v19q0 82 68 82q29 0 52 -19l46 -37q23 -17 36 -17zM513 668v-656q0 -12 -11 -12h-27
q-8 0 -11 6l-286 509q-10 17 -32 61v-564q0 -12 -11 -12h-27q-12 0 -12 12v656q0 12 12 12h27q7 0 10 -5l289 -513q22 -39 29 -57v563q0 12 12 12h27q11 0 11 -12z" />
    <glyph glyph-name="Ograve" unicode="&#xd2;" horiz-adv-x="587" 
d="M265 747l-81 119q-8 12 5 12h32q9 0 16 -11l72 -116q8 -12 -5 -12h-25q-9 0 -14 8zM85 133v414q0 141 208 141q210 0 210 -141v-414q0 -141 -210 -141q-208 0 -208 141zM449 141v398q0 103 -156 103q-155 0 -155 -103v-398q0 -103 155 -103q156 0 156 103z" />
    <glyph glyph-name="Oacute" unicode="&#xd3;" horiz-adv-x="587" 
d="M393 866l-81 -119q-5 -7 -14 -7h-25q-13 0 -6 11l72 117q7 10 16 10h32q15 0 6 -12zM85 133v414q0 141 208 141q210 0 210 -141v-414q0 -141 -210 -141q-208 0 -208 141zM449 141v398q0 103 -156 103q-155 0 -155 -103v-398q0 -103 155 -103q156 0 156 103z" />
    <glyph glyph-name="Ocircumflex" unicode="&#xd4;" horiz-adv-x="587" 
d="M293 844l-60 -93q-7 -11 -17 -11h-23q-13 0 -6 11l77 115q9 12 19 12h20q11 0 18 -11l79 -116q7 -11 -7 -11h-23q-10 0 -16 11zM85 133v414q0 141 208 141q210 0 210 -141v-414q0 -141 -210 -141q-208 0 -208 141zM449 141v398q0 103 -156 103q-155 0 -155 -103v-398
q0 -103 155 -103q156 0 156 103z" />
    <glyph glyph-name="Otilde" unicode="&#xd5;" horiz-adv-x="587" 
d="M359 796q19 0 25 11t6 43v9q0 11 13 11h16q11 0 11 -13v-19q0 -83 -69 -83q-26 0 -52 20l-45 36q-21 17 -36 17q-19 0 -25 -10.5t-6 -43.5v-9q0 -11 -13 -11h-17q-10 0 -10 14v19q0 82 68 82q29 0 52 -19l46 -37q23 -17 36 -17zM85 133v414q0 141 208 141q210 0 210 -141
v-414q0 -141 -210 -141q-208 0 -208 141zM449 141v398q0 103 -156 103q-155 0 -155 -103v-398q0 -103 155 -103q156 0 156 103z" />
    <glyph glyph-name="Odieresis" unicode="&#xd6;" horiz-adv-x="587" 
d="M265 857v-98q0 -12 -11 -12h-18q-12 0 -12 12v98q0 12 12 12h18q11 0 11 -12zM363 857v-98q0 -12 -11 -12h-18q-12 0 -12 12v98q0 12 12 12h18q11 0 11 -12zM85 133v414q0 141 208 141q210 0 210 -141v-414q0 -141 -210 -141q-208 0 -208 141zM449 141v398
q0 103 -156 103q-155 0 -155 -103v-398q0 -103 155 -103q156 0 156 103z" />
    <glyph glyph-name="multiply" unicode="&#xd7;" horiz-adv-x="458" 
d="M352 185l-123 122l-122 -122q-9 -9 -17 0l-15 15q-9 8 0 17l123 122l-123 123q-7 7 -1 15l15 16q8 8 17 -1l123 -122l123 124q9 9 17 -1l14 -15q7 -9 0 -16l-123 -123l122 -122q9 -9 0 -18l-14 -14q-8 -8 -16 0z" />
    <glyph glyph-name="Oslash" unicode="&#xd8;" horiz-adv-x="587" 
d="M148 -12q-8 -17 -21 -17h-19q-14 0 -6 17l23 48q-40 34 -40 97v413q0 142 208 142q83 0 133 -22l13 26q8 17 21 17h19q15 0 7 -17l-23 -49q40 -34 40 -97v-413q0 -141 -210 -141q-83 0 -132 22zM138 140q0 -30 13 -50l253 530q-38 22 -111 22q-155 0 -155 -103v-399z
M449 539q0 29 -12 50l-255 -530q39 -22 111 -22q156 0 156 103v399z" />
    <glyph glyph-name="Ugrave" unicode="&#xd9;" horiz-adv-x="603" 
d="M280 747l-81 119q-8 12 5 12h32q9 0 16 -11l72 -116q8 -12 -5 -12h-25q-9 0 -14 8zM146 668v-527q0 -103 155 -103q157 0 157 103v527q0 12 11 12h30q12 0 12 -12v-535q0 -141 -210 -141q-208 0 -208 141v535q0 12 12 12h29q12 0 12 -12z" />
    <glyph glyph-name="Uacute" unicode="&#xda;" horiz-adv-x="603" 
d="M405 866l-81 -119q-5 -7 -14 -7h-25q-13 0 -6 11l72 117q7 10 16 10h32q15 0 6 -12zM146 668v-527q0 -103 155 -103q157 0 157 103v527q0 12 11 12h30q12 0 12 -12v-535q0 -141 -210 -141q-208 0 -208 141v535q0 12 12 12h29q12 0 12 -12z" />
    <glyph glyph-name="Ucircumflex" unicode="&#xdb;" horiz-adv-x="603" 
d="M301 844l-60 -93q-7 -11 -17 -11h-23q-13 0 -6 11l77 115q9 12 19 12h20q11 0 18 -11l79 -116q7 -11 -7 -11h-23q-10 0 -16 11zM146 668v-527q0 -103 155 -103q157 0 157 103v527q0 12 11 12h30q12 0 12 -12v-535q0 -141 -210 -141q-208 0 -208 141v535q0 12 12 12h29
q12 0 12 -12z" />
    <glyph glyph-name="Udieresis" unicode="&#xdc;" horiz-adv-x="603" 
d="M273 857v-98q0 -12 -11 -12h-18q-12 0 -12 12v98q0 12 12 12h18q11 0 11 -12zM371 857v-98q0 -12 -11 -12h-18q-12 0 -12 12v98q0 12 12 12h18q11 0 11 -12zM146 668v-527q0 -103 155 -103q157 0 157 103v527q0 12 11 12h30q12 0 12 -12v-535q0 -141 -210 -141
q-208 0 -208 141v535q0 12 12 12h29q12 0 12 -12z" />
    <glyph glyph-name="Yacute" unicode="&#xdd;" horiz-adv-x="516" 
d="M369 866l-81 -119q-5 -7 -14 -7h-25q-13 0 -6 11l72 117q7 10 16 10h32q15 0 6 -12zM82 668l162 -308q8 -16 14 -34q5 15 15 34l164 308q6 12 15 12h30q15 0 8 -12l-205 -386v-270q0 -12 -12 -12h-29q-12 0 -12 12v264l-207 392q-6 12 9 12h34q8 0 14 -12z" />
    <glyph glyph-name="Thorn" unicode="&#xde;" horiz-adv-x="571" 
d="M149 668v-175h153q209 0 209 -141v-107q0 -141 -209 -141h-153v-92q0 -12 -11 -12h-30q-12 0 -12 12v656q0 12 12 12h30q11 0 11 -12zM302 448h-153v-299h153q156 0 156 104v91q0 104 -156 104z" />
    <glyph glyph-name="germandbls" unicode="&#xdf;" horiz-adv-x="598" 
d="M158 581v-569q0 -12 -12 -12h-28q-12 0 -12 12v436h-65q-12 0 -12 12v16q0 12 12 12l55 3h10v94q0 123 186 123t186 -123v-38q0 -63 -78 -85l-62 -17q-1 0 -6 -1.5t-7 -2t-7.5 -2.5t-8 -3t-7.5 -3.5t-7.5 -5l-6 -6t-5 -7.5t-3 -9t-1.5 -10v-6q0 -41 61 -63l119 -44
q93 -34 93 -98v-70q0 -59 -35.5 -90.5t-127.5 -31.5t-125.5 30.5t-33.5 90.5v12q0 12 12 12h20q12 0 12 -12v-14q0 -40 24.5 -61t90.5 -21t90.5 21.5t24.5 60.5v64q0 41 -69 65l-117 43q-84 31 -84 101v13q0 60 78 81l57 15q61 17 61 61v27q0 85 -136 85t-136 -85z" />
    <glyph glyph-name="agrave" unicode="&#xe0;" horiz-adv-x="498" 
d="M224 577l-81 119q-9 12 6 12h32q9 0 16 -10l72 -117q7 -11 -5 -11h-25q-10 0 -15 7zM69 360v18q0 123 174 123q95 0 134.5 -32t39.5 -91v-366q0 -12 -11 -12h-25q-12 0 -12 12l-2 40q-76 -60 -170 -60q-67 0 -102 32.5t-35 83.5v51q0 51 32.5 83.5t92.5 32.5h181v99
q0 40 -27 62t-96 22q-70 0 -97.5 -21.5t-27.5 -61.5v-15q0 -12 -12 -12h-26q-11 0 -11 12zM208 36q83 0 158 59v138h-172q-83 0 -83 -80v-39q0 -78 97 -78z" />
    <glyph glyph-name="aacute" unicode="&#xe1;" horiz-adv-x="498" 
d="M342 696l-81 -119q-5 -7 -15 -7h-24q-13 0 -6 11l72 117q7 10 16 10h32q15 0 6 -12zM69 360v18q0 123 174 123q95 0 134.5 -32t39.5 -91v-366q0 -12 -11 -12h-25q-12 0 -12 12l-2 40q-76 -60 -170 -60q-67 0 -102 32.5t-35 83.5v51q0 51 32.5 83.5t92.5 32.5h181v99
q0 40 -27 62t-96 22q-70 0 -97.5 -21.5t-27.5 -61.5v-15q0 -12 -12 -12h-26q-11 0 -11 12zM208 36q83 0 158 59v138h-172q-83 0 -83 -80v-39q0 -78 97 -78z" />
    <glyph glyph-name="acircumflex" unicode="&#xe2;" horiz-adv-x="498" 
d="M242 674l-61 -93q-9 -11 -17 -11h-23q-13 0 -6 11l78 115q9 12 18 12h20q12 0 19 -11l78 -116q7 -11 -6 -11h-23q-9 0 -17 11zM69 360v18q0 123 174 123q95 0 134.5 -32t39.5 -91v-366q0 -12 -11 -12h-25q-12 0 -12 12l-2 40q-76 -60 -170 -60q-67 0 -102 32.5t-35 83.5
v51q0 51 32.5 83.5t92.5 32.5h181v99q0 40 -27 62t-96 22q-70 0 -97.5 -21.5t-27.5 -61.5v-15q0 -12 -12 -12h-26q-11 0 -11 12zM208 36q83 0 158 59v138h-172q-83 0 -83 -80v-39q0 -78 97 -78z" />
    <glyph glyph-name="atilde" unicode="&#xe3;" horiz-adv-x="498" 
d="M314 580q-28 0 -52 20l-46 36q-22 18 -36 18q-19 0 -25 -11t-6 -44v-8q0 -11 -13 -11h-16q-11 0 -11 13v19q0 43 19 63t49 20q27 0 52 -20l46 -37q21 -17 36 -17q19 0 25 11t6 43v9q0 11 13 11h16q11 0 11 -13v-19q0 -43 -19 -63t-49 -20zM69 360v18q0 123 174 123
q95 0 134.5 -32t39.5 -91v-366q0 -12 -11 -12h-25q-12 0 -12 12l-2 40q-76 -60 -170 -60q-67 0 -102 32.5t-35 83.5v51q0 51 32.5 83.5t92.5 32.5h181v99q0 40 -27 62t-96 22q-70 0 -97.5 -21.5t-27.5 -61.5v-15q0 -12 -12 -12h-26q-11 0 -11 12zM208 36q83 0 158 59v138
h-172q-83 0 -83 -80v-39q0 -78 97 -78z" />
    <glyph glyph-name="adieresis" unicode="&#xe4;" horiz-adv-x="498" 
d="M216 690v-98q0 -12 -12 -12h-18q-12 0 -12 12v98q0 12 12 12h18q12 0 12 -12zM314 690v-98q0 -12 -12 -12h-18q-12 0 -12 12v98q0 12 12 12h18q12 0 12 -12zM69 360v18q0 123 174 123q95 0 134.5 -32t39.5 -91v-366q0 -12 -11 -12h-25q-12 0 -12 12l-2 40
q-76 -60 -170 -60q-67 0 -102 32.5t-35 83.5v51q0 51 32.5 83.5t92.5 32.5h181v99q0 40 -27 62t-96 22q-70 0 -97.5 -21.5t-27.5 -61.5v-15q0 -12 -12 -12h-26q-11 0 -11 12zM208 36q83 0 158 59v138h-172q-83 0 -83 -80v-39q0 -78 97 -78z" />
    <glyph glyph-name="aring" unicode="&#xe5;" horiz-adv-x="498" 
d="M333 646v-19q0 -71 -90 -71t-90 71v19q0 71 90 71t90 -71zM301 632v9q0 46 -58 46q-57 0 -57 -46v-9q0 -46 57 -46q58 0 58 46zM69 360v18q0 123 174 123q95 0 134.5 -32t39.5 -91v-366q0 -12 -11 -12h-25q-12 0 -12 12l-2 40q-76 -60 -170 -60q-67 0 -102 32.5t-35 83.5
v51q0 51 32.5 83.5t92.5 32.5h181v99q0 40 -27 62t-96 22q-70 0 -97.5 -21.5t-27.5 -61.5v-15q0 -12 -12 -12h-26q-11 0 -11 12zM208 36q83 0 158 59v138h-172q-83 0 -83 -80v-39q0 -78 97 -78z" />
    <glyph glyph-name="ae" unicode="&#xe6;" horiz-adv-x="787" 
d="M720 377v-122q0 -11 -11 -11h-292v-130q0 -40 28.5 -60.5t98.5 -20.5q127 0 127 84v21q0 12 11 12h25q12 0 12 -12v-23q0 -123 -175 -123q-139 0 -168 71q-85 -71 -179 -71q-69 0 -103 32t-34 84v51q0 51 32.5 83.5t92.5 32.5h181v105q0 81 -124 81q-69 0 -96.5 -22
t-27.5 -62v-17q0 -12 -12 -12h-26q-12 0 -12 12v19q0 122 175 122q117 0 148 -58q38 58 153 58q176 0 176 -124zM417 376v-94h254v94q0 84 -127 84q-70 0 -98.5 -22t-28.5 -62zM208 34q79 0 158 69v134h-174q-40 0 -60.5 -22t-20.5 -57v-44q0 -36 25 -58t72 -22z" />
    <glyph glyph-name="ccedilla" unicode="&#xe7;" horiz-adv-x="478" 
d="M351 -132q0 -41 -24 -60t-58 -19h-118q-12 0 -12 12v11q0 12 12 12h112q48 0 48 44q0 43 -48 43h-59q-10 0 -14 4t-2 11l19 68q-133 13 -133 121v262q0 59 40 91.5t135 32.5q96 0 135.5 -32.5t39.5 -91.5v-19q0 -12 -11 -12h-27q-12 0 -12 12v16q0 40 -27.5 61.5
t-96.5 21.5t-97 -21.5t-28 -61.5v-255q0 -41 28 -62t97 -21t96.5 21t27.5 62v24q0 12 12 12h27q11 0 11 -12v-28q0 -123 -175 -123h-5l-14 -46h39q34 0 58 -18.5t24 -59.5z" />
    <glyph glyph-name="egrave" unicode="&#xe8;" horiz-adv-x="494" 
d="M230 577l-81 119q-9 12 6 12h32q9 0 16 -10l72 -117q7 -11 -5 -11h-25q-10 0 -15 7zM427 377v-124q0 -11 -11 -11h-291v-124q0 -40 28 -61.5t98 -21.5q71 0 99 21.5t28 61.5v21q0 12 12 12h25q12 0 12 -12v-24q0 -123 -177 -123q-96 0 -136 32t-40 91v262q0 124 177 124
q96 0 136 -32.5t40 -91.5zM125 375v-93h253v93q0 83 -127 83q-126 0 -126 -83z" />
    <glyph glyph-name="eacute" unicode="&#xe9;" horiz-adv-x="494" 
d="M344 696l-81 -119q-5 -7 -15 -7h-24q-13 0 -6 11l72 117q7 10 16 10h32q15 0 6 -12zM427 377v-124q0 -11 -11 -11h-291v-124q0 -40 28 -61.5t98 -21.5q71 0 99 21.5t28 61.5v21q0 12 12 12h25q12 0 12 -12v-24q0 -123 -177 -123q-96 0 -136 32t-40 91v262q0 124 177 124
q96 0 136 -32.5t40 -91.5zM125 375v-93h253v93q0 83 -127 83q-126 0 -126 -83z" />
    <glyph glyph-name="ecircumflex" unicode="&#xea;" horiz-adv-x="494" 
d="M252 674l-61 -93q-9 -11 -17 -11h-23q-13 0 -6 11l78 115q9 12 18 12h20q12 0 19 -11l78 -116q7 -11 -6 -11h-23q-9 0 -17 11zM427 377v-124q0 -11 -11 -11h-291v-124q0 -40 28 -61.5t98 -21.5q71 0 99 21.5t28 61.5v21q0 12 12 12h25q12 0 12 -12v-24q0 -123 -177 -123
q-96 0 -136 32t-40 91v262q0 124 177 124q96 0 136 -32.5t40 -91.5zM125 375v-93h253v93q0 83 -127 83q-126 0 -126 -83z" />
    <glyph glyph-name="edieresis" unicode="&#xeb;" horiz-adv-x="494" 
d="M222 690v-98q0 -12 -12 -12h-18q-12 0 -12 12v98q0 12 12 12h18q12 0 12 -12zM320 690v-98q0 -12 -12 -12h-18q-12 0 -12 12v98q0 12 12 12h18q12 0 12 -12zM427 377v-124q0 -11 -11 -11h-291v-124q0 -40 28 -61.5t98 -21.5q71 0 99 21.5t28 61.5v21q0 12 12 12h25
q12 0 12 -12v-24q0 -123 -177 -123q-96 0 -136 32t-40 91v262q0 124 177 124q96 0 136 -32.5t40 -91.5zM125 375v-93h253v93q0 83 -127 83q-126 0 -126 -83z" />
    <glyph glyph-name="igrave" unicode="&#xec;" horiz-adv-x="218" 
d="M81 577l-81 119q-9 12 6 12h32q9 0 16 -10l72 -117q7 -11 -5 -11h-25q-10 0 -15 7zM135 480v-468q0 -12 -11 -12h-29q-12 0 -12 12v468q0 13 12 13h29q11 0 11 -13z" />
    <glyph glyph-name="iacute" unicode="&#xed;" horiz-adv-x="218" 
d="M214 696l-81 -119q-5 -7 -15 -7h-24q-13 0 -6 11l72 117q7 10 16 10h32q15 0 6 -12zM135 480v-468q0 -12 -11 -12h-29q-12 0 -12 12v468q0 13 12 13h29q11 0 11 -13z" />
    <glyph glyph-name="icircumflex" unicode="&#xee;" horiz-adv-x="218" 
d="M111 674l-61 -93q-9 -11 -17 -11h-23q-13 0 -6 11l78 115q9 12 18 12h20q12 0 19 -11l78 -116q7 -11 -6 -11h-23q-9 0 -17 11zM135 480v-468q0 -12 -11 -12h-29q-12 0 -12 12v468q0 13 12 13h29q11 0 11 -13z" />
    <glyph glyph-name="idieresis" unicode="&#xef;" horiz-adv-x="218" 
d="M82 690v-98q0 -12 -12 -12h-18q-12 0 -12 12v98q0 12 12 12h18q12 0 12 -12zM180 690v-98q0 -12 -12 -12h-18q-12 0 -12 12v98q0 12 12 12h18q12 0 12 -12zM135 480v-468q0 -12 -11 -12h-29q-12 0 -12 12v468q0 13 12 13h29q11 0 11 -13z" />
    <glyph glyph-name="eth" unicode="&#xf0;" horiz-adv-x="514" 
d="M278 604l83 35q-31 28 -104 28h-88q-12 0 -12 12v14q0 12 12 12h88q107 0 147 -43l53 24q11 6 16 -4l4 -8q5 -10 -6 -15l-49 -22q12 -24 12 -55v-467q0 -123 -179 -123q-181 0 -181 123v263q0 57 34.5 90t103.5 33q95 0 172 -62v135q0 21 -10 37l-82 -34q-12 -5 -16 4
l-3 7q-5 12 5 16zM384 119v276q-77 60 -160 60q-50 0 -74 -23t-24 -60v-253q0 -84 129 -84t129 84z" />
    <glyph glyph-name="ntilde" unicode="&#xf1;" horiz-adv-x="526" 
d="M327 583q-28 0 -52 20l-46 36q-22 18 -36 18q-19 0 -25 -11t-6 -44v-8q0 -11 -13 -11h-16q-11 0 -11 13v19q0 43 19 63t49 20q27 0 52 -20l46 -37q21 -17 36 -17q19 0 25 11t6 43v9q0 11 13 11h16q11 0 11 -13v-19q0 -43 -19 -63t-49 -20zM95 493h25q12 0 12 -12l2 -42
q75 62 174 62q67 0 102 -32.5t35 -87.5v-369q0 -12 -11 -12h-29q-12 0 -12 12v359q0 83 -98 83q-87 0 -160 -60v-382q0 -12 -11 -12h-29q-12 0 -12 12v469q0 12 12 12z" />
    <glyph glyph-name="ograve" unicode="&#xf2;" horiz-adv-x="508" 
d="M230 577l-81 119q-9 12 6 12h32q9 0 16 -10l72 -117q7 -11 -5 -11h-25q-10 0 -15 7zM73 115v262q0 124 181 124t181 -124v-262q0 -123 -181 -123t-181 123zM383 119v255q0 83 -129 83t-129 -83v-255q0 -83 129 -83t129 83z" />
    <glyph glyph-name="oacute" unicode="&#xf3;" horiz-adv-x="508" 
d="M353 696l-81 -119q-5 -7 -15 -7h-24q-13 0 -6 11l72 117q7 10 16 10h32q15 0 6 -12zM73 115v262q0 124 181 124t181 -124v-262q0 -123 -181 -123t-181 123zM383 119v255q0 83 -129 83t-129 -83v-255q0 -83 129 -83t129 83z" />
    <glyph glyph-name="ocircumflex" unicode="&#xf4;" horiz-adv-x="508" 
d="M250 674l-61 -93q-9 -11 -17 -11h-23q-13 0 -6 11l78 115q9 12 18 12h20q12 0 19 -11l78 -116q7 -11 -6 -11h-23q-9 0 -17 11zM73 115v262q0 124 181 124t181 -124v-262q0 -123 -181 -123t-181 123zM383 119v255q0 83 -129 83t-129 -83v-255q0 -83 129 -83t129 83z" />
    <glyph glyph-name="otilde" unicode="&#xf5;" horiz-adv-x="508" 
d="M318 580q-28 0 -52 20l-46 36q-22 18 -36 18q-19 0 -25 -11t-6 -44v-8q0 -11 -13 -11h-16q-11 0 -11 13v19q0 43 19 63t49 20q27 0 52 -20l46 -37q21 -17 36 -17q19 0 25 11t6 43v9q0 11 13 11h16q11 0 11 -13v-19q0 -43 -19 -63t-49 -20zM73 115v262q0 124 181 124
t181 -124v-262q0 -123 -181 -123t-181 123zM383 119v255q0 83 -129 83t-129 -83v-255q0 -83 129 -83t129 83z" />
    <glyph glyph-name="odieresis" unicode="&#xf6;" horiz-adv-x="508" 
d="M221 690v-98q0 -12 -12 -12h-18q-12 0 -12 12v98q0 12 12 12h18q12 0 12 -12zM319 690v-98q0 -12 -12 -12h-18q-12 0 -12 12v98q0 12 12 12h18q12 0 12 -12zM73 115v262q0 124 181 124t181 -124v-262q0 -123 -181 -123t-181 123zM383 119v255q0 83 -129 83t-129 -83v-255
q0 -83 129 -83t129 83z" />
    <glyph glyph-name="divide" unicode="&#xf7;" horiz-adv-x="564" 
d="M308 530v-77q0 -12 -11 -12h-30q-12 0 -12 12v77q0 12 12 12h30q11 0 11 -12zM82 348h399q12 0 12 -11v-21q0 -12 -12 -12h-398q-12 0 -12 12v21q0 11 11 11zM308 202v-77q0 -12 -11 -12h-30q-12 0 -12 12v77q0 12 12 12h30q11 0 11 -12z" />
    <glyph glyph-name="oslash" unicode="&#xf8;" horiz-adv-x="508" 
d="M110 -30h-18q-14 0 -5 17l23 42q-37 30 -37 86v262q0 124 181 124q67 0 110 -17l13 24q9 17 20 17h19q15 0 6 -17l-24 -44q37 -31 37 -87v-262q0 -123 -181 -123q-67 0 -110 17l-12 -22q-9 -17 -22 -17zM125 119q0 -27 11 -43l205 366q-30 15 -87 15q-129 0 -129 -83
v-255zM254 36q129 0 129 83v255q0 27 -12 43l-204 -367q31 -14 87 -14z" />
    <glyph glyph-name="ugrave" unicode="&#xf9;" horiz-adv-x="520" 
d="M236 577l-81 119q-9 12 6 12h32q9 0 16 -10l72 -117q7 -11 -5 -11h-25q-10 0 -15 7zM387 12l-2 40q-70 -60 -167 -60q-67 0 -102 32.5t-35 86.5v369q0 13 11 13h29q12 0 12 -13v-358q0 -83 98 -83q83 0 154 59v382q0 13 11 13h29q11 0 11 -13v-468q0 -12 -11 -12h-26
q-12 0 -12 12z" />
    <glyph glyph-name="uacute" unicode="&#xfa;" horiz-adv-x="520" 
d="M358 696l-81 -119q-5 -7 -15 -7h-24q-13 0 -6 11l72 117q7 10 16 10h32q15 0 6 -12zM387 12l-2 40q-70 -60 -167 -60q-67 0 -102 32.5t-35 86.5v369q0 13 11 13h29q12 0 12 -13v-358q0 -83 98 -83q83 0 154 59v382q0 13 11 13h29q11 0 11 -13v-468q0 -12 -11 -12h-26
q-12 0 -12 12z" />
    <glyph glyph-name="ucircumflex" unicode="&#xfb;" horiz-adv-x="520" 
d="M256 674l-61 -93q-9 -11 -17 -11h-23q-13 0 -6 11l78 115q9 12 18 12h20q12 0 19 -11l78 -116q7 -11 -6 -11h-23q-9 0 -17 11zM387 12l-2 40q-70 -60 -167 -60q-67 0 -102 32.5t-35 86.5v369q0 13 11 13h29q12 0 12 -13v-358q0 -83 98 -83q83 0 154 59v382q0 13 11 13h29
q11 0 11 -13v-468q0 -12 -11 -12h-26q-12 0 -12 12z" />
    <glyph glyph-name="udieresis" unicode="&#xfc;" horiz-adv-x="520" 
d="M233 690v-98q0 -12 -12 -12h-18q-12 0 -12 12v98q0 12 12 12h18q12 0 12 -12zM331 690v-98q0 -12 -12 -12h-18q-12 0 -12 12v98q0 12 12 12h18q12 0 12 -12zM387 12l-2 40q-70 -60 -167 -60q-67 0 -102 32.5t-35 86.5v369q0 13 11 13h29q12 0 12 -13v-358q0 -83 98 -83
q83 0 154 59v382q0 13 11 13h29q11 0 11 -13v-468q0 -12 -11 -12h-26q-12 0 -12 12z" />
    <glyph glyph-name="yacute" unicode="&#xfd;" horiz-adv-x="438" 
d="M325 696l-81 -119q-5 -7 -15 -7h-24q-13 0 -6 11l72 117q7 10 16 10h32q15 0 6 -12zM83 480l123 -361q8 -23 14 -52q3 19 14 51l124 362q5 13 14 13h28q14 0 9 -13l-232 -676q-3 -12 -13 -12h-23q-13 0 -10 12l65 194l-167 482q-5 13 10 13h30q9 0 14 -13z" />
    <glyph glyph-name="thorn" unicode="&#xfe;" horiz-adv-x="519" 
d="M136 687v-248q72 62 172 62q69 0 103 -33t34 -90v-264q0 -56 -34 -89t-103 -33q-99 0 -172 60v-248q0 -12 -12 -12h-29q-11 0 -11 12v883q0 12 11 12h29q12 0 12 -12zM394 121v251q0 37 -24.5 60t-74.5 23q-86 0 -159 -60v-298q73 -60 159 -60q51 0 75 23t24 61z" />
    <glyph glyph-name="ydieresis" unicode="&#xff;" horiz-adv-x="438" 
d="M195 690v-98q0 -12 -12 -12h-18q-12 0 -12 12v98q0 12 12 12h18q12 0 12 -12zM293 690v-98q0 -12 -12 -12h-18q-12 0 -12 12v98q0 12 12 12h18q12 0 12 -12zM83 480l123 -361q8 -23 14 -52q3 19 14 51l124 362q5 13 14 13h28q14 0 9 -13l-232 -676q-3 -12 -13 -12h-23
q-13 0 -10 12l65 194l-167 482q-5 13 10 13h30q9 0 14 -13z" />
    <glyph glyph-name="Amacron" unicode="&#x100;" horiz-adv-x="525" 
d="M133 820h257q12 0 12 -11v-18q0 -12 -12 -12h-257q-12 0 -12 12v18q0 11 12 11zM247 680h31q12 0 15 -12l203 -656q4 -12 -10 -12h-30q-11 0 -14 12l-61 194h-241l-59 -194q-3 -12 -14 -12h-29q-12 0 -9 12l203 656q3 12 15 12zM369 249l-83 268q-17 57 -25 106
q-13 -71 -23 -104l-85 -270h216z" />
    <glyph glyph-name="amacron" unicode="&#x101;" horiz-adv-x="498" 
d="M117 645h257q12 0 12 -11v-18q0 -12 -12 -12h-257q-12 0 -12 12v18q0 11 12 11zM69 360v18q0 123 174 123q95 0 134.5 -32t39.5 -91v-366q0 -12 -11 -12h-25q-12 0 -12 12l-2 40q-76 -60 -170 -60q-67 0 -102 32.5t-35 83.5v51q0 51 32.5 83.5t92.5 32.5h181v99
q0 40 -27 62t-96 22q-70 0 -97.5 -21.5t-27.5 -61.5v-15q0 -12 -12 -12h-26q-11 0 -11 12zM208 36q83 0 158 59v138h-172q-83 0 -83 -80v-39q0 -78 97 -78z" />
    <glyph glyph-name="Abreve" unicode="&#x102;" horiz-adv-x="525" 
d="M189 872v-18q0 -36 15 -54.5t58 -18.5t58 19t15 54v18q0 11 11 11h18q11 0 11 -11v-17q0 -53 -26 -81t-88 -28q-63 0 -88 28t-25 81v17q0 11 11 11h19q11 0 11 -11zM247 680h31q12 0 15 -12l203 -656q4 -12 -10 -12h-30q-11 0 -14 12l-61 194h-241l-59 -194
q-3 -12 -14 -12h-29q-12 0 -9 12l203 656q3 12 15 12zM369 249l-83 268q-17 57 -25 106q-13 -71 -23 -104l-85 -270h216z" />
    <glyph glyph-name="abreve" unicode="&#x103;" horiz-adv-x="498" 
d="M167 676v-17q0 -36 15 -54.5t58 -18.5q44 0 59 18.5t15 54.5v17q0 11 11 11h18q11 0 11 -11v-17q0 -53 -26 -81t-89 -28q-62 0 -87.5 28t-25.5 81v17q0 11 11 11h19q11 0 11 -11zM69 360v18q0 123 174 123q95 0 134.5 -32t39.5 -91v-366q0 -12 -11 -12h-25q-12 0 -12 12
l-2 40q-76 -60 -170 -60q-67 0 -102 32.5t-35 83.5v51q0 51 32.5 83.5t92.5 32.5h181v99q0 40 -27 62t-96 22q-70 0 -97.5 -21.5t-27.5 -61.5v-15q0 -12 -12 -12h-26q-11 0 -11 12zM208 36q83 0 158 59v138h-172q-83 0 -83 -80v-39q0 -78 97 -78z" />
    <glyph glyph-name="Aogonek" unicode="&#x104;" horiz-adv-x="525" 
d="M247 680h31q12 0 15 -12l203 -656q4 -12 -9 -12h-10q-35 -7 -51.5 -26.5t-16.5 -41.5q0 -43 58 -43h23q12 0 12 -12v-14q0 -12 -15 -12h-31q-89 0 -89 74q0 24 17.5 51.5t53.5 45.5l-57 184h-241l-59 -194q-3 -12 -14 -12h-29q-14 0 -9 12l203 656q3 12 15 12zM369 249
l-83 268q-20 63 -25 106q-14 -77 -23 -104l-85 -270h216z" />
    <glyph glyph-name="aogonek" unicode="&#x105;" horiz-adv-x="498" 
d="M69 360v18q0 123 174 123q95 0 134.5 -32t39.5 -91v-366q0 -12 -11 -12h-4q-34 -8 -50 -27.5t-16 -41.5q0 -42 57 -42h17q11 0 11 -12v-14q0 -12 -14 -12h-26q-39 0 -63 18.5t-24 55.5q0 57 75 95l-2 32q-76 -60 -170 -60q-67 0 -102 32.5t-35 83.5v51q0 51 32.5 83.5
t92.5 32.5h181v99q0 40 -27 62t-96 22q-70 0 -97.5 -21.5t-27.5 -61.5v-15q0 -12 -12 -12h-26q-11 0 -11 12zM208 36q83 0 158 59v138h-172q-83 0 -83 -80v-39q0 -78 97 -78z" />
    <glyph glyph-name="Cacute" unicode="&#x106;" horiz-adv-x="548" 
d="M385 866l-81 -119q-5 -7 -14 -7h-25q-13 0 -6 11l72 117q7 10 16 10h32q15 0 6 -12zM493 198v-65q0 -141 -204 -141t-204 141v414q0 141 204 141t204 -141v-52q0 -13 -11 -13h-29q-12 0 -12 13v44q0 49 -34.5 76t-117.5 27t-117 -26.5t-34 -76.5v-398q0 -50 34 -76.5
t117 -26.5t117.5 27t34.5 76v57q0 11 12 11h29q11 0 11 -11z" />
    <glyph glyph-name="cacute" unicode="&#x107;" horiz-adv-x="478" 
d="M348 696l-81 -119q-5 -7 -15 -7h-24q-13 0 -6 11l72 117q7 10 16 10h32q15 0 6 -12zM249 501q96 0 135.5 -32.5t39.5 -91.5v-19q0 -12 -11 -12h-27q-12 0 -12 12v16q0 40 -27.5 61.5t-96.5 21.5t-97 -21.5t-28 -61.5v-255q0 -41 28 -62t97 -21t96.5 21t27.5 62v24
q0 12 12 12h27q11 0 11 -12v-28q0 -123 -175 -123q-95 0 -135 32t-40 91v262q0 59 40 91.5t135 32.5z" />
    <glyph glyph-name="Ccircumflex" unicode="&#x108;" horiz-adv-x="548" 
d="M282 844l-60 -93q-7 -11 -17 -11h-23q-13 0 -6 11l77 115q9 12 19 12h20q11 0 18 -11l79 -116q7 -11 -7 -11h-23q-10 0 -16 11zM493 198v-65q0 -141 -204 -141t-204 141v414q0 141 204 141t204 -141v-52q0 -13 -11 -13h-29q-12 0 -12 13v44q0 49 -34.5 76t-117.5 27
t-117 -26.5t-34 -76.5v-398q0 -50 34 -76.5t117 -26.5t117.5 27t34.5 76v57q0 11 12 11h29q11 0 11 -11z" />
    <glyph glyph-name="ccircumflex" unicode="&#x109;" horiz-adv-x="478" 
d="M247 674l-61 -93q-9 -11 -17 -11h-23q-13 0 -6 11l78 115q9 12 18 12h20q12 0 19 -11l78 -116q7 -11 -6 -11h-23q-9 0 -17 11zM249 501q96 0 135.5 -32.5t39.5 -91.5v-19q0 -12 -11 -12h-27q-12 0 -12 12v16q0 40 -27.5 61.5t-96.5 21.5t-97 -21.5t-28 -61.5v-255
q0 -41 28 -62t97 -21t96.5 21t27.5 62v24q0 12 12 12h27q11 0 11 -12v-28q0 -123 -175 -123q-95 0 -135 32t-40 91v262q0 59 40 91.5t135 32.5z" />
    <glyph glyph-name="Cdotaccent" unicode="&#x10a;" horiz-adv-x="548" 
d="M307 838v-77q0 -12 -12 -12h-29q-12 0 -12 12v77q0 12 12 12h29q12 0 12 -12zM493 198v-65q0 -141 -204 -141t-204 141v414q0 141 204 141t204 -141v-52q0 -13 -11 -13h-29q-12 0 -12 13v44q0 49 -34.5 76t-117.5 27t-117 -26.5t-34 -76.5v-398q0 -50 34 -76.5t117 -26.5
t117.5 27t34.5 76v57q0 11 12 11h29q11 0 11 -11z" />
    <glyph glyph-name="cdotaccent" unicode="&#x10b;" horiz-adv-x="478" 
d="M270 675v-77q0 -12 -12 -12h-29q-12 0 -12 12v77q0 12 12 12h29q12 0 12 -12zM249 501q96 0 135.5 -32.5t39.5 -91.5v-19q0 -12 -11 -12h-27q-12 0 -12 12v16q0 40 -27.5 61.5t-96.5 21.5t-97 -21.5t-28 -61.5v-255q0 -41 28 -62t97 -21t96.5 21t27.5 62v24q0 12 12 12
h27q11 0 11 -12v-28q0 -123 -175 -123q-95 0 -135 32t-40 91v262q0 59 40 91.5t135 32.5z" />
    <glyph glyph-name="Ccaron" unicode="&#x10c;" horiz-adv-x="548" 
d="M220 866l60 -92l61 92q7 12 16 12h23q16 0 7 -12l-79 -115q-8 -11 -18 -11h-20q-10 0 -19 12l-77 114q-9 12 6 12h23q10 0 17 -12zM493 198v-65q0 -141 -204 -141t-204 141v414q0 141 204 141t204 -141v-52q0 -13 -11 -13h-29q-12 0 -12 13v44q0 49 -34.5 76t-117.5 27
t-117 -26.5t-34 -76.5v-398q0 -50 34 -76.5t117 -26.5t117.5 27t34.5 76v57q0 11 12 11h29q11 0 11 -11z" />
    <glyph glyph-name="ccaron" unicode="&#x10d;" horiz-adv-x="478" 
d="M183 696l61 -92l60 92q9 12 17 12h23q15 0 6 -12l-78 -115q-8 -11 -19 -11h-20q-9 0 -18 12l-78 114q-9 12 6 12h23q10 0 17 -12zM249 501q96 0 135.5 -32.5t39.5 -91.5v-19q0 -12 -11 -12h-27q-12 0 -12 12v16q0 40 -27.5 61.5t-96.5 21.5t-97 -21.5t-28 -61.5v-255
q0 -41 28 -62t97 -21t96.5 21t27.5 62v24q0 12 12 12h27q11 0 11 -12v-28q0 -123 -175 -123q-95 0 -135 32t-40 91v262q0 59 40 91.5t135 32.5z" />
    <glyph glyph-name="Dcaron" unicode="&#x10e;" horiz-adv-x="598" 
d="M232 866l60 -92l61 92q7 12 16 12h23q16 0 7 -12l-79 -115q-8 -11 -18 -11h-20q-10 0 -19 12l-77 114q-9 12 6 12h23q10 0 17 -12zM305 0h-198q-11 0 -11 12v656q0 12 11 12h198q209 0 209 -141v-398q0 -141 -209 -141zM305 634h-156v-588h156q156 0 156 103v382
q0 103 -156 103z" />
    <glyph glyph-name="dcaron" unicode="&#x10f;" horiz-adv-x="532" 
d="M519 674v27q0 12 12 12h22q12 0 12 -12v-29q0 -53 -37 -114q-5 -9 -16 -6l-17 5q-11 3 -5 16q2 5 7.5 15.5t7 14t5 12t4.5 13t2.5 12.5t2 16t0.5 18zM387 12l-2 41q-77 -61 -174 -61q-69 0 -103 33t-34 90v263q0 57 34 90t103 33q93 0 173 -61v247q0 12 11 12h29
q12 0 12 -12v-675q0 -12 -12 -12h-25q-12 0 -12 12zM126 371v-249q0 -37 24 -60t74 -23q80 0 160 59v295q-73 60 -160 60q-50 0 -74 -22.5t-24 -59.5z" />
    <glyph glyph-name="Dcroat" unicode="&#x110;" horiz-adv-x="606" 
d="M522 141q0 -141 -209 -141h-198q-11 0 -11 12v312h-72q-12 0 -12 11v18q0 12 12 12h72v303q0 12 11 12h198q209 0 209 -141v-398zM157 46h156q156 0 156 103v382q0 103 -156 103h-156v-269h144q11 0 11 -12v-18q0 -11 -11 -11h-144v-278z" />
    <glyph glyph-name="dcroat" unicode="&#x111;" horiz-adv-x="519" 
d="M385 53q-77 -61 -174 -61q-69 0 -103 33t-34 90v263q0 57 34 90t103 33q93 0 173 -61v124h-164q-12 0 -12 12v15q0 12 12 12h164v84q0 12 11 12h29q12 0 12 -12v-84h48q12 0 12 -12v-15q0 -12 -12 -12h-48v-552q0 -12 -12 -12h-25q-12 0 -12 12zM126 371v-249
q0 -37 24 -60t74 -23q80 0 160 59v295q-73 60 -160 60q-50 0 -74 -22.5t-24 -59.5z" />
    <glyph glyph-name="Emacron" unicode="&#x112;" horiz-adv-x="523" 
d="M142 820h257q12 0 12 -11v-18q0 -12 -12 -12h-257q-12 0 -12 12v18q0 11 12 11zM461 0h-354q-11 0 -11 12v656q0 12 12 12h341q12 0 12 -12v-22q0 -12 -12 -12h-300v-254h282q12 0 12 -12v-21q0 -12 -12 -12h-282v-289h312q12 0 12 -12v-22q0 -12 -12 -12z" />
    <glyph glyph-name="emacron" unicode="&#x113;" horiz-adv-x="494" 
d="M117 645h257q12 0 12 -11v-18q0 -12 -12 -12h-257q-12 0 -12 12v18q0 11 12 11zM427 377v-124q0 -11 -11 -11h-291v-124q0 -40 28 -61.5t98 -21.5q71 0 99 21.5t28 61.5v21q0 12 12 12h25q12 0 12 -12v-24q0 -123 -177 -123q-96 0 -136 32t-40 91v262q0 124 177 124
q96 0 136 -32.5t40 -91.5zM125 375v-93h253v93q0 83 -127 83q-126 0 -126 -83z" />
    <glyph glyph-name="Ebreve" unicode="&#x114;" horiz-adv-x="523" 
d="M204 872v-18q0 -36 15 -54.5t58 -18.5t58 19t15 54v18q0 11 11 11h18q11 0 11 -11v-17q0 -53 -26 -81t-88 -28q-63 0 -88 28t-25 81v17q0 11 11 11h19q11 0 11 -11zM461 0h-354q-11 0 -11 12v656q0 12 12 12h341q12 0 12 -12v-22q0 -12 -12 -12h-300v-254h282
q12 0 12 -12v-21q0 -12 -12 -12h-282v-289h312q12 0 12 -12v-22q0 -12 -12 -12z" />
    <glyph glyph-name="ebreve" unicode="&#x115;" horiz-adv-x="494" 
d="M172 676v-17q0 -36 15 -54.5t58 -18.5q44 0 59 18.5t15 54.5v17q0 11 11 11h18q11 0 11 -11v-17q0 -53 -26 -81t-89 -28q-62 0 -87.5 28t-25.5 81v17q0 11 11 11h19q11 0 11 -11zM427 377v-124q0 -11 -11 -11h-291v-124q0 -40 28 -61.5t98 -21.5q71 0 99 21.5t28 61.5v21
q0 12 12 12h25q12 0 12 -12v-24q0 -123 -177 -123q-96 0 -136 32t-40 91v262q0 124 177 124q96 0 136 -32.5t40 -91.5zM125 375v-93h253v93q0 83 -127 83q-126 0 -126 -83z" />
    <glyph glyph-name="Edotaccent" unicode="&#x116;" horiz-adv-x="523" 
d="M306 838v-77q0 -12 -12 -12h-29q-12 0 -12 12v77q0 12 12 12h29q12 0 12 -12zM461 0h-354q-11 0 -11 12v656q0 12 12 12h341q12 0 12 -12v-22q0 -12 -12 -12h-300v-254h282q12 0 12 -12v-21q0 -12 -12 -12h-282v-289h312q12 0 12 -12v-22q0 -12 -12 -12z" />
    <glyph glyph-name="edotaccent" unicode="&#x117;" horiz-adv-x="494" 
d="M275 675v-77q0 -12 -12 -12h-29q-12 0 -12 12v77q0 12 12 12h29q12 0 12 -12zM427 377v-124q0 -11 -11 -11h-291v-124q0 -40 28 -61.5t98 -21.5q71 0 99 21.5t28 61.5v21q0 12 12 12h25q12 0 12 -12v-24q0 -123 -177 -123q-96 0 -136 32t-40 91v262q0 124 177 124
q96 0 136 -32.5t40 -91.5zM125 375v-93h253v93q0 83 -127 83q-126 0 -126 -83z" />
    <glyph glyph-name="Eogonek" unicode="&#x118;" horiz-adv-x="523" 
d="M461 0h-26q-36 0 -54.5 -19.5t-18.5 -45.5q0 -46 57 -46h28q12 0 12 -12v-14q0 -12 -14 -12h-37q-39 0 -64 19t-25 57q0 42 37 73h-249q-11 0 -11 12v656q0 12 12 12h341q12 0 12 -12v-22q0 -12 -12 -12h-300v-254h282q12 0 12 -12v-21q0 -12 -12 -12h-282v-289h312
q12 0 12 -12v-22q0 -12 -12 -12z" />
    <glyph glyph-name="eogonek" unicode="&#x119;" horiz-adv-x="495" 
d="M427 377v-124q0 -11 -11 -11h-291v-124q0 -40 28 -61.5t98 -21.5q71 0 99 21.5t28 61.5v21q0 12 12 12h25q12 0 12 -12v-24q0 -57 -36 -87q-3 -2 -20.5 -16t-23 -20.5t-13 -21.5t-7.5 -32q0 -49 59 -49h29q12 0 12 -12v-14q0 -12 -14 -12h-39q-39 0 -63.5 19.5
t-24.5 56.5q0 41 26 70q-30 -5 -62 -5q-96 0 -136 32t-40 91v262q0 124 177 124q96 0 136 -32.5t40 -91.5zM125 375v-93h253v93q0 83 -127 83q-126 0 -126 -83z" />
    <glyph glyph-name="Ecaron" unicode="&#x11a;" horiz-adv-x="523" 
d="M213 866l60 -92l61 92q7 12 16 12h23q16 0 7 -12l-79 -115q-8 -11 -18 -11h-20q-10 0 -19 12l-77 114q-9 12 6 12h23q10 0 17 -12zM461 0h-354q-11 0 -11 12v656q0 12 12 12h341q12 0 12 -12v-22q0 -12 -12 -12h-300v-254h282q12 0 12 -12v-21q0 -12 -12 -12h-282v-289
h312q12 0 12 -12v-22q0 -12 -12 -12z" />
    <glyph glyph-name="ecaron" unicode="&#x11b;" horiz-adv-x="494" 
d="M185 696l61 -92l60 92q9 12 17 12h23q15 0 6 -12l-78 -115q-8 -11 -19 -11h-20q-9 0 -18 12l-78 114q-9 12 6 12h23q10 0 17 -12zM427 377v-124q0 -11 -11 -11h-291v-124q0 -40 28 -61.5t98 -21.5q71 0 99 21.5t28 61.5v21q0 12 12 12h25q12 0 12 -12v-24
q0 -123 -177 -123q-96 0 -136 32t-40 91v262q0 124 177 124q96 0 136 -32.5t40 -91.5zM125 375v-93h253v93q0 83 -127 83q-126 0 -126 -83z" />
    <glyph glyph-name="Gcircumflex" unicode="&#x11c;" horiz-adv-x="570" 
d="M281 844l-60 -93q-7 -11 -17 -11h-23q-13 0 -6 11l77 115q9 12 19 12h20q11 0 18 -11l79 -116q7 -11 -7 -11h-23q-10 0 -16 11zM298 319h183q12 0 12 -12v-174q0 -141 -204 -141t-204 141v414q0 141 204 141t204 -141v-50q0 -12 -11 -12h-29q-12 0 -12 12v42
q0 49 -34.5 76t-117.5 27t-117 -26.5t-34 -76.5v-398q0 -50 34 -76.5t117 -26.5q152 0 152 101v134h-143q-12 0 -12 12v22q0 12 12 12z" />
    <glyph glyph-name="gcircumflex" unicode="&#x11d;" horiz-adv-x="519" 
d="M261 674l-61 -93q-9 -11 -17 -11h-23q-13 0 -6 11l78 115q9 12 18 12h20q12 0 19 -11l78 -116q7 -11 -6 -11h-23q-9 0 -17 11zM211 -8q-69 0 -103 33t-34 90v263q0 57 34 90t103 33q96 0 174 -62l2 41q0 13 12 13h25q12 0 12 -13v-564q0 -124 -179 -124h-135
q-12 0 -12 12v21q0 12 12 12h135q127 0 127 83v132q-78 -60 -173 -60zM126 371v-249q0 -37 24 -60t74 -23q80 0 160 59v295q-73 60 -160 60q-50 0 -74 -22.5t-24 -59.5z" />
    <glyph glyph-name="Gbreve" unicode="&#x11e;" horiz-adv-x="570" 
d="M208 872v-18q0 -36 15 -54.5t58 -18.5t58 19t15 54v18q0 11 11 11h18q11 0 11 -11v-17q0 -53 -26 -81t-88 -28q-63 0 -88 28t-25 81v17q0 11 11 11h19q11 0 11 -11zM298 319h183q12 0 12 -12v-174q0 -141 -204 -141t-204 141v414q0 141 204 141t204 -141v-50
q0 -12 -11 -12h-29q-12 0 -12 12v42q0 49 -34.5 76t-117.5 27t-117 -26.5t-34 -76.5v-398q0 -50 34 -76.5t117 -26.5q152 0 152 101v134h-143q-12 0 -12 12v22q0 12 12 12z" />
    <glyph glyph-name="gbreve" unicode="&#x11f;" horiz-adv-x="519" 
d="M181 676v-17q0 -36 15 -54.5t58 -18.5q44 0 59 18.5t15 54.5v17q0 11 11 11h18q11 0 11 -11v-17q0 -53 -26 -81t-89 -28q-62 0 -87.5 28t-25.5 81v17q0 11 11 11h19q11 0 11 -11zM211 -8q-69 0 -103 33t-34 90v263q0 57 34 90t103 33q96 0 174 -62l2 41q0 13 12 13h25
q12 0 12 -13v-564q0 -124 -179 -124h-135q-12 0 -12 12v21q0 12 12 12h135q127 0 127 83v132q-78 -60 -173 -60zM126 371v-249q0 -37 24 -60t74 -23q80 0 160 59v295q-73 60 -160 60q-50 0 -74 -22.5t-24 -59.5z" />
    <glyph glyph-name="Gdotaccent" unicode="&#x120;" horiz-adv-x="570" 
d="M308 836v-77q0 -12 -12 -12h-29q-12 0 -12 12v77q0 12 12 12h29q12 0 12 -12zM298 319h183q12 0 12 -12v-174q0 -141 -204 -141t-204 141v414q0 141 204 141t204 -141v-50q0 -12 -11 -12h-29q-12 0 -12 12v42q0 49 -34.5 76t-117.5 27t-117 -26.5t-34 -76.5v-398
q0 -50 34 -76.5t117 -26.5q152 0 152 101v134h-143q-12 0 -12 12v22q0 12 12 12z" />
    <glyph glyph-name="gdotaccent" unicode="&#x121;" horiz-adv-x="519" 
d="M277 675v-77q0 -12 -12 -12h-29q-12 0 -12 12v77q0 12 12 12h29q12 0 12 -12zM211 -8q-69 0 -103 33t-34 90v263q0 57 34 90t103 33q96 0 174 -62l2 41q0 13 12 13h25q12 0 12 -13v-564q0 -124 -179 -124h-135q-12 0 -12 12v21q0 12 12 12h135q127 0 127 83v132
q-78 -60 -173 -60zM126 371v-249q0 -37 24 -60t74 -23q80 0 160 59v295q-73 60 -160 60q-50 0 -74 -22.5t-24 -59.5z" />
    <glyph glyph-name="Gcommaaccent" unicode="&#x122;" horiz-adv-x="570" 
d="M298 319h183q12 0 12 -12v-174q0 -141 -204 -141t-204 141v414q0 141 204 141t204 -141v-50q0 -12 -11 -12h-29q-12 0 -12 12v42q0 49 -34.5 76t-117.5 27t-117 -26.5t-34 -76.5v-398q0 -50 34 -76.5t117 -26.5q152 0 152 101v134h-143q-12 0 -12 12v22q0 12 12 12z
M267 -89v27q0 12 12 12h22q12 0 12 -12v-29q0 -53 -37 -114q-5 -9 -16 -6l-17 5q-11 3 -5 16q2 5 7.5 15.5t7 14t5 12t4.5 13t2.5 12.5t2 16t0.5 18z" />
    <glyph glyph-name="gcommaaccent" unicode="&#x123;" horiz-adv-x="519" 
d="M268 612v-27q0 -12 -12 -12h-22q-12 0 -12 12v29q0 53 37 114q5 9 16 6l17 -5q11 -3 5 -16q-2 -5 -7.5 -15.5t-7 -14t-5 -12t-4.5 -13t-2.5 -12.5t-2 -16t-0.5 -18zM211 -8q-69 0 -103 33t-34 90v263q0 57 34 90t103 33q96 0 174 -62l2 41q0 13 12 13h25q12 0 12 -13
v-564q0 -124 -179 -124h-135q-12 0 -12 12v21q0 12 12 12h135q127 0 127 83v132q-78 -60 -173 -60zM126 371v-249q0 -37 24 -60t74 -23q80 0 160 59v295q-73 60 -160 60q-50 0 -74 -22.5t-24 -59.5z" />
    <glyph glyph-name="Hcircumflex" unicode="&#x124;" horiz-adv-x="610" 
d="M304 844l-60 -93q-7 -11 -17 -11h-23q-13 0 -6 11l77 115q9 12 19 12h20q11 0 18 -11l79 -116q7 -11 -7 -11h-23q-10 0 -16 11zM149 668v-282h312v282q0 12 11 12h31q11 0 11 -12v-656q0 -12 -11 -12h-31q-11 0 -11 12v328h-312v-328q0 -12 -11 -12h-30q-12 0 -12 12v656
q0 12 12 12h30q11 0 11 -12z" />
    <glyph glyph-name="hcircumflex" unicode="&#x125;" horiz-adv-x="526" 
d="M109 844l-60 -93q-7 -11 -17 -11h-23q-13 0 -6 11l77 115q9 12 19 12h20q11 0 18 -11l79 -116q7 -11 -7 -11h-23q-10 0 -16 11zM135 687v-247q74 61 173 61q67 0 102 -32.5t35 -87.5v-369q0 -12 -11 -12h-29q-12 0 -12 12v359q0 83 -98 83q-87 0 -160 -60v-382
q0 -12 -11 -12h-29q-12 0 -12 12v675q0 12 12 12h29q11 0 11 -12z" />
    <glyph glyph-name="Hbar" unicode="&#x126;" horiz-adv-x="612" 
d="M150 12q0 -12 -11 -12h-30q-12 0 -12 12v489h-38q-12 0 -12 12v15q0 12 12 12h38v128q0 12 12 12h30q11 0 11 -12v-128h312v128q0 12 11 12h31q11 0 11 -12v-128h38q12 0 12 -12v-15q0 -12 -12 -12h-38v-489q0 -12 -11 -12h-31q-11 0 -11 12v328h-312v-328zM150 386h312
v115h-312v-115z" />
    <glyph glyph-name="hbar" unicode="&#x127;" horiz-adv-x="526" 
d="M135 12q0 -12 -11 -12h-29q-12 0 -12 12v552h-47q-13 0 -13 12v16q0 11 13 11h47v84q0 12 12 12h29q11 0 11 -12v-84h163q13 0 13 -11v-16q0 -12 -13 -12h-163v-124q74 61 173 61q67 0 102 -32.5t35 -87.5v-369q0 -12 -11 -12h-29q-12 0 -12 12v359q0 83 -98 83
q-87 0 -160 -60v-382z" />
    <glyph glyph-name="Itilde" unicode="&#x128;" horiz-adv-x="245" 
d="M188 796q19 0 25 11t6 43v9q0 11 13 11h16q11 0 11 -13v-19q0 -83 -69 -83q-26 0 -52 20l-45 36q-21 17 -36 17q-19 0 -25 -10.5t-6 -43.5v-9q0 -11 -13 -11h-17q-10 0 -10 14v19q0 82 68 82q29 0 52 -19l46 -37q23 -17 36 -17zM149 668v-656q0 -12 -11 -12h-30
q-12 0 -12 12v656q0 12 12 12h30q11 0 11 -12z" />
    <glyph glyph-name="itilde" unicode="&#x129;" horiz-adv-x="218" 
d="M178 580q-28 0 -52 20l-46 36q-22 18 -36 18q-19 0 -25 -11t-6 -44v-8q0 -11 -13 -11h-16q-11 0 -11 13v19q0 43 19 63t49 20q27 0 52 -20l46 -37q21 -17 36 -17q19 0 25 11t6 43v9q0 11 13 11h16q11 0 11 -13v-19q0 -43 -19 -63t-49 -20zM135 480v-468q0 -12 -11 -12
h-29q-12 0 -12 12v468q0 13 12 13h29q11 0 11 -13z" />
    <glyph glyph-name="Imacron" unicode="&#x12a;" horiz-adv-x="245" 
d="M-6 820h257q12 0 12 -11v-18q0 -12 -12 -12h-257q-12 0 -12 12v18q0 11 12 11zM149 668v-656q0 -12 -11 -12h-30q-12 0 -12 12v656q0 12 12 12h30q11 0 11 -12z" />
    <glyph glyph-name="imacron" unicode="&#x12b;" horiz-adv-x="218" 
d="M-19 645h257q12 0 12 -11v-18q0 -12 -12 -12h-257q-12 0 -12 12v18q0 11 12 11zM135 480v-468q0 -12 -11 -12h-29q-12 0 -12 12v468q0 13 12 13h29q11 0 11 -13z" />
    <glyph glyph-name="Ibreve" unicode="&#x12c;" horiz-adv-x="245" 
d="M50 872v-18q0 -36 15 -54.5t58 -18.5t58 19t15 54v18q0 11 11 11h18q11 0 11 -11v-17q0 -53 -26 -81t-88 -28q-63 0 -88 28t-25 81v17q0 11 11 11h19q11 0 11 -11zM149 668v-656q0 -12 -11 -12h-30q-12 0 -12 12v656q0 12 12 12h30q11 0 11 -12z" />
    <glyph glyph-name="ibreve" unicode="&#x12d;" horiz-adv-x="218" 
d="M36 676v-17q0 -36 15 -54.5t58 -18.5q44 0 59 18.5t15 54.5v17q0 11 11 11h18q11 0 11 -11v-17q0 -53 -26 -81t-89 -28q-62 0 -87.5 28t-25.5 81v17q0 11 11 11h19q11 0 11 -11zM135 480v-468q0 -12 -11 -12h-29q-12 0 -12 12v468q0 13 12 13h29q11 0 11 -13z" />
    <glyph glyph-name="Iogonek" unicode="&#x12e;" horiz-adv-x="247" 
d="M150 668v-656q0 -12 -11 -12h-10q-32 -6 -48.5 -26t-16.5 -42q0 -43 58 -43h22q12 0 12 -12v-14q0 -12 -14 -12h-31q-89 0 -89 74q0 27 21.5 55t54.5 43v645q0 12 11 12h30q11 0 11 -12z" />
    <glyph glyph-name="iogonek" unicode="&#x12f;" horiz-adv-x="222" 
d="M139 687v-95q0 -12 -12 -12h-28q-12 0 -12 12v95q0 12 12 12h28q12 0 12 -12zM131 -149h-31q-89 0 -89 74q0 27 21.5 55.5t54.5 42.5v457q0 13 12 13h28q12 0 12 -13v-468q0 -12 -12 -12h-8q-34 -7 -50 -26.5t-16 -41.5q0 -43 58 -43h23q12 0 12 -12v-14q0 -12 -15 -12z
" />
    <glyph glyph-name="Idotaccent" unicode="&#x130;" horiz-adv-x="245" 
d="M149 838v-77q0 -12 -12 -12h-29q-12 0 -12 12v77q0 12 12 12h29q12 0 12 -12zM149 668v-656q0 -12 -11 -12h-30q-12 0 -12 12v656q0 12 12 12h30q11 0 11 -12z" />
    <glyph glyph-name="dotlessi" unicode="&#x131;" horiz-adv-x="218" 
d="M135 480v-468q0 -12 -11 -12h-29q-12 0 -12 12v468q0 13 12 13h29q11 0 11 -13z" />
    <glyph glyph-name="IJ" unicode="&#x132;" horiz-adv-x="739" 
d="M149 668v-656q0 -12 -11 -12h-30q-12 0 -12 12v656q0 12 12 12h30q11 0 11 -12zM332 174v-33q0 -50 28.5 -76.5t102.5 -26.5t102 26.5t28 76.5v527q0 12 12 12h30q12 0 12 -12v-535q0 -66 -41 -103.5t-143 -37.5t-143 37.5t-41 103.5v41q0 12 12 12h29q12 0 12 -12z" />
    <glyph glyph-name="ij" unicode="&#x133;" horiz-adv-x="439" 
d="M135 687v-95q0 -12 -11 -12h-29q-12 0 -12 12v95q0 12 12 12h29q11 0 11 -12zM356 687v-95q0 -12 -11 -12h-29q-12 0 -12 12v95q0 12 12 12h29q11 0 11 -12zM135 480v-468q0 -12 -11 -12h-29q-12 0 -12 12v468q0 13 12 13h29q11 0 11 -13zM356 480v-564q0 -124 -179 -124
h-5q-12 0 -12 12v21q0 12 12 12h5q127 0 127 83v560q0 13 12 13h28q12 0 12 -13z" />
    <glyph glyph-name="Jcircumflex" unicode="&#x134;" horiz-adv-x="492" 
d="M371 844l-60 -93q-7 -11 -17 -11h-23q-13 0 -6 11l77 115q9 12 19 12h20q11 0 18 -11l79 -116q7 -11 -7 -11h-23q-10 0 -16 11zM85 174v-33q0 -50 28.5 -76.5t102.5 -26.5t102 26.5t28 76.5v527q0 12 12 12h30q12 0 12 -12v-535q0 -66 -41 -103.5t-143 -37.5t-143 37.5
t-41 103.5v41q0 12 12 12h29q12 0 12 -12z" />
    <glyph glyph-name="jcircumflex" unicode="&#x135;" horiz-adv-x="218" 
d="M110 674l-61 -93q-9 -11 -17 -11h-23q-13 0 -6 11l78 115q9 12 18 12h20q12 0 19 -11l78 -116q7 -11 -6 -11h-23q-9 0 -17 11zM135 480v-565q0 -123 -179 -123h-5q-12 0 -12 12v20q0 12 12 12h5q70 0 98.5 21.5t28.5 62.5v560q0 13 12 13h29q11 0 11 -13z" />
    <glyph glyph-name="Kcommaaccent" unicode="&#x136;" horiz-adv-x="538" 
d="M229 344l289 -332q3 -4 1 -8t-7 -4h-43q-7 0 -19 12l-268 308h-33v-308q0 -12 -11 -12h-30q-12 0 -12 12v656q0 12 12 12h30q11 0 11 -12v-307h32l246 308q9 11 20 11h36q15 0 6 -12zM248 -89v27q0 12 12 12h22q12 0 12 -12v-29q0 -53 -37 -114q-5 -9 -16 -6l-17 5
q-11 3 -5 16q2 5 7.5 15.5t7 14t5 12t4.5 13t2.5 12.5t2 16t0.5 18z" />
    <glyph glyph-name="kcommaaccent" unicode="&#x137;" horiz-adv-x="454" 
d="M214 279l223 -267q4 -4 2.5 -8t-7.5 -4h-38q-10 0 -21 12l-203 245h-35v-245q0 -12 -11 -12h-29q-12 0 -12 12v675q0 12 12 12h29q11 0 11 -12v-389h36l180 183q10 12 20 12h35q6 0 8 -4.5t-2 -8.5zM208 -89v27q0 12 12 12h22q12 0 12 -12v-29q0 -53 -37 -114
q-5 -9 -16 -6l-17 5q-11 3 -5 16q2 5 7.5 15.5t7 14t5 12t4.5 13t2.5 12.5t2 16t0.5 18z" />
    <glyph glyph-name="kgreenlandic" unicode="&#x138;" horiz-adv-x="454" 
d="M214 276l223 -264q4 -4 2.5 -8t-7.5 -4h-38q-12 0 -21 12l-203 241h-35v-241q0 -12 -11 -12h-29q-12 0 -12 12v469q0 12 12 12h29q11 0 11 -12v-187h36l180 187q10 12 20 12h35q6 0 8 -4t-2 -9z" />
    <glyph glyph-name="Lacute" unicode="&#x139;" horiz-adv-x="478" 
d="M228 866l-81 -119q-5 -7 -14 -7h-25q-13 0 -6 11l72 117q7 10 16 10h32q15 0 6 -12zM149 668v-622h296q12 0 12 -12v-22q0 -12 -12 -12h-339q-10 0 -10 12v656q0 12 12 12h30q11 0 11 -12z" />
    <glyph glyph-name="lacute" unicode="&#x13a;" horiz-adv-x="218" 
d="M215 866l-81 -119q-5 -7 -14 -7h-25q-13 0 -6 11l72 117q7 10 16 10h32q15 0 6 -12zM135 687v-675q0 -12 -11 -12h-29q-12 0 -12 12v675q0 12 12 12h29q11 0 11 -12z" />
    <glyph glyph-name="Lcommaaccent" unicode="&#x13b;" horiz-adv-x="478" 
d="M149 668v-622h296q12 0 12 -12v-22q0 -12 -12 -12h-339q-10 0 -10 12v656q0 12 12 12h30q11 0 11 -12zM245 -89v27q0 12 12 12h22q12 0 12 -12v-29q0 -53 -37 -114q-5 -9 -16 -6l-17 5q-11 3 -5 16q2 5 7.5 15.5t7 14t5 12t4.5 13t2.5 12.5t2 16t0.5 18z" />
    <glyph glyph-name="lcommaaccent" unicode="&#x13c;" horiz-adv-x="218" 
d="M135 687v-675q0 -12 -11 -12h-29q-12 0 -12 12v675q0 12 12 12h29q11 0 11 -12zM86 -89v27q0 12 12 12h22q12 0 12 -12v-29q0 -53 -37 -114q-5 -9 -16 -6l-17 5q-11 3 -5 16q2 5 7.5 15.5t7 14t5 12t4.5 13t2.5 12.5t2 16t0.5 18z" />
    <glyph glyph-name="Lcaron" unicode="&#x13d;" horiz-adv-x="479" 
d="M328 659v27q0 12 12 12h22q12 0 12 -12v-29q0 -53 -37 -114q-5 -9 -16 -6l-17 5q-11 3 -5 16q2 5 7.5 15.5t7 14t5 12t4.5 13t2.5 12.5t2 16t0.5 18zM149 668v-622h296q12 0 12 -12v-22q0 -12 -12 -12h-339q-10 0 -10 12v656q0 12 12 12h30q11 0 11 -12z" />
    <glyph glyph-name="lcaron" unicode="&#x13e;" horiz-adv-x="231" 
d="M219 674v27q0 12 12 12h22q12 0 12 -12v-29q0 -53 -37 -114q-5 -9 -16 -6l-17 5q-11 3 -5 16q2 5 7.5 15.5t7 14t5 12t4.5 13t2.5 12.5t2 16t0.5 18zM135 687v-675q0 -12 -11 -12h-29q-12 0 -12 12v675q0 12 12 12h29q11 0 11 -12z" />
    <glyph glyph-name="Ldot" unicode="&#x13f;" horiz-adv-x="478" 
d="M149 668v-622h296q12 0 12 -12v-22q0 -12 -12 -12h-339q-10 0 -10 12v656q0 12 12 12h30q11 0 11 -12zM388 393v-77q0 -12 -11 -12h-30q-12 0 -12 12v77q0 12 12 12h30q11 0 11 -12z" />
    <glyph glyph-name="ldot" unicode="&#x140;" horiz-adv-x="263" 
d="M135 687v-675q0 -12 -11 -12h-29q-12 0 -12 12v675q0 12 12 12h29q11 0 11 -12zM267 393v-77q0 -12 -11 -12h-30q-12 0 -12 12v77q0 12 12 12h30q11 0 11 -12z" />
    <glyph glyph-name="Lslash" unicode="&#x141;" horiz-adv-x="485" 
d="M464 12q0 -12 -12 -12h-339q-10 0 -10 12v296l-57 -23q-11 -4 -15 7l-4 10q-5 11 6 16l70 29v321q0 12 12 12h30q11 0 11 -12v-299l69 28q11 5 16 -6l5 -12q4 -9 -7 -15l-83 -34v-284h296q12 0 12 -12v-22z" />
    <glyph glyph-name="lslash" unicode="&#x142;" horiz-adv-x="254" 
d="M153 12q0 -12 -11 -12h-29q-12 0 -12 12v299l-64 -26q-9 -4 -15 7l-5 10q-5 11 7 16l77 32v337q0 12 12 12h29q11 0 11 -12v-316l63 26q10 3 15 -6l5 -12q4 -10 -7 -15l-76 -31v-321z" />
    <glyph glyph-name="Nacute" unicode="&#x143;" horiz-adv-x="609" 
d="M399 866l-81 -119q-5 -7 -14 -7h-25q-13 0 -6 11l72 117q7 10 16 10h32q15 0 6 -12zM513 668v-656q0 -12 -11 -12h-27q-8 0 -11 6l-286 509q-10 17 -32 61v-564q0 -12 -11 -12h-27q-12 0 -12 12v656q0 12 12 12h27q7 0 10 -5l289 -513q22 -39 29 -57v563q0 12 12 12h27
q11 0 11 -12z" />
    <glyph glyph-name="nacute" unicode="&#x144;" horiz-adv-x="526" 
d="M370 696l-81 -119q-5 -7 -15 -7h-24q-13 0 -6 11l72 117q7 10 16 10h32q15 0 6 -12zM95 493h25q12 0 12 -12l2 -42q75 62 174 62q67 0 102 -32.5t35 -87.5v-369q0 -12 -11 -12h-29q-12 0 -12 12v359q0 83 -98 83q-87 0 -160 -60v-382q0 -12 -11 -12h-29q-12 0 -12 12v469
q0 12 12 12z" />
    <glyph glyph-name="Ncommaaccent" unicode="&#x145;" horiz-adv-x="609" 
d="M513 668v-656q0 -12 -11 -12h-27q-8 0 -11 6l-286 509q-10 17 -32 61v-564q0 -12 -11 -12h-27q-12 0 -12 12v656q0 12 12 12h27q7 0 10 -5l289 -513q22 -39 29 -57v563q0 12 12 12h27q11 0 11 -12zM283 -89v27q0 12 12 12h22q12 0 12 -12v-29q0 -53 -37 -114
q-5 -9 -16 -6l-17 5q-11 3 -5 16q2 5 7.5 15.5t7 14t5 12t4.5 13t2.5 12.5t2 16t0.5 18z" />
    <glyph glyph-name="ncommaaccent" unicode="&#x146;" horiz-adv-x="526" 
d="M95 493h25q12 0 12 -12l2 -42q75 62 174 62q67 0 102 -32.5t35 -87.5v-369q0 -12 -11 -12h-29q-12 0 -12 12v359q0 83 -98 83q-87 0 -160 -60v-382q0 -12 -11 -12h-29q-12 0 -12 12v469q0 12 12 12zM241 -88v27q0 12 12 12h22q12 0 12 -12v-29q0 -53 -37 -114
q-5 -9 -16 -6l-17 5q-11 3 -5 16q2 5 7.5 15.5t7 14t5 12t4.5 13t2.5 12.5t2 16t0.5 18z" />
    <glyph glyph-name="Ncaron" unicode="&#x147;" horiz-adv-x="609" 
d="M244 866l60 -92l61 92q7 12 16 12h23q16 0 7 -12l-79 -115q-8 -11 -18 -11h-20q-10 0 -19 12l-77 114q-9 12 6 12h23q10 0 17 -12zM513 668v-656q0 -12 -11 -12h-27q-8 0 -11 6l-286 509q-10 17 -32 61v-564q0 -12 -11 -12h-27q-12 0 -12 12v656q0 12 12 12h27q7 0 10 -5
l289 -513q22 -39 29 -57v563q0 12 12 12h27q11 0 11 -12z" />
    <glyph glyph-name="ncaron" unicode="&#x148;" horiz-adv-x="526" 
d="M200 696l61 -92l60 92q9 12 17 12h23q15 0 6 -12l-78 -115q-8 -11 -19 -11h-20q-9 0 -18 12l-78 114q-9 12 6 12h23q10 0 17 -12zM95 493h25q12 0 12 -12l2 -42q75 62 174 62q67 0 102 -32.5t35 -87.5v-369q0 -12 -11 -12h-29q-12 0 -12 12v359q0 83 -98 83
q-87 0 -160 -60v-382q0 -12 -11 -12h-29q-12 0 -12 12v469q0 12 12 12z" />
    <glyph glyph-name="napostrophe" unicode="&#x149;" horiz-adv-x="526" 
d="M62 676v27q0 12 12 12h22q12 0 12 -12v-29q0 -53 -37 -114q-5 -9 -16 -6l-17 5q-11 3 -5 16q2 5 7.5 15.5t7 14t5 12t4.5 13t2.5 12.5t2 16t0.5 18zM95 493h25q12 0 12 -12l2 -42q75 62 174 62q67 0 102 -32.5t35 -87.5v-369q0 -12 -11 -12h-29q-12 0 -12 12v359
q0 83 -98 83q-87 0 -160 -60v-382q0 -12 -11 -12h-29q-12 0 -12 12v469q0 12 12 12z" />
    <glyph glyph-name="Eng" unicode="&#x14a;" horiz-adv-x="609" 
d="M513 668v-753q0 -123 -177 -123h-5q-13 0 -13 12v20q0 12 13 12h5q127 0 127 84v87l-285 508q-11 19 -32 61v-564q0 -12 -11 -12h-27q-12 0 -12 12v656q0 12 12 12h27q7 0 10 -5l289 -513q19 -34 29 -57v563q0 12 12 12h27q11 0 11 -12z" />
    <glyph glyph-name="eng" unicode="&#x14b;" horiz-adv-x="526" 
d="M120 493q12 0 12 -12l1 -42q77 62 175 62q67 0 102 -32.5t35 -86.5v-467q0 -123 -179 -123h-5q-12 0 -12 12v20q0 12 12 12h5q70 0 98.5 21.5t28.5 62.5v451q0 84 -98 84q-91 0 -160 -60v-383q0 -12 -11 -12h-29q-12 0 -12 12v469q0 12 12 12h25z" />
    <glyph glyph-name="Omacron" unicode="&#x14c;" horiz-adv-x="587" 
d="M165 820h257q12 0 12 -11v-18q0 -12 -12 -12h-257q-12 0 -12 12v18q0 11 12 11zM85 133v414q0 141 208 141q210 0 210 -141v-414q0 -141 -210 -141q-208 0 -208 141zM449 141v398q0 103 -156 103q-155 0 -155 -103v-398q0 -103 155 -103q156 0 156 103z" />
    <glyph glyph-name="omacron" unicode="&#x14d;" horiz-adv-x="508" 
d="M123 645h257q12 0 12 -11v-18q0 -12 -12 -12h-257q-12 0 -12 12v18q0 11 12 11zM73 115v262q0 124 181 124t181 -124v-262q0 -123 -181 -123t-181 123zM383 119v255q0 83 -129 83t-129 -83v-255q0 -83 129 -83t129 83z" />
    <glyph glyph-name="Obreve" unicode="&#x14e;" horiz-adv-x="587" 
d="M220 872v-18q0 -36 15 -54.5t58 -18.5t58 19t15 54v18q0 11 11 11h18q11 0 11 -11v-17q0 -53 -26 -81t-88 -28q-63 0 -88 28t-25 81v17q0 11 11 11h19q11 0 11 -11zM85 133v414q0 141 208 141q210 0 210 -141v-414q0 -141 -210 -141q-208 0 -208 141zM449 141v398
q0 103 -156 103q-155 0 -155 -103v-398q0 -103 155 -103q156 0 156 103z" />
    <glyph glyph-name="obreve" unicode="&#x14f;" horiz-adv-x="508" 
d="M176 676v-17q0 -36 15 -54.5t58 -18.5q44 0 59 18.5t15 54.5v17q0 11 11 11h18q11 0 11 -11v-17q0 -53 -26 -81t-89 -28q-62 0 -87.5 28t-25.5 81v17q0 11 11 11h19q11 0 11 -11zM73 115v262q0 124 181 124t181 -124v-262q0 -123 -181 -123t-181 123zM383 119v255
q0 83 -129 83t-129 -83v-255q0 -83 129 -83t129 83z" />
    <glyph glyph-name="Ohungarumlaut" unicode="&#x150;" horiz-adv-x="587" 
d="M439 866l-80 -116q-7 -10 -16 -10h-23q-12 0 -5 11l73 115q7 12 18 12h27q15 0 6 -12zM336 866l-64 -115q-6 -11 -16 -11h-22q-14 0 -7 11l58 115q7 12 17 12h26q7 0 9 -4t-1 -8zM85 133v414q0 141 208 141q210 0 210 -141v-414q0 -141 -210 -141q-208 0 -208 141z
M449 141v398q0 103 -156 103q-155 0 -155 -103v-398q0 -103 155 -103q156 0 156 103z" />
    <glyph glyph-name="ohungarumlaut" unicode="&#x151;" horiz-adv-x="508" 
d="M397 696l-80 -116q-7 -10 -16 -10h-22q-13 0 -6 11l73 115q7 12 19 12h26q14 0 6 -12zM294 696l-64 -115q-6 -11 -16 -11h-22q-14 0 -7 11l58 115q7 12 17 12h26q7 0 9 -4t-1 -8zM73 115v262q0 124 181 124t181 -124v-262q0 -123 -181 -123t-181 123zM383 119v255
q0 83 -129 83t-129 -83v-255q0 -83 129 -83t129 83z" />
    <glyph glyph-name="OE" unicode="&#x152;" horiz-adv-x="876" 
d="M449 12v25q-47 -45 -156 -45q-208 0 -208 141v414q0 141 208 141q109 0 156 -45v25q0 12 12 12h341q12 0 12 -12v-22q0 -12 -12 -12h-300v-254h282q12 0 12 -12v-21q0 -12 -12 -12h-282v-289h312q12 0 12 -12v-22q0 -12 -12 -12h-354q-11 0 -11 12zM449 141v398
q0 103 -156 103q-155 0 -155 -103v-398q0 -103 155 -103q156 0 156 103z" />
    <glyph glyph-name="oe" unicode="&#x153;" horiz-adv-x="804" 
d="M737 115q0 -123 -177 -123q-115 0 -154 50q-40 -50 -152 -50q-181 0 -181 123v262q0 124 181 124q112 0 152 -51q40 51 155 51q96 0 136 -32.5t40 -91.5v-124q0 -11 -11 -11h-291v-124q0 -40 28 -61.5t98 -21.5q71 0 99 21.5t28 61.5v21q0 12 12 12h25q12 0 12 -12v-24z
M435 375v-93h253v93q0 83 -127 83q-126 0 -126 -83zM383 119v255q0 83 -129 83t-129 -83v-255q0 -83 129 -83t129 83z" />
    <glyph glyph-name="Racute" unicode="&#x154;" horiz-adv-x="583" 
d="M374 866l-81 -119q-5 -7 -14 -7h-25q-13 0 -6 11l72 117q7 10 16 10h32q15 0 6 -12zM149 12q0 -12 -11 -12h-30q-12 0 -12 12v656q0 12 11 12h195q209 0 209 -141v-116q0 -110 -127 -134l136 -277q5 -12 -11 -12h-34q-10 0 -15 12l-130 271q-9 -1 -28 -1h-153v-270z
M302 634h-153v-307h153q156 0 156 103v101q0 103 -156 103z" />
    <glyph glyph-name="racute" unicode="&#x155;" horiz-adv-x="335" 
d="M274 696l-81 -119q-5 -7 -15 -7h-24q-13 0 -6 11l72 117q7 10 16 10h32q15 0 6 -12zM303 500q13 0 13 -11v-24q0 -12 -13 -12q-85 0 -168 -70v-371q0 -12 -11 -12h-29q-12 0 -12 12v469q0 12 12 12h25q12 0 12 -12l3 -54q81 73 168 73z" />
    <glyph glyph-name="Rcommaaccent" unicode="&#x156;" horiz-adv-x="583" 
d="M149 12q0 -12 -11 -12h-30q-12 0 -12 12v656q0 12 11 12h195q209 0 209 -141v-116q0 -110 -127 -134l136 -277q5 -12 -11 -12h-34q-10 0 -15 12l-130 271q-9 -1 -28 -1h-153v-270zM302 634h-153v-307h153q156 0 156 103v101q0 103 -156 103zM268 -88v27q0 12 12 12h22
q12 0 12 -12v-29q0 -53 -37 -114q-5 -9 -16 -6l-17 5q-11 3 -5 16q2 5 7.5 15.5t7 14t5 12t4.5 13t2.5 12.5t2 16t0.5 18z" />
    <glyph glyph-name="rcommaaccent" unicode="&#x157;" horiz-adv-x="335" 
d="M303 500q13 0 13 -11v-24q0 -12 -13 -12q-85 0 -168 -70v-371q0 -12 -11 -12h-29q-12 0 -12 12v469q0 12 12 12h25q12 0 12 -12l3 -54q81 73 168 73zM87 -89v27q0 12 12 12h22q12 0 12 -12v-29q0 -53 -37 -114q-5 -9 -16 -6l-17 5q-11 3 -5 16q2 5 7.5 15.5t7 14t5 12
t4.5 13t2.5 12.5t2 16t0.5 18z" />
    <glyph glyph-name="Rcaron" unicode="&#x158;" horiz-adv-x="583" 
d="M223 866l60 -92l61 92q7 12 16 12h23q16 0 7 -12l-79 -115q-8 -11 -18 -11h-20q-10 0 -19 12l-77 114q-9 12 6 12h23q10 0 17 -12zM149 12q0 -12 -11 -12h-30q-12 0 -12 12v656q0 12 11 12h195q209 0 209 -141v-116q0 -110 -127 -134l136 -277q5 -12 -11 -12h-34
q-10 0 -15 12l-130 271q-9 -1 -28 -1h-153v-270zM302 634h-153v-307h153q156 0 156 103v101q0 103 -156 103z" />
    <glyph glyph-name="rcaron" unicode="&#x159;" horiz-adv-x="335" 
d="M107 696l61 -92l60 92q9 12 17 12h23q15 0 6 -12l-78 -115q-8 -11 -19 -11h-20q-9 0 -18 12l-78 114q-9 12 6 12h23q10 0 17 -12zM303 500q13 0 13 -11v-24q0 -12 -13 -12q-85 0 -168 -70v-371q0 -12 -11 -12h-29q-12 0 -12 12v469q0 12 12 12h25q12 0 12 -12l3 -54
q81 73 168 73z" />
    <glyph glyph-name="Sacute" unicode="&#x15a;" horiz-adv-x="548" 
d="M378 866l-81 -119q-5 -7 -14 -7h-25q-13 0 -6 11l72 117q7 10 16 10h32q15 0 6 -12zM422 498v43q0 49 -33.5 75.5t-114.5 26.5q-83 0 -116.5 -26.5t-33.5 -75.5v-37q0 -60 64 -85l192 -73q100 -38 100 -125v-88q0 -141 -208 -141q-207 0 -207 141v52q0 13 11 13h29
q12 0 12 -13v-46q0 -102 155 -102t155 102v71q0 61 -83 93l-185 72q-36 14 -61.5 44.5t-25.5 73.5v54q0 141 201 141t201 -141v-49q0 -12 -11 -12h-29q-12 0 -12 12z" />
    <glyph glyph-name="sacute" unicode="&#x15b;" horiz-adv-x="470" 
d="M341 696l-81 -119q-5 -7 -15 -7h-24q-13 0 -6 11l72 117q7 10 16 10h32q15 0 6 -12zM355 361v31q0 69 -122 69q-119 0 -119 -69v-31q0 -23 17 -39.5t39 -22.5l156 -49q84 -27 84 -91v-59q0 -48 -44 -78t-133 -30q-88 0 -131.5 30t-43.5 78v28q0 11 11 11h27q10 0 10 -11
v-26q0 -32 32.5 -51t94.5 -19q63 0 96 19t33 51v45q0 41 -63 61l-156 49q-30 10 -54 35.5t-24 59.5v40q0 48 41 78.5t128 30.5q86 0 127.5 -30.5t41.5 -78.5v-31q0 -11 -12 -11h-26q-10 0 -10 11z" />
    <glyph glyph-name="Scircumflex" unicode="&#x15c;" horiz-adv-x="548" 
d="M269 844l-60 -93q-7 -11 -17 -11h-23q-13 0 -6 11l77 115q9 12 19 12h20q11 0 18 -11l79 -116q7 -11 -7 -11h-23q-10 0 -16 11zM422 498v43q0 49 -33.5 75.5t-114.5 26.5q-83 0 -116.5 -26.5t-33.5 -75.5v-37q0 -60 64 -85l192 -73q100 -38 100 -125v-88
q0 -141 -208 -141q-207 0 -207 141v52q0 13 11 13h29q12 0 12 -13v-46q0 -102 155 -102t155 102v71q0 61 -83 93l-185 72q-36 14 -61.5 44.5t-25.5 73.5v54q0 141 201 141t201 -141v-49q0 -12 -11 -12h-29q-12 0 -12 12z" />
    <glyph glyph-name="scircumflex" unicode="&#x15d;" horiz-adv-x="470" 
d="M230 674l-61 -93q-9 -11 -17 -11h-23q-13 0 -6 11l78 115q9 12 18 12h20q12 0 19 -11l78 -116q7 -11 -6 -11h-23q-9 0 -17 11zM355 361v31q0 69 -122 69q-119 0 -119 -69v-31q0 -23 17 -39.5t39 -22.5l156 -49q84 -27 84 -91v-59q0 -48 -44 -78t-133 -30q-88 0 -131.5 30
t-43.5 78v28q0 11 11 11h27q10 0 10 -11v-26q0 -32 32.5 -51t94.5 -19q63 0 96 19t33 51v45q0 41 -63 61l-156 49q-30 10 -54 35.5t-24 59.5v40q0 48 41 78.5t128 30.5q86 0 127.5 -30.5t41.5 -78.5v-31q0 -11 -12 -11h-26q-10 0 -10 11z" />
    <glyph glyph-name="Scedilla" unicode="&#x15e;" horiz-adv-x="548" 
d="M304 -211h-118q-12 0 -12 12v11q0 12 12 12h112q48 0 48 44q0 43 -48 43h-59q-20 0 -16 15l18 67q-176 11 -176 140v52q0 13 11 13h29q12 0 12 -13v-46q0 -102 155 -102t155 102v71q0 61 -83 93l-185 72q-36 14 -61.5 44.5t-25.5 73.5v54q0 141 201 141t201 -141v-49
q0 -12 -11 -12h-29q-12 0 -12 12v43q0 49 -33.5 75.5t-114.5 26.5q-83 0 -116.5 -26.5t-33.5 -75.5v-37q0 -60 64 -85l192 -73q100 -38 100 -125v-88q0 -141 -200 -141l-15 -46h39q34 0 58 -18.5t24 -59.5t-24 -60t-58 -19z" />
    <glyph glyph-name="scedilla" unicode="&#x15f;" horiz-adv-x="470" 
d="M259 -211h-118q-12 0 -12 12v11q0 12 12 12h111q49 0 49 44q0 43 -49 43h-59q-19 0 -15 15l19 68q-70 6 -104.5 35t-34.5 71v28q0 11 11 11h27q10 0 10 -11v-26q0 -32 32.5 -51t94.5 -19q63 0 96 19t33 51v45q0 41 -63 61l-156 49q-30 10 -54 35.5t-24 59.5v40
q0 48 41 78.5t128 30.5q86 0 127.5 -30.5t41.5 -78.5v-31q0 -11 -12 -11h-26q-10 0 -10 11v31q0 69 -122 69q-119 0 -119 -69v-31q0 -23 17 -39.5t39 -22.5l156 -49q84 -27 84 -91v-59q0 -47 -43.5 -77.5t-130.5 -30.5h-3l-13 -46h39q34 0 57.5 -18.5t23.5 -59.5t-23.5 -60
t-57.5 -19z" />
    <glyph glyph-name="Scaron" unicode="&#x160;" horiz-adv-x="548" 
d="M213 866l60 -92l61 92q7 12 16 12h23q16 0 7 -12l-79 -115q-8 -11 -18 -11h-20q-10 0 -19 12l-77 114q-9 12 6 12h23q10 0 17 -12zM422 498v43q0 49 -33.5 75.5t-114.5 26.5q-83 0 -116.5 -26.5t-33.5 -75.5v-37q0 -60 64 -85l192 -73q100 -38 100 -125v-88
q0 -141 -208 -141q-207 0 -207 141v52q0 13 11 13h29q12 0 12 -13v-46q0 -102 155 -102t155 102v71q0 61 -83 93l-185 72q-36 14 -61.5 44.5t-25.5 73.5v54q0 141 201 141t201 -141v-49q0 -12 -11 -12h-29q-12 0 -12 12z" />
    <glyph glyph-name="scaron" unicode="&#x161;" horiz-adv-x="470" 
d="M174 696l61 -92l60 92q9 12 17 12h23q15 0 6 -12l-78 -115q-8 -11 -19 -11h-20q-9 0 -18 12l-78 114q-9 12 6 12h23q10 0 17 -12zM355 361v31q0 69 -122 69q-119 0 -119 -69v-31q0 -23 17 -39.5t39 -22.5l156 -49q84 -27 84 -91v-59q0 -48 -44 -78t-133 -30
q-88 0 -131.5 30t-43.5 78v28q0 11 11 11h27q10 0 10 -11v-26q0 -32 32.5 -51t94.5 -19q63 0 96 19t33 51v45q0 41 -63 61l-156 49q-30 10 -54 35.5t-24 59.5v40q0 48 41 78.5t128 30.5q86 0 127.5 -30.5t41.5 -78.5v-31q0 -11 -12 -11h-26q-10 0 -10 11z" />
    <glyph glyph-name="uni0162" unicode="&#x162;" horiz-adv-x="488" 
d="M355 -132q0 -41 -24 -60t-58 -19h-118q-12 0 -12 12v11q0 12 12 12h111q49 0 49 44q0 43 -49 43h-58q-20 0 -16 15l25 91v617h-181q-12 0 -12 12v22q0 12 12 12h416q12 0 12 -12v-22q0 -12 -12 -12h-182v-622q0 -12 -10 -12h-10l-16 -54h39q34 0 58 -18.5t24 -59.5z" />
    <glyph glyph-name="uni0163" unicode="&#x163;" horiz-adv-x="323" 
d="M283 -132q0 -41 -24 -60t-58 -19h-118q-12 0 -12 12v11q0 12 12 12h112q48 0 48 44q0 43 -48 43h-59q-20 0 -16 15l27 101q-44 28 -44 96v325h-64q-12 0 -12 12v16q0 12 12 12l54 3h10v108q0 13 11 13h29q12 0 12 -13v-108h118q12 0 12 -11v-20q0 -12 -12 -12h-118v-320
q0 -41 28 -62t98 -21h16q12 0 12 -12v-21q0 -12 -12 -12h-22q-58 0 -94 12l-19 -66h39q34 0 58 -18.5t24 -59.5z" />
    <glyph glyph-name="Tcaron" unicode="&#x164;" horiz-adv-x="488" 
d="M183 866l60 -92l61 92q7 12 16 12h23q16 0 7 -12l-79 -115q-8 -11 -18 -11h-20q-10 0 -19 12l-77 114q-9 12 6 12h23q10 0 17 -12zM36 680h416q12 0 12 -12v-22q0 -12 -12 -12h-182v-622q0 -12 -11 -12h-30q-12 0 -12 12v622h-181q-12 0 -12 12v22q0 12 12 12z" />
    <glyph glyph-name="tcaron" unicode="&#x165;" horiz-adv-x="323" 
d="M239 665v27q0 12 12 12h22q12 0 12 -12v-29q0 -53 -37 -114q-5 -9 -16 -6l-17 5q-11 3 -5 16q2 5 7.5 15.5t7 14t5 12t4.5 13t2.5 12.5t2 16t0.5 18zM155 491h118q12 0 12 -11v-20q0 -12 -12 -12h-118v-320q0 -41 28 -62t98 -21h16q12 0 12 -12v-21q0 -12 -12 -12h-22
q-96 0 -134 31t-38 92v325h-64q-12 0 -12 12v16q0 12 12 12l54 3h10v108q0 13 11 13h29q12 0 12 -13v-108z" />
    <glyph glyph-name="Tbar" unicode="&#x166;" horiz-adv-x="522" 
d="M287 12q0 -12 -11 -12h-30q-12 0 -12 12v403h-153q-12 0 -12 12v15q0 12 12 12h153v180h-181q-12 0 -12 12v22q0 12 12 12h416q12 0 12 -12v-22q0 -12 -12 -12h-182v-180h153q12 0 12 -12v-15q0 -12 -12 -12h-153v-403z" />
    <glyph glyph-name="tbar" unicode="&#x167;" horiz-adv-x="328" 
d="M313 12q0 -12 -12 -12h-22q-96 0 -134 31t-38 92v172h-64q-12 0 -12 12v15q0 12 12 12h64v114h-64q-12 0 -12 12v16q0 12 12 12l54 3h10v108q0 13 11 13h29q12 0 12 -13v-108h118q12 0 12 -11v-20q0 -12 -12 -12h-118v-114h118q12 0 12 -12v-15q0 -12 -12 -12h-118v-167
q0 -41 28 -62t98 -21h16q12 0 12 -12v-21z" />
    <glyph glyph-name="Utilde" unicode="&#x168;" horiz-adv-x="603" 
d="M367 796q19 0 25 11t6 43v9q0 11 13 11h16q11 0 11 -13v-19q0 -83 -69 -83q-26 0 -52 20l-45 36q-21 17 -36 17q-19 0 -25 -10.5t-6 -43.5v-9q0 -11 -13 -11h-17q-10 0 -10 14v19q0 82 68 82q29 0 52 -19l46 -37q23 -17 36 -17zM146 668v-527q0 -103 155 -103
q157 0 157 103v527q0 12 11 12h30q12 0 12 -12v-535q0 -141 -210 -141q-208 0 -208 141v535q0 12 12 12h29q12 0 12 -12z" />
    <glyph glyph-name="utilde" unicode="&#x169;" horiz-adv-x="520" 
d="M327 580q-28 0 -52 20l-46 36q-22 18 -36 18q-19 0 -25 -11t-6 -44v-8q0 -11 -13 -11h-16q-11 0 -11 13v19q0 43 19 63t49 20q27 0 52 -20l46 -37q21 -17 36 -17q19 0 25 11t6 43v9q0 11 13 11h16q11 0 11 -13v-19q0 -43 -19 -63t-49 -20zM387 12l-2 40q-70 -60 -167 -60
q-67 0 -102 32.5t-35 86.5v369q0 13 11 13h29q12 0 12 -13v-358q0 -83 98 -83q83 0 154 59v382q0 13 11 13h29q11 0 11 -13v-468q0 -12 -11 -12h-26q-12 0 -12 12z" />
    <glyph glyph-name="Umacron" unicode="&#x16a;" horiz-adv-x="603" 
d="M173 820h257q12 0 12 -11v-18q0 -12 -12 -12h-257q-12 0 -12 12v18q0 11 12 11zM146 668v-527q0 -103 155 -103q157 0 157 103v527q0 12 11 12h30q12 0 12 -12v-535q0 -141 -210 -141q-208 0 -208 141v535q0 12 12 12h29q12 0 12 -12z" />
    <glyph glyph-name="umacron" unicode="&#x16b;" horiz-adv-x="520" 
d="M133 645h257q12 0 12 -11v-18q0 -12 -12 -12h-257q-12 0 -12 12v18q0 11 12 11zM387 12l-2 40q-70 -60 -167 -60q-67 0 -102 32.5t-35 86.5v369q0 13 11 13h29q12 0 12 -13v-358q0 -83 98 -83q83 0 154 59v382q0 13 11 13h29q11 0 11 -13v-468q0 -12 -11 -12h-26
q-12 0 -12 12z" />
    <glyph glyph-name="Ubreve" unicode="&#x16c;" horiz-adv-x="603" 
d="M229 872v-18q0 -36 15 -54.5t58 -18.5t58 19t15 54v18q0 11 11 11h18q11 0 11 -11v-17q0 -53 -26 -81t-88 -28q-63 0 -88 28t-25 81v17q0 11 11 11h19q11 0 11 -11zM146 668v-527q0 -103 155 -103q157 0 157 103v527q0 12 11 12h30q12 0 12 -12v-535q0 -141 -210 -141
q-208 0 -208 141v535q0 12 12 12h29q12 0 12 -12z" />
    <glyph glyph-name="ubreve" unicode="&#x16d;" horiz-adv-x="520" 
d="M186 676v-17q0 -36 15 -54.5t58 -18.5q44 0 59 18.5t15 54.5v17q0 11 11 11h18q11 0 11 -11v-17q0 -53 -26 -81t-89 -28q-62 0 -87.5 28t-25.5 81v17q0 11 11 11h19q11 0 11 -11zM387 12l-2 40q-70 -60 -167 -60q-67 0 -102 32.5t-35 86.5v369q0 13 11 13h29q12 0 12 -13
v-358q0 -83 98 -83q83 0 154 59v382q0 13 11 13h29q11 0 11 -13v-468q0 -12 -11 -12h-26q-12 0 -12 12z" />
    <glyph glyph-name="Uring" unicode="&#x16e;" horiz-adv-x="603" 
d="M393 811v-15q0 -33 -22.5 -53t-69.5 -20q-91 0 -91 73v15q0 73 91 73q47 0 69.5 -20t22.5 -53zM359 800v7q0 47 -58 47q-57 0 -57 -47v-7q0 -47 57 -47q58 0 58 47zM146 668v-527q0 -103 155 -103q157 0 157 103v527q0 12 11 12h30q12 0 12 -12v-535q0 -141 -210 -141
q-208 0 -208 141v535q0 12 12 12h29q12 0 12 -12z" />
    <glyph glyph-name="uring" unicode="&#x16f;" horiz-adv-x="520" 
d="M350 646v-19q0 -71 -90 -71t-90 71v19q0 71 90 71t90 -71zM318 632v9q0 46 -58 46q-57 0 -57 -46v-9q0 -46 57 -46q58 0 58 46zM387 12l-2 40q-70 -60 -167 -60q-67 0 -102 32.5t-35 86.5v369q0 13 11 13h29q12 0 12 -13v-358q0 -83 98 -83q83 0 154 59v382q0 13 11 13
h29q11 0 11 -13v-468q0 -12 -11 -12h-26q-12 0 -12 12z" />
    <glyph glyph-name="Uhungarumlaut" unicode="&#x170;" horiz-adv-x="603" 
d="M448 866l-80 -116q-7 -10 -16 -10h-23q-12 0 -5 11l73 115q7 12 18 12h27q15 0 6 -12zM345 866l-64 -115q-6 -11 -16 -11h-22q-14 0 -7 11l58 115q7 12 17 12h26q7 0 9 -4t-1 -8zM146 668v-527q0 -103 155 -103q157 0 157 103v527q0 12 11 12h30q12 0 12 -12v-535
q0 -141 -210 -141q-208 0 -208 141v535q0 12 12 12h29q12 0 12 -12z" />
    <glyph glyph-name="uhungarumlaut" unicode="&#x171;" horiz-adv-x="520" 
d="M404 696l-80 -116q-7 -10 -16 -10h-22q-13 0 -6 11l73 115q7 12 19 12h26q14 0 6 -12zM301 696l-64 -115q-6 -11 -16 -11h-22q-14 0 -7 11l58 115q7 12 17 12h26q7 0 9 -4t-1 -8zM387 12l-2 40q-70 -60 -167 -60q-67 0 -102 32.5t-35 86.5v369q0 13 11 13h29q12 0 12 -13
v-358q0 -83 98 -83q83 0 154 59v382q0 13 11 13h29q11 0 11 -13v-468q0 -12 -11 -12h-26q-12 0 -12 12z" />
    <glyph glyph-name="Uogonek" unicode="&#x172;" horiz-adv-x="603" 
d="M146 668v-527q0 -103 155 -103q157 0 157 103v527q0 12 11 12h30q12 0 12 -12v-535q0 -61 -38 -94q-4 -4 -22.5 -18.5t-26.5 -23t-16.5 -25t-8.5 -34.5q0 -49 59 -49h34q12 0 12 -12v-14q0 -12 -14 -12h-45q-39 0 -63 20t-24 58q0 39 26 71q-37 -8 -83 -8
q-208 0 -208 141v535q0 12 12 12h29q12 0 12 -12z" />
    <glyph glyph-name="uogonek" unicode="&#x173;" horiz-adv-x="520" 
d="M427 -149h-27q-39 0 -63 18.5t-24 55.5q0 27 20 52t54 42l-2 33q-70 -60 -167 -60q-67 0 -102 32.5t-35 86.5v369q0 13 11 13h29q12 0 12 -13v-358q0 -83 98 -83q83 0 154 59v382q0 13 11 13h29q11 0 11 -13v-468q0 -12 -11 -12h-3q-33 -7 -49.5 -27.5t-16.5 -41.5
q0 -42 57 -42h16q12 0 12 -12v-14q0 -12 -14 -12z" />
    <glyph glyph-name="Wcircumflex" unicode="&#x174;" horiz-adv-x="808" 
d="M405 844l-60 -93q-7 -11 -17 -11h-23q-13 0 -6 11l77 115q9 12 19 12h20q11 0 18 -11l79 -116q7 -11 -7 -11h-23q-10 0 -16 11zM434 668l129 -506q11 -47 15 -74q6 33 16 74l130 506q3 12 14 12h27q12 0 9 -12l-166 -656q-3 -12 -16 -12h-30q-11 0 -14 12l-131 514
q-5 18 -13 65q-8 -46 -13 -66l-131 -513q-3 -12 -15 -12h-30q-11 0 -14 12l-167 656q-3 12 10 12h30q11 0 14 -12l129 -506q3 -13 15 -71q4 21 17 71l129 506q3 12 14 12h28q11 0 14 -12z" />
    <glyph glyph-name="wcircumflex" unicode="&#x175;" horiz-adv-x="661" 
d="M332 674l-61 -93q-9 -11 -17 -11h-23q-13 0 -6 11l78 115q9 12 18 12h20q12 0 19 -11l78 -116q7 -11 -6 -11h-23q-9 0 -17 11zM630 480l-130 -469q-3 -11 -13 -11h-34q-10 0 -13 11l-97 366q-6 21 -11 47q-5 -27 -11 -48l-104 -365q-3 -11 -12 -11h-33q-10 0 -13 11
l-127 469q-3 13 11 13h28q11 0 14 -13l100 -371q5 -15 9 -40q1 8 10 40l102 371q3 13 14 13h32q10 0 13 -13l98 -371q7 -25 9 -38q1 4 10 38l101 371q3 13 13 13h25q12 0 9 -13z" />
    <glyph glyph-name="Ycircumflex" unicode="&#x176;" horiz-adv-x="516" 
d="M257 844l-60 -93q-7 -11 -17 -11h-23q-13 0 -6 11l77 115q9 12 19 12h20q11 0 18 -11l79 -116q7 -11 -7 -11h-23q-10 0 -16 11zM82 668l162 -308q8 -16 14 -34q5 15 15 34l164 308q6 12 15 12h30q15 0 8 -12l-205 -386v-270q0 -12 -12 -12h-29q-12 0 -12 12v264l-207 392
q-6 12 9 12h34q8 0 14 -12z" />
    <glyph glyph-name="ycircumflex" unicode="&#x177;" horiz-adv-x="438" 
d="M219 674l-61 -93q-9 -11 -17 -11h-23q-13 0 -6 11l78 115q9 12 18 12h20q12 0 19 -11l78 -116q7 -11 -6 -11h-23q-9 0 -17 11zM83 480l123 -361q8 -23 14 -52q3 19 14 51l124 362q5 13 14 13h28q14 0 9 -13l-232 -676q-3 -12 -13 -12h-23q-13 0 -10 12l65 194l-167 482
q-5 13 10 13h30q9 0 14 -13z" />
    <glyph glyph-name="Ydieresis" unicode="&#x178;" horiz-adv-x="516" 
d="M229 857v-98q0 -12 -11 -12h-18q-12 0 -12 12v98q0 12 12 12h18q11 0 11 -12zM327 857v-98q0 -12 -11 -12h-18q-12 0 -12 12v98q0 12 12 12h18q11 0 11 -12zM82 668l162 -308q8 -16 14 -34q5 15 15 34l164 308q6 12 15 12h30q15 0 8 -12l-205 -386v-270q0 -12 -12 -12
h-29q-12 0 -12 12v264l-207 392q-6 12 9 12h34q8 0 14 -12z" />
    <glyph glyph-name="Zacute" unicode="&#x179;" horiz-adv-x="475" 
d="M344 866l-81 -119q-5 -7 -14 -7h-25q-13 0 -6 11l72 117q7 10 16 10h32q15 0 6 -12zM65 680h347q13 0 13 -12v-21q0 -4 -3 -10l-323 -591h329q11 0 11 -12v-22q0 -12 -11 -12h-381q-12 0 -12 12v22q0 6 2 9l321 591h-293q-12 0 -12 12v22q0 12 12 12z" />
    <glyph glyph-name="zacute" unicode="&#x17a;" horiz-adv-x="426" 
d="M312 696l-81 -119q-5 -7 -15 -7h-24q-13 0 -6 11l72 117q7 10 16 10h32q15 0 6 -12zM63 493h300q12 0 12 -12v-19q0 -7 -3 -11l-268 -407h272q12 0 12 -12v-20q0 -12 -12 -12h-325q-12 0 -12 12v20q0 6 3 10l267 407h-246q-12 0 -12 12v20q0 12 12 12z" />
    <glyph glyph-name="Zdotaccent" unicode="&#x17b;" horiz-adv-x="475" 
d="M261 838v-77q0 -12 -12 -12h-29q-12 0 -12 12v77q0 12 12 12h29q12 0 12 -12zM65 680h347q13 0 13 -12v-21q0 -4 -3 -10l-323 -591h329q11 0 11 -12v-22q0 -12 -11 -12h-381q-12 0 -12 12v22q0 6 2 9l321 591h-293q-12 0 -12 12v22q0 12 12 12z" />
    <glyph glyph-name="zdotaccent" unicode="&#x17c;" horiz-adv-x="426" 
d="M242 675v-77q0 -12 -12 -12h-29q-12 0 -12 12v77q0 12 12 12h29q12 0 12 -12zM63 493h300q12 0 12 -12v-19q0 -7 -3 -11l-268 -407h272q12 0 12 -12v-20q0 -12 -12 -12h-325q-12 0 -12 12v20q0 6 3 10l267 407h-246q-12 0 -12 12v20q0 12 12 12z" />
    <glyph glyph-name="Zcaron" unicode="&#x17d;" horiz-adv-x="475" 
d="M172 881l61 -92l60 92q9 12 17 12h23q15 0 6 -12l-78 -115q-8 -11 -19 -11h-20q-9 0 -18 12l-78 114q-9 12 6 12h23q10 0 17 -12zM65 680h347q13 0 13 -12v-21q0 -4 -3 -10l-323 -591h329q11 0 11 -12v-22q0 -12 -11 -12h-381q-12 0 -12 12v22q0 6 2 9l321 591h-293
q-12 0 -12 12v22q0 12 12 12z" />
    <glyph glyph-name="zcaron" unicode="&#x17e;" horiz-adv-x="426" 
d="M157 696l61 -92l60 92q9 12 17 12h23q15 0 6 -12l-78 -115q-8 -11 -19 -11h-20q-9 0 -18 12l-78 114q-9 12 6 12h23q10 0 17 -12zM63 493h300q12 0 12 -12v-19q0 -7 -3 -11l-268 -407h272q12 0 12 -12v-20q0 -12 -12 -12h-325q-12 0 -12 12v20q0 6 3 10l267 407h-246
q-12 0 -12 12v20q0 12 12 12z" />
    <glyph glyph-name="longs" unicode="&#x17f;" horiz-adv-x="261" 
d="M96 491h10v89q0 123 179 123h5q12 0 12 -12v-20q0 -12 -12 -12h-5q-127 0 -127 -83v-564q0 -12 -12 -12h-29q-11 0 -11 12v437h-65q-12 0 -12 11v16q0 12 12 12z" />
    <glyph glyph-name="florin" unicode="&#x192;" horiz-adv-x="411" 
d="M391 663h-9q-127 0 -137 -83l-21 -169h104q11 0 11 -12v-20q0 -12 -11 -12h-109l-54 -459q-15 -124 -193 -124h-5q-12 0 -12 12v20q0 13 12 13h9q127 0 137 83l55 455h-98q-12 0 -12 12v20q0 12 12 12h102l21 174q15 123 193 123h5q12 0 12 -12v-21q0 -12 -12 -12z" />
    <glyph glyph-name="Aringacute" unicode="&#x1fa;" horiz-adv-x="525" 
d="M261 723q-91 0 -91 73v15q0 67 80 73l42 70q7 10 16 10h32q15 0 6 -12l-50 -72q57 -13 57 -69v-15q0 -33 -22.5 -53t-69.5 -20zM319 800v7q0 47 -58 47q-57 0 -57 -47v-7q0 -47 57 -47q58 0 58 47zM247 680h31q12 0 15 -12l203 -656q4 -12 -9 -12h-31q-11 0 -14 12
l-61 194h-241l-59 -194q-3 -12 -14 -12h-29q-14 0 -9 12l203 656q3 12 15 12zM369 249l-83 268q-16 51 -25 107q-12 -68 -23 -105l-85 -270h216z" />
    <glyph glyph-name="aringacute" unicode="&#x1fb;" horiz-adv-x="498" 
d="M244 556q-90 0 -90 71v19q0 65 79 71l62 100q7 10 16 10h32q15 0 6 -12l-69 -102q54 -13 54 -67v-19q0 -71 -90 -71zM302 632v9q0 46 -58 46q-57 0 -57 -46v-9q0 -46 57 -46q58 0 58 46zM69 360v18q0 123 174 123q95 0 134.5 -32t39.5 -91v-366q0 -12 -11 -12h-25
q-12 0 -12 12l-2 40q-76 -60 -170 -60q-67 0 -102 32.5t-35 83.5v51q0 51 32.5 83.5t92.5 32.5h181v99q0 40 -27 62t-96 22q-70 0 -97.5 -21.5t-27.5 -61.5v-15q0 -12 -12 -12h-26q-11 0 -11 12zM208 36q83 0 158 59v138h-172q-83 0 -83 -80v-39q0 -78 97 -78z" />
    <glyph glyph-name="AEacute" unicode="&#x1fc;" horiz-adv-x="825" 
d="M560 866l-81 -119q-5 -7 -14 -7h-25q-13 0 -6 11l72 117q7 10 16 10h32q15 0 6 -12zM415 680h337q12 0 12 -11v-22q0 -12 -12 -12h-300v-256h282q12 0 12 -11v-20q0 -12 -12 -12h-282v-291h312q12 0 12 -12v-21q0 -12 -12 -12h-347q-16 0 -16 12v194h-221l-111 -194
q-8 -12 -14 -12h-28q-7 0 -9.5 3t0.5 9l380 656q7 12 17 12zM368 530l-162 -281h195v341q-17 -33 -33 -60z" />
    <glyph glyph-name="aeacute" unicode="&#x1fd;" horiz-adv-x="787" 
d="M500 696l-81 -119q-5 -7 -15 -7h-24q-13 0 -6 11l72 117q7 10 16 10h32q15 0 6 -12zM720 377v-122q0 -11 -11 -11h-292v-130q0 -40 28.5 -60.5t98.5 -20.5q127 0 127 84v21q0 12 11 12h25q12 0 12 -12v-23q0 -123 -175 -123q-139 0 -168 71q-85 -71 -179 -71
q-69 0 -103 32t-34 84v51q0 51 32.5 83.5t92.5 32.5h181v105q0 81 -124 81q-69 0 -96.5 -22t-27.5 -62v-17q0 -12 -12 -12h-26q-12 0 -12 12v19q0 122 175 122q117 0 148 -58q38 58 153 58q176 0 176 -124zM417 376v-94h254v94q0 84 -127 84q-70 0 -98.5 -22t-28.5 -62z
M208 34q79 0 158 69v134h-174q-40 0 -60.5 -22t-20.5 -57v-44q0 -36 25 -58t72 -22z" />
    <glyph glyph-name="Oslashacute" unicode="&#x1fe;" horiz-adv-x="587" 
d="M395 866l-81 -119q-5 -7 -14 -7h-25q-14 0 -6 11l73 117q7 10 15 10h32q15 0 6 -12zM148 -12q-8 -17 -21 -17h-19q-14 0 -6 17l23 48q-40 34 -40 97v413q0 142 208 142q83 0 133 -22l13 26q8 17 21 17h19q15 0 7 -17l-23 -49q40 -34 40 -97v-413q0 -141 -210 -141
q-83 0 -132 22zM138 140q0 -30 13 -50l253 530q-38 22 -111 22q-155 0 -155 -103v-399zM293 37q156 0 156 103v399q0 29 -12 50l-255 -530q39 -22 111 -22z" />
    <glyph glyph-name="oslashacute" unicode="&#x1ff;" horiz-adv-x="508" 
d="M361 696l-81 -119q-5 -7 -15 -7h-24q-13 0 -6 11l72 117q7 10 16 10h32q15 0 6 -12zM110 -30h-18q-14 0 -5 17l23 42q-37 30 -37 86v262q0 124 181 124q67 0 110 -17l13 24q9 17 20 17h19q15 0 6 -17l-24 -44q37 -31 37 -87v-262q0 -123 -181 -123q-67 0 -110 17l-12 -22
q-9 -17 -22 -17zM125 119q0 -27 11 -43l205 366q-30 15 -87 15q-129 0 -129 -83v-255zM254 36q129 0 129 83v255q0 27 -12 43l-204 -367q31 -14 87 -14z" />
    <glyph glyph-name="uni0218" unicode="&#x218;" horiz-adv-x="548" 
d="M422 498v43q0 49 -33.5 75.5t-114.5 26.5q-83 0 -116.5 -26.5t-33.5 -75.5v-37q0 -60 64 -85l192 -73q100 -38 100 -125v-88q0 -141 -208 -141q-207 0 -207 141v52q0 13 11 13h29q12 0 12 -13v-46q0 -102 155 -102t155 102v71q0 61 -83 93l-185 72q-36 14 -61.5 44.5
t-25.5 73.5v54q0 141 201 141t201 -141v-49q0 -12 -11 -12h-29q-12 0 -12 12zM255 -89v27q0 12 12 12h22q12 0 12 -12v-29q0 -53 -37 -114q-5 -9 -16 -6l-17 5q-11 3 -5 16q2 5 7.5 15.5t7 14t5 12t4.5 13t2.5 12.5t2 16t0.5 18z" />
    <glyph glyph-name="uni0219" unicode="&#x219;" horiz-adv-x="470" 
d="M355 361v31q0 69 -122 69q-119 0 -119 -69v-31q0 -23 17 -39.5t39 -22.5l156 -49q84 -27 84 -91v-59q0 -48 -44 -78t-133 -30q-88 0 -131.5 30t-43.5 78v28q0 11 11 11h27q10 0 10 -11v-26q0 -32 32.5 -51t94.5 -19q63 0 96 19t33 51v45q0 41 -63 61l-156 49
q-30 10 -54 35.5t-24 59.5v40q0 48 41 78.5t128 30.5q86 0 127.5 -30.5t41.5 -78.5v-31q0 -11 -12 -11h-26q-10 0 -10 11zM217 -90v27q0 12 12 12h22q12 0 12 -12v-29q0 -53 -37 -114q-5 -9 -16 -6l-17 5q-11 3 -5 16q2 5 7.5 15.5t7 14t5 12t4.5 13t2.5 12.5t2 16t0.5 18z
" />
    <glyph glyph-name="uni021A" unicode="&#x21a;" horiz-adv-x="488" 
d="M36 680h416q12 0 12 -12v-22q0 -12 -12 -12h-182v-622q0 -12 -11 -12h-30q-12 0 -12 12v622h-181q-12 0 -12 12v22q0 12 12 12zM221 -89v27q0 12 12 12h22q12 0 12 -12v-29q0 -53 -37 -114q-5 -9 -16 -6l-17 5q-11 3 -5 16q2 5 7.5 15.5t7 14t5 12t4.5 13t2.5 12.5t2 16
t0.5 18z" />
    <glyph glyph-name="uni021B" unicode="&#x21b;" horiz-adv-x="323" 
d="M155 491h118q12 0 12 -11v-20q0 -12 -12 -12h-118v-320q0 -41 28 -62t98 -21h16q12 0 12 -12v-21q0 -12 -12 -12h-22q-96 0 -134 31t-38 92v325h-64q-12 0 -12 12v16q0 12 12 12l54 3h10v108q0 13 11 13h29q12 0 12 -13v-108zM111 -89v27q0 12 12 12h22q12 0 12 -12v-29
q0 -53 -37 -114q-5 -9 -16 -6l-17 5q-11 3 -5 16q2 5 7.5 15.5t7 14t5 12t4.5 13t2.5 12.5t2 16t0.5 18z" />
    <glyph glyph-name="dotlessj" unicode="&#x237;" horiz-adv-x="218" 
d="M135 480v-565q0 -123 -179 -123h-5q-12 0 -12 12v20q0 12 12 12h5q70 0 98.5 21.5t28.5 62.5v560q0 13 12 13h29q11 0 11 -13z" />
    <glyph glyph-name="circumflex" unicode="&#x2c6;" horiz-adv-x="345" 
d="M172 674l-61 -93q-9 -11 -17 -11h-23q-13 0 -6 11l78 115q9 12 18 12h20q12 0 19 -11l78 -116q7 -11 -6 -11h-23q-9 0 -17 11z" />
    <glyph glyph-name="caron" unicode="&#x2c7;" horiz-adv-x="345" 
d="M111 696l61 -92l60 92q9 12 17 12h23q15 0 6 -12l-78 -115q-8 -11 -19 -11h-20q-9 0 -18 12l-78 114q-9 12 6 12h23q10 0 17 -12z" />
    <glyph glyph-name="breve" unicode="&#x2d8;" horiz-adv-x="377" 
d="M115 676v-17q0 -36 15 -54.5t58 -18.5q44 0 59 18.5t15 54.5v17q0 11 11 11h18q11 0 11 -11v-17q0 -53 -26 -81t-89 -28q-62 0 -87.5 28t-25.5 81v17q0 11 11 11h19q11 0 11 -11z" />
    <glyph glyph-name="dotaccent" unicode="&#x2d9;" horiz-adv-x="237" 
d="M145 675v-77q0 -12 -12 -12h-29q-12 0 -12 12v77q0 12 12 12h29q12 0 12 -12z" />
    <glyph glyph-name="ring" unicode="&#x2da;" horiz-adv-x="377" 
d="M278 646v-19q0 -71 -90 -71t-90 71v19q0 71 90 71t90 -71zM246 632v9q0 46 -58 46q-57 0 -57 -46v-9q0 -46 57 -46q58 0 58 46z" />
    <glyph glyph-name="ogonek" unicode="&#x2db;" horiz-adv-x="225" 
d="M163 -149h-31q-43 0 -67.5 18.5t-24.5 54.5q0 57 70 96q14 7 23 4l14 -5q5 -2 6 -7t-5 -7q-66 -28 -66 -74q0 -42 62 -42h19q12 0 12 -12v-14q0 -12 -12 -12z" />
    <glyph glyph-name="tilde" unicode="&#x2dc;" horiz-adv-x="426" 
d="M281 580q-28 0 -52 20l-46 36q-22 18 -36 18q-19 0 -25 -11t-6 -44v-8q0 -11 -13 -11h-16q-11 0 -11 13v19q0 43 19 63t49 20q27 0 52 -20l46 -37q21 -17 36 -17q19 0 25 11t6 43v9q0 11 13 11h16q11 0 11 -13v-19q0 -43 -19 -63t-49 -20z" />
    <glyph glyph-name="hungarumlaut" unicode="&#x2dd;" horiz-adv-x="356" 
d="M284 696l-80 -116q-7 -10 -16 -10h-22q-13 0 -6 11l73 115q7 12 19 12h26q14 0 6 -12zM181 696l-64 -115q-6 -11 -16 -11h-22q-14 0 -7 11l58 115q7 12 17 12h26q7 0 9 -4t-1 -8z" />
    <glyph glyph-name="Delta" unicode="&#x394;" horiz-adv-x="373" 
d="M108 413h157q21 0 21 -21v-157q0 -22 -21 -22h-157q-22 0 -22 22v157q0 21 22 21z" />
    <glyph glyph-name="mu" unicode="&#x3bc;" horiz-adv-x="517" 
d="M388 12l-2 40q-73 -60 -168 -60q-60 0 -88 33l3 -220q0 -13 -12 -13h-29q-11 0 -11 13v675q0 13 11 13h29q12 0 12 -13v-358q0 -83 98 -83q86 0 154 59v382q0 13 11 13h29q12 0 12 -13v-468q0 -12 -12 -12h-25q-12 0 -12 12z" />
    <glyph glyph-name="pi" unicode="&#x3c0;" horiz-adv-x="360" 
d="M61 426h237q11 0 13 -10t-5 -20l-111 -179q-5 -9 -15 -9t-15 9l-111 179q-7 10 -5.5 20t12.5 10z" />
    <glyph glyph-name="Wgrave" unicode="&#x1e80;" horiz-adv-x="808" 
d="M377 747l-81 119q-8 12 5 12h32q9 0 16 -11l72 -116q7 -12 -5 -12h-25q-9 0 -14 8zM434 668l129 -506q11 -47 15 -74q6 33 16 74l130 506q3 12 14 12h27q12 0 9 -12l-166 -656q-3 -12 -16 -12h-30q-11 0 -14 12l-131 514q-5 18 -13 65q-8 -46 -13 -66l-131 -513
q-3 -12 -15 -12h-30q-11 0 -14 12l-167 656q-3 12 10 12h30q11 0 14 -12l129 -506q3 -13 15 -71q4 21 17 71l129 506q3 12 14 12h28q11 0 14 -12z" />
    <glyph glyph-name="wgrave" unicode="&#x1e81;" horiz-adv-x="661" 
d="M307 577l-81 119q-9 12 6 12h32q9 0 16 -10l72 -117q7 -11 -5 -11h-25q-10 0 -15 7zM630 480l-130 -469q-3 -11 -13 -11h-34q-10 0 -13 11l-97 366q-6 21 -11 47q-5 -27 -11 -48l-104 -365q-3 -11 -12 -11h-33q-10 0 -13 11l-127 469q-3 13 11 13h28q11 0 14 -13
l100 -371q5 -15 9 -40q1 8 10 40l102 371q3 13 14 13h32q10 0 13 -13l98 -371q7 -25 9 -38q1 4 10 38l101 371q3 13 13 13h25q12 0 9 -13z" />
    <glyph glyph-name="Wacute" unicode="&#x1e82;" horiz-adv-x="808" 
d="M513 866l-81 -119q-5 -7 -14 -7h-25q-13 0 -6 11l72 117q7 10 16 10h32q15 0 6 -12zM434 668l129 -506q11 -47 15 -74q6 33 16 74l130 506q3 12 14 12h27q12 0 9 -12l-166 -656q-3 -12 -16 -12h-30q-11 0 -14 12l-131 514q-5 18 -13 65q-8 -46 -13 -66l-131 -513
q-3 -12 -15 -12h-30q-11 0 -14 12l-167 656q-3 12 10 12h30q11 0 14 -12l129 -506q3 -13 15 -71q4 21 17 71l129 506q3 12 14 12h28q11 0 14 -12z" />
    <glyph glyph-name="wacute" unicode="&#x1e83;" horiz-adv-x="661" 
d="M443 696l-81 -119q-5 -7 -15 -7h-24q-13 0 -6 11l72 117q7 10 16 10h32q15 0 6 -12zM630 480l-130 -469q-3 -11 -13 -11h-34q-10 0 -13 11l-97 366q-6 21 -11 47q-5 -27 -11 -48l-104 -365q-3 -11 -12 -11h-33q-10 0 -13 11l-127 469q-3 13 11 13h28q11 0 14 -13
l100 -371q5 -15 9 -40q1 8 10 40l102 371q3 13 14 13h32q10 0 13 -13l98 -371q7 -25 9 -38q1 4 10 38l101 371q3 13 13 13h25q12 0 9 -13z" />
    <glyph glyph-name="Wdieresis" unicode="&#x1e84;" horiz-adv-x="808" 
d="M375 857v-98q0 -12 -11 -12h-18q-12 0 -12 12v98q0 12 12 12h18q11 0 11 -12zM473 857v-98q0 -12 -11 -12h-18q-12 0 -12 12v98q0 12 12 12h18q11 0 11 -12zM434 668l129 -506q11 -47 15 -74q6 33 16 74l130 506q3 12 14 12h27q12 0 9 -12l-166 -656q-3 -12 -16 -12h-30
q-11 0 -14 12l-131 514q-5 18 -13 65q-8 -46 -13 -66l-131 -513q-3 -12 -15 -12h-30q-11 0 -14 12l-167 656q-3 12 10 12h30q11 0 14 -12l129 -506q3 -13 15 -71q4 21 17 71l129 506q3 12 14 12h28q11 0 14 -12z" />
    <glyph glyph-name="wdieresis" unicode="&#x1e85;" horiz-adv-x="661" 
d="M303 690v-98q0 -12 -12 -12h-18q-12 0 -12 12v98q0 12 12 12h18q12 0 12 -12zM401 690v-98q0 -12 -12 -12h-18q-12 0 -12 12v98q0 12 12 12h18q12 0 12 -12zM630 480l-130 -469q-3 -11 -13 -11h-34q-10 0 -13 11l-97 366q-6 21 -11 47q-5 -27 -11 -48l-104 -365
q-3 -11 -12 -11h-33q-10 0 -13 11l-127 469q-3 13 11 13h28q11 0 14 -13l100 -371q5 -15 9 -40q1 8 10 40l102 371q3 13 14 13h32q10 0 13 -13l98 -371q7 -25 9 -38q1 4 10 38l101 371q3 13 13 13h25q12 0 9 -13z" />
    <glyph glyph-name="Ygrave" unicode="&#x1ef2;" horiz-adv-x="516" 
d="M228 747l-81 119q-8 12 5 12h32q9 0 16 -11l72 -116q8 -12 -5 -12h-25q-9 0 -14 8zM82 668l162 -308q8 -16 14 -34q5 15 15 34l164 308q6 12 15 12h30q15 0 8 -12l-205 -386v-270q0 -12 -12 -12h-29q-12 0 -12 12v264l-207 392q-6 12 9 12h34q8 0 14 -12z" />
    <glyph glyph-name="ygrave" unicode="&#x1ef3;" horiz-adv-x="438" 
d="M192 577l-81 119q-9 12 6 12h32q9 0 16 -10l72 -117q7 -11 -5 -11h-25q-10 0 -15 7zM83 480l123 -361q8 -23 14 -52q3 19 14 51l124 362q5 13 14 13h28q14 0 9 -13l-232 -676q-3 -12 -13 -12h-23q-13 0 -10 12l65 194l-167 482q-5 13 10 13h30q9 0 14 -13z" />
    <glyph glyph-name="endash" unicode="&#x2013;" horiz-adv-x="524" 
d="M84 311h356q12 0 12 -11v-21q0 -12 -12 -12h-356q-12 0 -12 12v21q0 11 12 11z" />
    <glyph glyph-name="emdash" unicode="&#x2014;" horiz-adv-x="833" 
d="M84 311h665q12 0 12 -11v-21q0 -12 -12 -12h-665q-12 0 -12 12v21q0 11 12 11z" />
    <glyph glyph-name="quoteleft" unicode="&#x2018;" horiz-adv-x="216" 
d="M117 606v-59q0 -12 -12 -12h-30q-11 0 -11 12v61q0 85 88 114q11 3 15 -7l7 -21q4 -11 -7 -15q-50 -23 -50 -73z" />
    <glyph glyph-name="quoteright" unicode="&#x2019;" horiz-adv-x="218" 
d="M108 651v59q0 12 12 12h30q11 0 11 -12v-61q0 -85 -88 -114q-11 -3 -15 7l-7 21q-4 11 7 15q50 23 50 73z" />
    <glyph glyph-name="quotesinglbase" unicode="&#x201a;" horiz-adv-x="158" 
d="M54 30v59q0 12 12 12h30q11 0 11 -12v-61q0 -85 -88 -114q-11 -3 -15 7l-7 21q-4 11 7 15q50 23 50 73z" />
    <glyph glyph-name="quotedblleft" unicode="&#x201c;" horiz-adv-x="357" 
d="M117 606v-59q0 -12 -12 -12h-30q-11 0 -11 12v61q0 85 88 114q11 3 15 -7l7 -21q4 -11 -7 -15q-50 -23 -50 -73zM258 606v-59q0 -12 -12 -12h-30q-11 0 -11 12v61q0 85 88 114q11 3 15 -7l7 -21q4 -11 -7 -15q-50 -23 -50 -73z" />
    <glyph glyph-name="quotedblright" unicode="&#x201d;" horiz-adv-x="359" 
d="M108 651v59q0 12 12 12h30q11 0 11 -12v-61q0 -85 -88 -114q-11 -3 -15 7l-7 21q-4 11 7 15q50 23 50 73zM249 651v59q0 12 12 12h30q11 0 11 -12v-61q0 -85 -88 -114q-11 -3 -15 7l-7 21q-4 11 7 15q50 23 50 73z" />
    <glyph glyph-name="quotedblbase" unicode="&#x201e;" horiz-adv-x="299" 
d="M54 30v59q0 12 12 12h30q11 0 11 -12v-61q0 -85 -88 -114q-11 -3 -15 7l-7 21q-4 11 7 15q50 23 50 73zM195 30v59q0 12 12 12h30q11 0 11 -12v-61q0 -85 -88 -114q-11 -3 -15 7l-7 21q-4 11 7 15q50 23 50 73z" />
    <glyph glyph-name="dagger" unicode="&#x2020;" horiz-adv-x="433" 
d="M243 687v-675q0 -12 -12 -12h-29q-11 0 -11 12v675q0 12 11 12h29q12 0 12 -12zM48 498h111q12 0 12 -12v-21q0 -12 -12 -12h-111q-12 0 -12 12v21q0 12 12 12zM274 498h111q12 0 12 -12v-21q0 -12 -12 -12h-111q-12 0 -12 12v21q0 12 12 12z" />
    <glyph glyph-name="daggerdbl" unicode="&#x2021;" horiz-adv-x="433" 
d="M243 687v-675q0 -12 -12 -12h-29q-11 0 -11 12v675q0 12 11 12h29q12 0 12 -12zM48 498h111q12 0 12 -12v-21q0 -12 -12 -12h-111q-12 0 -12 12v21q0 12 12 12zM274 498h111q12 0 12 -12v-21q0 -12 -12 -12h-111q-12 0 -12 12v21q0 12 12 12zM48 246h111q12 0 12 -11v-21
q0 -13 -12 -13h-111q-12 0 -12 13v21q0 11 12 11zM274 246h111q12 0 12 -11v-21q0 -13 -12 -13h-111q-12 0 -12 13v21q0 11 12 11z" />
    <glyph glyph-name="bullet" unicode="&#x2022;" horiz-adv-x="254" 
d="M153 322v-125q0 -11 -11 -11h-30q-12 0 -12 11v125q0 12 12 12h30q11 0 11 -12z" />
    <glyph glyph-name="ellipsis" unicode="&#x2026;" horiz-adv-x="695" 
d="M126 89v-77q0 -12 -11 -12h-30q-12 0 -12 12v77q0 12 12 12h30q11 0 11 -12zM621 89v-77q0 -12 -11 -12h-30q-12 0 -12 12v77q0 12 12 12h30q11 0 11 -12zM374 89v-77q0 -12 -11 -12h-30q-12 0 -12 12v77q0 12 12 12h30q11 0 11 -12z" />
    <glyph glyph-name="perthousand" unicode="&#x2030;" horiz-adv-x="1015" 
d="M534 676l-308 -672q-5 -12 -17 -12h-23q-11 0 -6 12l309 672q5 12 17 12h22q12 0 6 -12zM58 411v190q0 83 116 83q117 0 117 -83v-190q0 -82 -117 -82q-116 0 -116 82zM248 417v178q0 27 -16.5 40t-57.5 13t-57.5 -13t-16.5 -40v-178q0 -52 74 -52t74 52zM428 79v190
q0 82 117 82q116 0 116 -82v-190q0 -83 -116 -83q-117 0 -117 83zM726 79v190q0 82 117 82q116 0 116 -82v-190q0 -83 -116 -83q-117 0 -117 83zM618 85v178q0 26 -16.5 39t-56.5 13q-41 0 -57.5 -13t-16.5 -39v-178q0 -27 16.5 -40t57.5 -13q40 0 56.5 13t16.5 40zM916 85
v178q0 26 -16.5 39t-56.5 13q-41 0 -57.5 -13t-16.5 -39v-178q0 -27 16 -40t58 -13q40 0 56.5 13t16.5 40z" />
    <glyph glyph-name="guilsinglleft" unicode="&#x2039;" horiz-adv-x="328" 
d="M243 360l-154 -115l154 -114q12 -9 12 -19v-31q0 -14 -12 -6l-185 140q-11 8 -11 18v24q0 9 11 18l185 141q5 3 8.5 1.5t3.5 -7.5v-33q0 -8 -12 -17z" />
    <glyph glyph-name="guilsinglright" unicode="&#x203a;" horiz-adv-x="328" 
d="M239 245l-154 115q-12 9 -12 17v33q0 6 3.5 7.5t8.5 -1.5l185 -141q11 -9 11 -18v-24q0 -10 -11 -18l-185 -140q-12 -8 -12 6v31q0 10 12 19z" />
    <glyph glyph-name="fraction" unicode="&#x2044;" horiz-adv-x="83" 
d="M218 676l-308 -672q-5 -12 -17 -12h-23q-11 0 -6 12l309 672q5 12 17 12h22q12 0 6 -12z" />
    <glyph glyph-name="zero.superior" unicode="&#x2070;" 
d="M37 535v216q0 83 117 83q116 0 116 -83v-216q0 -83 -116 -83q-117 0 -117 83zM227 541v204q0 27 -16.5 40t-56.5 13q-41 0 -58 -13t-17 -40v-204q0 -27 17 -40t58 -13q40 0 56.5 13t16.5 40z" />
    <glyph glyph-name="four.superior" unicode="&#x2074;" 
d="M145 822l-76 -213h146v213q0 8 9 8h26q8 0 8 -8v-358q0 -8 -8 -8h-26q-9 0 -9 8v110h-182q-9 0 -9 8v13q0 3 2 11l76 216q3 8 11 8h25q10 0 7 -8z" />
    <glyph glyph-name="five.superior" unicode="&#x2075;" 
d="M60 830h188q8 0 8 -8v-18q0 -8 -9 -8h-153v-111h63q54 0 81.5 -20t27.5 -54v-79q0 -80 -112 -80t-112 80v11q0 7 8 7h26q8 0 8 -7v-7q0 -26 15 -39t55 -13t54.5 13t14.5 39v70q0 46 -70 46h-93q-9 0 -9 8v162q0 8 9 8z" />
    <glyph glyph-name="six.superior" unicode="&#x2076;" 
d="M42 534v222q0 78 113 78q111 0 111 -78v-8q0 -9 -8 -9h-26q-8 0 -8 9v5q0 48 -69 48q-70 0 -70 -50v-99q17 27 76 27q109 0 109 -78v-67q0 -39 -25 -60.5t-89 -21.5q-114 0 -114 82zM228 537v56q0 27 -15.5 40t-56.5 13q-71 0 -71 -49v-60q0 -26 15.5 -39t55.5 -13t56 13
t16 39z" />
    <glyph glyph-name="seven.superior" unicode="&#x2077;" 
d="M41 830h228q9 0 9 -8v-13q0 -5 -3 -12l-139 -333q-3 -8 -11 -8h-31q-9 0 -6 8l141 330h-188q-9 0 -9 9v19q0 8 9 8z" />
    <glyph glyph-name="eight.superior" unicode="&#x2078;" 
d="M43 718v35q0 38 23.5 59.5t87.5 21.5t87 -21t23 -60v-35q0 -25 -11 -40.5t-40 -23.5q56 -12 56 -63v-58q0 -81 -115 -81t-115 81v58q0 51 55 63q-51 14 -51 64zM222 722v28q0 26 -14.5 39t-53.5 13q-40 0 -54.5 -13t-14.5 -39v-28q0 -26 14.5 -39t54.5 -13q39 0 53.5 13
t14.5 39zM227 537v49q0 26 -16 39t-57 13t-57 -13t-16 -39v-49q0 -26 16 -39.5t57 -13.5q73 0 73 53z" />
    <glyph glyph-name="nine.superior" unicode="&#x2079;" 
d="M266 752v-222q0 -78 -113 -78q-112 0 -112 78v8q0 9 9 9h25q8 0 8 -9v-5q0 -48 70 -48t70 50v99q-17 -27 -76 -27q-110 0 -110 78v67q0 39 25.5 60.5t89.5 21.5q114 0 114 -82zM80 749v-56q0 -27 15.5 -40t56.5 -13q71 0 71 49v60q0 26 -15.5 39t-55.5 13t-56 -13
t-16 -39z" />
    <glyph glyph-name="parenleft.superior" unicode="&#x207d;" horiz-adv-x="201" 
d="M52 461v367q0 71 106 71h4q9 0 9 -8v-17q0 -9 -9 -9h-4q-63 0 -63 -41v-359q0 -41 63 -41h4q9 0 9 -9v-17q0 -9 -9 -9h-4q-106 0 -106 72z" />
    <glyph glyph-name="parenright.superior" unicode="&#x207e;" horiz-adv-x="200" 
d="M106 824q0 41 -63 41h-4q-9 0 -9 9v17q0 8 9 8h4q106 0 106 -71v-367q0 -72 -106 -72h-4q-9 0 -9 9v17q0 9 9 9h4q63 0 63 41v359z" />
    <glyph glyph-name="zero.inferior" unicode="&#x2080;" 
d="M37 -71v216q0 83 117 83q116 0 116 -83v-216q0 -83 -116 -83q-117 0 -117 83zM227 -65v204q0 27 -16.5 40t-56.5 13q-41 0 -58 -13t-17 -40v-204q0 -27 17 -40t58 -13q40 0 56.5 13t16.5 40z" />
    <glyph glyph-name="one.inferior" unicode="&#x2081;" 
d="M54 198l120 26q9 2 9 -7v-331h87q8 0 8 -8v-20q0 -8 -8 -8h-217q-8 0 -8 8v20q0 8 8 8h87v296l-86 -21q-8 -1 -8 7v19q0 10 8 11z" />
    <glyph glyph-name="two.inferior" unicode="&#x2082;" 
d="M86 -114h175q8 0 8 -8v-20q0 -8 -8 -8h-211q-8 0 -8 8v100q0 44 52 60l95 29q35 11 35 39v56q0 26 -15.5 39t-56.5 13t-57 -13t-16 -39v-25q0 -9 -8 -9h-26q-7 0 -7 9v29q0 82 116 82q113 0 113 -82v-62q0 -27 -16 -43t-36 -22l-95 -30q-18 -5 -26 -12t-8 -23v-68z" />
    <glyph glyph-name="three.inferior" unicode="&#x2083;" 
d="M224 -70v51q0 26 -15.5 38.5t-56.5 12.5h-49q-8 0 -8 7v17q0 7 8 7h46q41 0 55.5 13t14.5 40v28q0 26 -15 38.5t-54 12.5q-40 0 -55.5 -12.5t-15.5 -38.5v-6q0 -8 -8 -8h-25q-8 0 -8 8v10q0 80 112 80q111 0 111 -78v-40q0 -25 -10 -39.5t-37 -22.5q52 -13 52 -63v-61
q0 -78 -115 -78q-116 0 -116 80v11q0 8 8 8h26q8 0 8 -8v-7q0 -51 74 -51q40 0 56.5 13t16.5 38z" />
    <glyph glyph-name="four.inferior" unicode="&#x2084;" 
d="M146 216l-76 -213h146v213q0 8 9 8h26q8 0 8 -8v-358q0 -8 -8 -8h-26q-9 0 -9 8v110h-182q-9 0 -9 8v13q0 3 2 11l76 216q3 8 11 8h25q10 0 7 -8z" />
    <glyph glyph-name="five.inferior" unicode="&#x2085;" 
d="M60 224h188q8 0 8 -8v-18q0 -8 -9 -8h-153v-111h63q54 0 81.5 -20t27.5 -54v-79q0 -80 -112 -80t-112 80v11q0 7 8 7h26q8 0 8 -7v-7q0 -26 15 -39t55 -13t54.5 13t14.5 39v70q0 46 -70 46h-93q-9 0 -9 8v162q0 8 9 8z" />
    <glyph glyph-name="six.inferior" unicode="&#x2086;" 
d="M42 -72v222q0 78 113 78q111 0 111 -78v-8q0 -9 -8 -9h-26q-8 0 -8 9v5q0 48 -69 48q-70 0 -70 -50v-99q17 27 76 27q109 0 109 -78v-67q0 -39 -25 -60.5t-89 -21.5q-114 0 -114 82zM228 -69v56q0 27 -15.5 40t-56.5 13q-71 0 -71 -49v-60q0 -26 15.5 -39t55.5 -13t56 13
t16 39z" />
    <glyph glyph-name="seven.inferior" unicode="&#x2087;" 
d="M41 224h228q9 0 9 -8v-13q0 -5 -3 -12l-139 -333q-3 -8 -11 -8h-31q-9 0 -6 8l141 330h-188q-9 0 -9 9v19q0 8 9 8z" />
    <glyph glyph-name="eight.inferior" unicode="&#x2088;" 
d="M43 112v35q0 38 23.5 59.5t87.5 21.5t87 -21t23 -60v-35q0 -25 -11 -40.5t-40 -23.5q56 -12 56 -63v-58q0 -81 -115 -81t-115 81v58q0 51 55 63q-51 14 -51 64zM222 116v28q0 26 -14.5 39t-53.5 13q-40 0 -54.5 -13t-14.5 -39v-28q0 -26 14.5 -39t54.5 -13q39 0 53.5 13
t14.5 39zM227 -69v49q0 26 -16 39t-57 13t-57 -13t-16 -39v-49q0 -26 16 -39.5t57 -13.5q73 0 73 53z" />
    <glyph glyph-name="nine.inferior" unicode="&#x2089;" 
d="M266 146v-222q0 -78 -113 -78q-112 0 -112 78v8q0 9 9 9h25q8 0 8 -9v-5q0 -48 70 -48t70 50v99q-17 -27 -76 -27q-110 0 -110 78v67q0 39 25.5 60.5t89.5 21.5q114 0 114 -82zM80 143v-56q0 -27 15.5 -40t56.5 -13q71 0 71 49v60q0 26 -15.5 39t-55.5 13t-56 -13
t-16 -39z" />
    <glyph glyph-name="parenleft.inferior" unicode="&#x208d;" horiz-adv-x="201" 
d="M52 -145v367q0 71 106 71h4q9 0 9 -8v-17q0 -9 -9 -9h-4q-63 0 -63 -41v-359q0 -41 63 -41h4q9 0 9 -9v-17q0 -9 -9 -9h-4q-106 0 -106 72z" />
    <glyph glyph-name="parenright.inferior" unicode="&#x208e;" horiz-adv-x="200" 
d="M106 218q0 41 -63 41h-4q-9 0 -9 9v17q0 8 9 8h4q106 0 106 -71v-367q0 -72 -106 -72h-4q-9 0 -9 9v17q0 9 9 9h4q63 0 63 41v359z" />
    <glyph glyph-name="Euro" unicode="&#x20ac;" horiz-adv-x="600" 
d="M529 133q0 -141 -204 -141t-204 141v130h-52q-11 0 -11 11v13q0 12 11 12h52v83h-52q-11 0 -11 12v13q0 11 11 11h52v129q0 141 204 141t204 -141v-52q0 -13 -11 -13h-29q-12 0 -12 13v44q0 49 -34.5 76t-117.5 27t-117 -26.5t-34 -76.5v-121h171q12 0 12 -11v-13
q0 -12 -12 -12h-171v-83h171q12 0 12 -12v-13q0 -11 -12 -11h-171v-122q0 -50 34 -76.5t117 -26.5t117.5 27t34.5 76v57q0 11 12 11h29q11 0 11 -11v-65z" />
    <glyph glyph-name="afii61289" unicode="&#x2113;" horiz-adv-x="502" 
d="M170 127v114q-55 -29 -115 -51q-11 -5 -15 5l-10 22q-5 11 6 16q84 33 134 59v249q0 141 151 141q148 0 148 -141q0 -146 -248 -275v-134q0 -88 126 -88h92q12 0 12 -12v-20q0 -12 -12 -12h-93q-176 0 -176 127zM221 535v-216q199 110 199 219q0 48 -22 74t-77 26
q-56 0 -78 -26.5t-22 -76.5z" />
    <glyph glyph-name="trademark" unicode="&#x2122;" horiz-adv-x="819" 
d="M733 670v-388q0 -10 -10 -10h-25q-10 0 -10 10v310q-4 -16 -9 -27l-100 -221q-5 -10 -14 -10h-20q-8 0 -13 10l-103 223q-6 15 -8 25v-310q0 -10 -10 -10h-24q-9 0 -9 10v388q0 10 9 10h24q6 0 9 -5l125 -265q3 -6 10 -27q1 4 10 26l124 266q2 5 9 5h25q10 0 10 -10z
M48 680h271q10 0 10 -10v-19q0 -9 -10 -9h-113v-360q0 -10 -9 -10h-27q-10 0 -10 10v360h-112q-10 0 -10 9v19q0 10 10 10z" />
    <glyph glyph-name="estimated" unicode="&#x212e;" horiz-adv-x="801" 
d="M757 340q0 -16 -16 -16h-587v-180q43 -60 110 -95.5t146 -35.5q143 0 247 113q5 5 9 5q9 0 9 -9q0 -6 -7 -15q-46 -53 -114 -84t-144 -31q-145 0 -246.5 101t-101.5 247q0 144 102 246t246 102q142 0 244.5 -102t102.5 -246zM410 666q-78 0 -145 -35.5t-111 -95.5v-191
h513v188q-45 61 -112.5 97.5t-144.5 36.5z" />
    <glyph glyph-name="uni2153" unicode="&#x2153;" horiz-adv-x="737" 
d="M555 676l-308 -672q-5 -12 -17 -12h-23q-11 0 -6 12l309 672q5 12 17 12h22q12 0 6 -12zM65 654l120 26q9 2 9 -7v-331h87q8 0 8 -8v-20q0 -8 -8 -8h-217q-8 0 -8 8v20q0 8 8 8h87v296l-86 -21q-8 -1 -8 7v19q0 10 8 11zM638 80v51q0 26 -15.5 38.5t-56.5 12.5h-49
q-8 0 -8 7v17q0 7 8 7h46q41 0 55.5 13t14.5 40v28q0 26 -15 38.5t-54 12.5q-40 0 -55.5 -12.5t-15.5 -38.5v-6q0 -8 -8 -8h-25q-8 0 -8 8v10q0 80 112 80q111 0 111 -78v-40q0 -25 -10 -39.5t-37 -22.5q52 -13 52 -63v-61q0 -78 -115 -78q-116 0 -116 80v11q0 8 8 8h26
q8 0 8 -8v-7q0 -51 74 -51q40 0 56.5 13t16.5 38z" />
    <glyph glyph-name="uni2154" unicode="&#x2154;" horiz-adv-x="729" 
d="M550 676l-308 -672q-5 -12 -17 -12h-23q-11 0 -6 12l309 672q5 12 17 12h22q12 0 6 -12zM107 342h175q8 0 8 -8v-20q0 -8 -8 -8h-211q-8 0 -8 8v100q0 44 52 60l95 29q35 11 35 39v56q0 26 -15.5 39t-56.5 13t-57 -13t-16 -39v-25q0 -9 -8 -9h-26q-7 0 -7 9v29
q0 82 116 82q113 0 113 -82v-62q0 -27 -16 -43t-36 -22l-95 -30q-18 -5 -26 -12t-8 -23v-68zM629 80v51q0 26 -15.5 38.5t-56.5 12.5h-49q-8 0 -8 7v17q0 7 8 7h46q41 0 55.5 13t14.5 40v28q0 26 -15 38.5t-54 12.5q-40 0 -55.5 -12.5t-15.5 -38.5v-6q0 -8 -8 -8h-25
q-8 0 -8 8v10q0 80 112 80q111 0 111 -78v-40q0 -25 -10 -39.5t-37 -22.5q52 -13 52 -63v-61q0 -78 -115 -78q-116 0 -116 80v11q0 8 8 8h26q8 0 8 -8v-7q0 -51 74 -51q40 0 56.5 13t16.5 38z" />
    <glyph glyph-name="uni2155" unicode="&#x2155;" horiz-adv-x="743" 
d="M555 676l-308 -672q-5 -12 -17 -12h-23q-11 0 -6 12l309 672q5 12 17 12h22q12 0 6 -12zM65 654l120 26q9 2 9 -7v-331h87q8 0 8 -8v-20q0 -8 -8 -8h-217q-8 0 -8 8v20q0 8 8 8h87v296l-86 -21q-8 -1 -8 7v19q0 10 8 11zM480 374h188q8 0 8 -8v-18q0 -8 -9 -8h-153v-111
h63q54 0 81.5 -20t27.5 -54v-79q0 -80 -112 -80t-112 80v11q0 7 8 7h26q8 0 8 -7v-7q0 -26 15 -39t55 -13t54.5 13t14.5 39v70q0 46 -70 46h-93q-9 0 -9 8v162q0 8 9 8z" />
    <glyph glyph-name="uni2156" unicode="&#x2156;" horiz-adv-x="742" 
d="M556 676l-308 -672q-5 -12 -17 -12h-23q-11 0 -6 12l309 672q5 12 17 12h22q12 0 6 -12zM107 342h175q8 0 8 -8v-20q0 -8 -8 -8h-211q-8 0 -8 8v100q0 44 52 60l95 29q35 11 35 39v56q0 26 -15.5 39t-56.5 13t-57 -13t-16 -39v-25q0 -9 -8 -9h-26q-7 0 -7 9v29
q0 82 116 82q113 0 113 -82v-62q0 -27 -16 -43t-36 -22l-95 -30q-18 -5 -26 -12t-8 -23v-68zM478 374h188q8 0 8 -8v-18q0 -8 -9 -8h-153v-111h63q54 0 81.5 -20t27.5 -54v-79q0 -80 -112 -80t-112 80v11q0 7 8 7h26q8 0 8 -7v-7q0 -26 15 -39t55 -13t54.5 13t14.5 39v70
q0 46 -70 46h-93q-9 0 -9 8v162q0 8 9 8z" />
    <glyph glyph-name="uni2157" unicode="&#x2157;" horiz-adv-x="735" 
d="M549 676l-308 -672q-5 -12 -17 -12h-23q-11 0 -6 12l309 672q5 12 17 12h22q12 0 6 -12zM243 386v51q0 26 -15.5 38.5t-56.5 12.5h-49q-8 0 -8 7v17q0 7 8 7h46q41 0 55.5 13t14.5 40v28q0 26 -15 38.5t-54 12.5q-40 0 -55.5 -12.5t-15.5 -38.5v-6q0 -8 -8 -8h-25
q-8 0 -8 8v10q0 80 112 80q111 0 111 -78v-40q0 -25 -10 -39.5t-37 -22.5q52 -13 52 -63v-61q0 -78 -115 -78q-116 0 -116 80v11q0 8 8 8h26q8 0 8 -8v-7q0 -51 74 -51q40 0 56.5 13t16.5 38zM471 374h188q8 0 8 -8v-18q0 -8 -9 -8h-153v-111h63q54 0 81.5 -20t27.5 -54v-79
q0 -80 -112 -80t-112 80v11q0 7 8 7h26q8 0 8 -7v-7q0 -26 15 -39t55 -13t54.5 13t14.5 39v70q0 46 -70 46h-93q-9 0 -9 8v162q0 8 9 8z" />
    <glyph glyph-name="uni2158" unicode="&#x2158;" horiz-adv-x="730" 
d="M545 676l-308 -672q-5 -12 -17 -12h-23q-11 0 -6 12l309 672q5 12 17 12h22q12 0 6 -12zM158 672l-76 -213h146v213q0 8 9 8h26q8 0 8 -8v-358q0 -8 -8 -8h-26q-9 0 -9 8v110h-182q-9 0 -9 8v13q0 3 2 11l76 216q3 8 11 8h25q10 0 7 -8zM466 374h188q8 0 8 -8v-18
q0 -8 -9 -8h-153v-111h63q54 0 81.5 -20t27.5 -54v-79q0 -80 -112 -80t-112 80v11q0 7 8 7h26q8 0 8 -7v-7q0 -26 15 -39t55 -13t54.5 13t14.5 39v70q0 46 -70 46h-93q-9 0 -9 8v162q0 8 9 8z" />
    <glyph glyph-name="uni2159" unicode="&#x2159;" horiz-adv-x="736" 
d="M555 676l-308 -672q-5 -12 -17 -12h-23q-11 0 -6 12l309 672q5 12 17 12h22q12 0 6 -12zM65 654l120 26q9 2 9 -7v-331h87q8 0 8 -8v-20q0 -8 -8 -8h-217q-8 0 -8 8v20q0 8 8 8h87v296l-86 -21q-8 -1 -8 7v19q0 10 8 11zM450 78v222q0 78 113 78q111 0 111 -78v-8
q0 -9 -8 -9h-26q-8 0 -8 9v5q0 48 -69 48q-70 0 -70 -50v-99q17 27 76 27q109 0 109 -78v-67q0 -39 -25 -60.5t-89 -21.5q-114 0 -114 82zM636 81v56q0 27 -15.5 40t-56.5 13q-71 0 -71 -49v-60q0 -26 15.5 -39t55.5 -13t56 13t16 39z" />
    <glyph glyph-name="uni215A" unicode="&#x215a;" horiz-adv-x="730" 
d="M539 676l-308 -672q-5 -12 -17 -12h-23q-11 0 -6 12l309 672q5 12 17 12h22q12 0 6 -12zM74 680h188q8 0 8 -8v-18q0 -8 -9 -8h-153v-111h63q54 0 81.5 -20t27.5 -54v-79q0 -80 -112 -80t-112 80v11q0 7 8 7h26q8 0 8 -7v-7q0 -26 15 -39t55 -13t54.5 13t14.5 39v70
q0 46 -70 46h-93q-9 0 -9 8v162q0 8 9 8zM445 78v222q0 78 113 78q111 0 111 -78v-8q0 -9 -8 -9h-26q-8 0 -8 9v5q0 48 -69 48q-70 0 -70 -50v-99q17 27 76 27q109 0 109 -78v-67q0 -39 -25 -60.5t-89 -21.5q-114 0 -114 82zM631 81v56q0 27 -15.5 40t-56.5 13
q-71 0 -71 -49v-60q0 -26 15.5 -39t55.5 -13t56 13t16 39z" />
    <glyph glyph-name="uni215B" unicode="&#x215b;" horiz-adv-x="736" 
d="M555 676l-308 -672q-5 -12 -17 -12h-23q-11 0 -6 12l309 672q5 12 17 12h22q12 0 6 -12zM65 654l120 26q9 2 9 -7v-331h87q8 0 8 -8v-20q0 -8 -8 -8h-217q-8 0 -8 8v20q0 8 8 8h87v296l-86 -21q-8 -1 -8 7v19q0 10 8 11zM452 262v35q0 38 23.5 59.5t87.5 21.5t87 -21
t23 -60v-35q0 -25 -11 -40.5t-40 -23.5q56 -12 56 -63v-58q0 -81 -115 -81t-115 81v58q0 51 55 63q-51 14 -51 64zM631 266v28q0 26 -14.5 39t-53.5 13q-40 0 -54.5 -13t-14.5 -39v-28q0 -26 14.5 -39t54.5 -13q39 0 53.5 13t14.5 39zM636 81v49q0 26 -16 39t-57 13t-57 -13
t-16 -39v-49q0 -26 16 -39.5t57 -13.5q73 0 73 53z" />
    <glyph glyph-name="uni215C" unicode="&#x215c;" horiz-adv-x="736" 
d="M543 676l-308 -672q-5 -12 -17 -12h-23q-11 0 -6 12l309 672q5 12 17 12h22q12 0 6 -12zM243 386v51q0 26 -15.5 38.5t-56.5 12.5h-49q-8 0 -8 7v17q0 7 8 7h46q41 0 55.5 13t14.5 40v28q0 26 -15 38.5t-54 12.5q-40 0 -55.5 -12.5t-15.5 -38.5v-6q0 -8 -8 -8h-25
q-8 0 -8 8v10q0 80 112 80q111 0 111 -78v-40q0 -25 -10 -39.5t-37 -22.5q52 -13 52 -63v-61q0 -78 -115 -78q-116 0 -116 80v11q0 8 8 8h26q8 0 8 -8v-7q0 -51 74 -51q40 0 56.5 13t16.5 38zM453 262v35q0 38 23.5 59.5t87.5 21.5t87 -21t23 -60v-35q0 -25 -11 -40.5
t-40 -23.5q56 -12 56 -63v-58q0 -81 -115 -81t-115 81v58q0 51 55 63q-51 14 -51 64zM632 266v28q0 26 -14.5 39t-53.5 13q-40 0 -54.5 -13t-14.5 -39v-28q0 -26 14.5 -39t54.5 -13q39 0 53.5 13t14.5 39zM637 81v49q0 26 -16 39t-57 13t-57 -13t-16 -39v-49q0 -26 16 -39.5
t57 -13.5q73 0 73 53z" />
    <glyph glyph-name="uni215D" unicode="&#x215d;" horiz-adv-x="730" 
d="M540 676l-308 -672q-5 -12 -17 -12h-23q-11 0 -6 12l309 672q5 12 17 12h22q12 0 6 -12zM74 680h188q8 0 8 -8v-18q0 -8 -9 -8h-153v-111h63q54 0 81.5 -20t27.5 -54v-79q0 -80 -112 -80t-112 80v11q0 7 8 7h26q8 0 8 -7v-7q0 -26 15 -39t55 -13t54.5 13t14.5 39v70
q0 46 -70 46h-93q-9 0 -9 8v162q0 8 9 8zM447 262v35q0 38 23.5 59.5t87.5 21.5t87 -21t23 -60v-35q0 -25 -11 -40.5t-40 -23.5q56 -12 56 -63v-58q0 -81 -115 -81t-115 81v58q0 51 55 63q-51 14 -51 64zM626 266v28q0 26 -14.5 39t-53.5 13q-40 0 -54.5 -13t-14.5 -39v-28
q0 -26 14.5 -39t54.5 -13q39 0 53.5 13t14.5 39zM631 81v49q0 26 -16 39t-57 13t-57 -13t-16 -39v-49q0 -26 16 -39.5t57 -13.5q73 0 73 53z" />
    <glyph glyph-name="uni215E" unicode="&#x215e;" horiz-adv-x="679" 
d="M481 676l-308 -672q-5 -12 -17 -12h-23q-11 0 -6 12l309 672q5 12 17 12h22q12 0 6 -12zM46 680h228q9 0 9 -8v-13q0 -5 -3 -12l-139 -333q-3 -8 -11 -8h-31q-9 0 -6 8l141 330h-188q-9 0 -9 9v19q0 8 9 8zM397 262v35q0 38 23.5 59.5t87.5 21.5t87 -21t23 -60v-35
q0 -25 -11 -40.5t-40 -23.5q56 -12 56 -63v-58q0 -81 -115 -81t-115 81v58q0 51 55 63q-51 14 -51 64zM576 266v28q0 26 -14.5 39t-53.5 13q-40 0 -54.5 -13t-14.5 -39v-28q0 -26 14.5 -39t54.5 -13q39 0 53.5 13t14.5 39zM581 81v49q0 26 -16 39t-57 13t-57 -13t-16 -39
v-49q0 -26 16 -39.5t57 -13.5q73 0 73 53z" />
    <glyph glyph-name="uni215F" unicode="&#x215f;" horiz-adv-x="407" 
d="M550 676l-308 -672q-5 -12 -17 -12h-23q-11 0 -6 12l309 672q5 12 17 12h22q12 0 6 -12zM56 654l120 26q9 2 9 -7v-331h87q8 0 8 -8v-20q0 -8 -8 -8h-217q-8 0 -8 8v20q0 8 8 8h87v296l-86 -21q-8 -1 -8 7v19q0 10 8 11z" />
    <glyph glyph-name="partialdiff" unicode="&#x2202;" horiz-adv-x="373" 
d="M87 196v238q0 11 10 13t20 -5l180 -111q9 -6 9 -15.5t-9 -14.5l-180 -111q-6 -4 -13 -5.5t-12 1.5t-5 10z" />
    <glyph glyph-name="product" unicode="&#x220f;" horiz-adv-x="373" 
d="M306 205h-238q-7 0 -10 5t-2 11.5t5 13.5l110 179q6 9 15.5 9t14.5 -9l111 -179q4 -7 5.5 -13.5t-1.5 -11.5t-10 -5z" />
    <glyph glyph-name="summation" unicode="&#x2211;" horiz-adv-x="373" 
d="M285 434v-238q0 -7 -5 -10t-11.5 -1.5t-13.5 5.5l-179 111q-9 5 -9 14.5t9 15.5l179 111q7 4 13.5 5t11.5 -2.5t5 -10.5z" />
    <glyph glyph-name="minus" unicode="&#x2212;" horiz-adv-x="590" 
d="M97 358h396q12 0 12 -12v-21q0 -12 -12 -12h-396q-12 0 -12 12v21q0 12 12 12z" />
    <glyph glyph-name="radical" unicode="&#x221a;" horiz-adv-x="373" 
d="M108 422h157q30 0 30 -30v-157q0 -30 -30 -30h-157q-16 0 -23 6.5t-7 23.5v157q0 30 30 30zM265 405h-157q-13 0 -13 -13v-157q0 -13 13 -13h157q13 0 13 13v157q0 13 -13 13z" />
    <glyph glyph-name="infinity" unicode="&#x221e;" horiz-adv-x="373" 
d="M54 335l111 111q11 11 21 11q12 0 22 -11l110 -111q11 -11 11 -21q0 -11 -11 -22l-110 -111q-11 -11 -22 -11q-10 0 -21 11l-111 111q-12 12 -12 22q0 9 12 21zM177 434l-111 -112q-4 -4 -4 -9q0 -4 4 -8l111 -112q4 -4 9 -4t9 4l112 112q4 4 4 8q0 5 -4 9l-112 112
q-4 4 -9 4t-9 -4z" />
    <glyph glyph-name="integral" unicode="&#x222b;" horiz-adv-x="373" 
d="M30 313q0 65 45.5 110.5t109.5 45.5q65 0 111 -46t46 -110q0 -65 -46 -110t-111 -45t-110 45t-45 110z" />
    <glyph glyph-name="approxequal" unicode="&#x2248;" horiz-adv-x="471" 
d="M188 395q-22 12 -36 12q-19 0 -25.5 -9t-6.5 -34v-20q0 -11 -13 -11h-16q-10 0 -10 14v21q0 84 67 84q21 0 49 -15l84 -46q24 -14 41 -14q19 0 25 9t6 35v19q0 11 12 11h17q10 0 10 -13v-22q0 -84 -65 -84q-26 0 -55 16zM188 244q-22 12 -36 12q-19 0 -25.5 -9t-6.5 -34
v-20q0 -11 -13 -11h-16q-10 0 -10 14v21q0 84 67 84q21 0 49 -15l84 -46q24 -14 41 -14q19 0 25 9t6 35v19q0 11 12 11h17q10 0 10 -13v-22q0 -84 -65 -84q-26 0 -55 16z" />
    <glyph glyph-name="notequal" unicode="&#x2260;" horiz-adv-x="584" 
d="M246 154q-4 -12 -16 -12h-27q-12 0 -7 12l28 72h-131q-12 0 -12 12v21q0 12 12 12h149l49 126h-198q-12 0 -12 12v21q0 12 12 12h216l28 72q5 12 15 12h27q13 0 8 -12l-28 -72h131q12 0 12 -12v-21q0 -12 -12 -12h-149l-49 -126h198q12 0 12 -12v-21q0 -12 -12 -12h-216z
" />
    <glyph glyph-name="lessequal" unicode="&#x2264;" horiz-adv-x="536" 
d="M441 519l-310 -118l310 -117q12 -4 12 -14v-29q0 -14 -12 -9l-351 140q-11 5 -11 13v32q0 8 11 13l351 141q12 5 12 -9v-29q0 -9 -12 -14zM91 167h350q12 0 12 -11v-21q0 -12 -12 -12h-350q-12 0 -12 12v21q0 11 12 11z" />
    <glyph glyph-name="greaterequal" unicode="&#x2265;" horiz-adv-x="536" 
d="M405 401l-310 118q-12 5 -12 14v29q0 15 12 10l351 -140q11 -5 11 -14v-33q0 -8 -11 -13l-351 -141q-12 -5 -12 10v30q0 8 12 13zM95 168h350q12 0 12 -12v-22q0 -11 -12 -11h-350q-12 0 -12 11v22q0 12 12 12z" />
    <glyph glyph-name="lozenge" unicode="&#x25ca;" horiz-adv-x="373" 
d="M60 329l111 111q7 7 15 7t15 -7l111 -111q8 -8 8 -15t-8 -15l-111 -111q-9 -9 -15 -9t-15 9l-111 111q-8 8 -8 15t8 15z" />
    <glyph glyph-name="Omega" unicode="&#xa7b6;" horiz-adv-x="373" 
d="M68 313q0 48 34.5 83t82.5 35q49 0 84 -35t35 -83q0 -49 -35 -83.5t-84 -34.5q-48 0 -82.5 34.5t-34.5 83.5zM85 313q0 -42 29 -71.5t71 -29.5t71.5 29.5t29.5 71.5q0 41 -29.5 70.5t-71.5 29.5t-71 -29.5t-29 -70.5z" />
    <glyph glyph-name="cent.denominator" unicode="&#xf629;" horiz-adv-x="292" 
d="M169 9q0 -9 -8 -9h-24q-9 0 -9 9v39q-83 7 -83 70v138q0 64 83 71v39q0 9 9 9h24q8 0 8 -9v-39q83 -7 83 -71v-10q0 -9 -8 -9h-23q-9 0 -9 9v7q0 41 -63 41t-63 -41v-132q0 -41 63 -41t63 41v12q0 8 9 8h23q8 0 8 -8v-15q0 -65 -83 -70v-39z" />
    <glyph glyph-name="dollar.denominator" unicode="&#xf62a;" horiz-adv-x="286" 
d="M158 0h-25q-9 0 -9 9v39q-43 3 -63.5 20t-20.5 41v15q0 8 7 8h23q9 0 9 -8v-13q0 -34 63 -34q65 0 65 34v21q0 19 -32 30l-87 28q-16 5 -30 19.5t-14 33.5v21q0 56 80 63v39q0 9 9 9h25q8 0 8 -9v-39q39 -4 57 -21.5t18 -40.5v-16q0 -8 -8 -8h-22q-8 0 -8 8v16
q0 33 -60 33t-60 -33v-15q0 -22 28 -31l86 -26q49 -15 49 -54v-30q0 -23 -20 -40t-60 -21v-39q0 -9 -8 -9z" />
    <glyph glyph-name="hyphen.denominator" unicode="&#xf62b;" horiz-adv-x="256" 
d="M52 176h151q9 0 9 -8v-17q0 -8 -9 -8h-151q-8 0 -8 8v17q0 8 8 8z" />
    <glyph glyph-name="parenleft.denominator" unicode="&#xf62c;" horiz-adv-x="201" 
d="M52 5v367q0 71 106 71h4q9 0 9 -8v-17q0 -9 -9 -9h-4q-63 0 -63 -41v-359q0 -41 63 -41h4q9 0 9 -9v-17q0 -9 -9 -9h-4q-106 0 -106 72z" />
    <glyph glyph-name="parenright.denominator" unicode="&#xf62d;" horiz-adv-x="200" 
d="M106 368q0 41 -63 41h-4q-9 0 -9 9v17q0 8 9 8h4q106 0 106 -71v-367q0 -72 -106 -72h-4q-9 0 -9 9v17q0 9 9 9h4q63 0 63 41v359z" />
    <glyph glyph-name="cent.numerator" unicode="&#xf62e;" horiz-adv-x="292" 
d="M169 315q0 -9 -8 -9h-24q-9 0 -9 9v39q-83 7 -83 70v138q0 64 83 71v39q0 9 9 9h24q8 0 8 -9v-39q83 -7 83 -71v-10q0 -9 -8 -9h-23q-9 0 -9 9v7q0 41 -63 41t-63 -41v-132q0 -41 63 -41t63 41v12q0 8 9 8h23q8 0 8 -8v-15q0 -65 -83 -70v-39z" />
    <glyph glyph-name="dollar.numerator" unicode="&#xf62f;" horiz-adv-x="287" 
d="M158 306h-25q-9 0 -9 9v39q-43 3 -63.5 20t-20.5 41v15q0 8 7 8h23q9 0 9 -8v-13q0 -34 63 -34q65 0 65 34v21q0 19 -32 30l-87 28q-16 5 -30 19.5t-14 33.5v21q0 56 80 63v39q0 9 9 9h25q8 0 8 -9v-39q39 -4 57 -21.5t18 -40.5v-16q0 -8 -8 -8h-22q-8 0 -8 8v16
q0 33 -60 33t-60 -33v-15q0 -22 28 -31l86 -26q49 -15 49 -54v-30q0 -23 -20 -40t-60 -21v-39q0 -9 -8 -9z" />
    <glyph glyph-name="hyphen.numerator" unicode="&#xf630;" horiz-adv-x="266" 
d="M57 482h151q9 0 9 -8v-17q0 -8 -9 -8h-151q-8 0 -8 8v17q0 8 8 8z" />
    <glyph glyph-name="parenleft.numerator" unicode="&#xf631;" horiz-adv-x="199" 
d="M51 311v367q0 71 106 71h4q9 0 9 -8v-17q0 -9 -9 -9h-4q-63 0 -63 -41v-359q0 -41 63 -41h4q9 0 9 -9v-17q0 -9 -9 -9h-4q-106 0 -106 72z" />
    <glyph glyph-name="parenright.numerator" unicode="&#xf632;" horiz-adv-x="199" 
d="M105 674q0 41 -63 41h-4q-9 0 -9 9v17q0 8 9 8h4q106 0 106 -71v-367q0 -72 -106 -72h-4q-9 0 -9 9v17q0 9 9 9h4q63 0 63 41v359z" />
    <glyph glyph-name="zero.denominator" unicode="&#xf655;" 
d="M37 79v216q0 83 117 83q116 0 116 -83v-216q0 -83 -116 -83q-117 0 -117 83zM227 85v204q0 27 -16.5 40t-56.5 13q-41 0 -58 -13t-17 -40v-204q0 -27 17 -40t58 -13q40 0 56.5 13t16.5 40z" />
    <glyph glyph-name="one.denominator" unicode="&#xf656;" 
d="M54 348l120 26q9 2 9 -7v-331h87q8 0 8 -8v-20q0 -8 -8 -8h-217q-8 0 -8 8v20q0 8 8 8h87v296l-86 -21q-8 -1 -8 7v19q0 10 8 11z" />
    <glyph glyph-name="two.denominator" unicode="&#xf657;" 
d="M87 36h175q8 0 8 -8v-20q0 -8 -8 -8h-211q-8 0 -8 8v100q0 44 52 60l95 29q35 11 35 39v56q0 26 -15.5 39t-56.5 13t-57 -13t-16 -39v-25q0 -9 -8 -9h-26q-7 0 -7 9v29q0 82 116 82q113 0 113 -82v-62q0 -27 -16 -43t-36 -22l-95 -30q-18 -5 -26 -12t-8 -23v-68z" />
    <glyph glyph-name="three.denominator" unicode="&#xf658;" 
d="M224 80v51q0 26 -15.5 38.5t-56.5 12.5h-49q-8 0 -8 7v17q0 7 8 7h46q41 0 55.5 13t14.5 40v28q0 26 -15 38.5t-54 12.5q-40 0 -55.5 -12.5t-15.5 -38.5v-6q0 -8 -8 -8h-25q-8 0 -8 8v10q0 80 112 80q111 0 111 -78v-40q0 -25 -10 -39.5t-37 -22.5q52 -13 52 -63v-61
q0 -78 -115 -78q-116 0 -116 80v11q0 8 8 8h26q8 0 8 -8v-7q0 -51 74 -51q40 0 56.5 13t16.5 38z" />
    <glyph glyph-name="four.denominator" unicode="&#xf659;" 
d="M145 366l-76 -213h146v213q0 8 9 8h26q8 0 8 -8v-358q0 -8 -8 -8h-26q-9 0 -9 8v110h-182q-9 0 -9 8v13q0 3 2 11l76 216q3 8 11 8h25q10 0 7 -8z" />
    <glyph glyph-name="five.denominator" unicode="&#xf65a;" 
d="M60 374h188q8 0 8 -8v-18q0 -8 -9 -8h-153v-111h63q54 0 81.5 -20t27.5 -54v-79q0 -80 -112 -80t-112 80v11q0 7 8 7h26q8 0 8 -7v-7q0 -26 15 -39t55 -13t54.5 13t14.5 39v70q0 46 -70 46h-93q-9 0 -9 8v162q0 8 9 8z" />
    <glyph glyph-name="six.denominator" unicode="&#xf65b;" 
d="M42 78v222q0 78 113 78q111 0 111 -78v-8q0 -9 -8 -9h-26q-8 0 -8 9v5q0 48 -69 48q-70 0 -70 -50v-99q17 27 76 27q109 0 109 -78v-67q0 -39 -25 -60.5t-89 -21.5q-114 0 -114 82zM228 81v56q0 27 -15.5 40t-56.5 13q-71 0 -71 -49v-60q0 -26 15.5 -39t55.5 -13t56 13
t16 39z" />
    <glyph glyph-name="seven.denominator" unicode="&#xf65c;" 
d="M41 374h228q9 0 9 -8v-13q0 -5 -3 -12l-139 -333q-3 -8 -11 -8h-31q-9 0 -6 8l141 330h-188q-9 0 -9 9v19q0 8 9 8z" />
    <glyph glyph-name="eight.denominator" unicode="&#xf65d;" 
d="M43 262v35q0 38 23.5 59.5t87.5 21.5t87 -21t23 -60v-35q0 -25 -11 -40.5t-40 -23.5q56 -12 56 -63v-58q0 -81 -115 -81t-115 81v58q0 51 55 63q-51 14 -51 64zM222 266v28q0 26 -14.5 39t-53.5 13q-40 0 -54.5 -13t-14.5 -39v-28q0 -26 14.5 -39t54.5 -13q39 0 53.5 13
t14.5 39zM227 81v49q0 26 -16 39t-57 13t-57 -13t-16 -39v-49q0 -26 16 -39.5t57 -13.5q73 0 73 53z" />
    <glyph glyph-name="nine.denominator" unicode="&#xf65e;" 
d="M266 296v-222q0 -78 -113 -78q-112 0 -112 78v8q0 9 9 9h25q8 0 8 -9v-5q0 -48 70 -48t70 50v99q-17 -27 -76 -27q-110 0 -110 78v67q0 39 25.5 60.5t89.5 21.5q114 0 114 -82zM80 293v-56q0 -27 15.5 -40t56.5 -13q71 0 71 49v60q0 26 -15.5 39t-55.5 13t-56 -13
t-16 -39z" />
    <glyph glyph-name="comma.denominator" unicode="&#xf65f;" horiz-adv-x="147" 
d="M54 18v34q0 8 8 8h25q9 0 9 -8v-36q0 -53 -58 -68q-7 -2 -11 6l-7 16q-4 8 6 11q28 9 28 37z" />
    <glyph glyph-name="period.denominator" unicode="&#xf660;" horiz-adv-x="143" 
d="M92 52v-43q0 -9 -8 -9h-25q-9 0 -9 9v43q0 8 9 8h25q8 0 8 -8z" />
    <glyph glyph-name="zero.numerator" unicode="&#xf661;" 
d="M37 385v216q0 83 117 83q116 0 116 -83v-216q0 -83 -116 -83q-117 0 -117 83zM227 391v204q0 27 -16.5 40t-56.5 13q-41 0 -58 -13t-17 -40v-204q0 -27 17 -40t58 -13q40 0 56.5 13t16.5 40z" />
    <glyph glyph-name="one.numerator" unicode="&#xf662;" 
d="M54 654l120 26q9 2 9 -7v-331h87q8 0 8 -8v-20q0 -8 -8 -8h-217q-8 0 -8 8v20q0 8 8 8h87v296l-86 -21q-8 -1 -8 7v19q0 10 8 11z" />
    <glyph glyph-name="two.numerator" unicode="&#xf663;" 
d="M86 342h175q8 0 8 -8v-20q0 -8 -8 -8h-211q-8 0 -8 8v100q0 44 52 60l95 29q35 11 35 39v56q0 26 -15.5 39t-56.5 13t-57 -13t-16 -39v-25q0 -9 -8 -9h-26q-7 0 -7 9v29q0 82 116 82q113 0 113 -82v-62q0 -27 -16 -43t-36 -22l-95 -30q-18 -5 -26 -12t-8 -23v-68z" />
    <glyph glyph-name="three.numerator" unicode="&#xf664;" 
d="M224 386v51q0 26 -15.5 38.5t-56.5 12.5h-49q-8 0 -8 7v17q0 7 8 7h46q41 0 55.5 13t14.5 40v28q0 26 -15 38.5t-54 12.5q-40 0 -55.5 -12.5t-15.5 -38.5v-6q0 -8 -8 -8h-25q-8 0 -8 8v10q0 80 112 80q111 0 111 -78v-40q0 -25 -10 -39.5t-37 -22.5q52 -13 52 -63v-61
q0 -78 -115 -78q-116 0 -116 80v11q0 8 8 8h26q8 0 8 -8v-7q0 -51 74 -51q40 0 56.5 13t16.5 38z" />
    <glyph glyph-name="four.numerator" unicode="&#xf665;" 
d="M146 672l-76 -213h146v213q0 8 9 8h26q8 0 8 -8v-358q0 -8 -8 -8h-26q-9 0 -9 8v110h-182q-9 0 -9 8v13q0 3 2 11l76 216q3 8 11 8h25q10 0 7 -8z" />
    <glyph glyph-name="five.numerator" unicode="&#xf666;" 
d="M60 680h188q8 0 8 -8v-18q0 -8 -9 -8h-153v-111h63q54 0 81.5 -20t27.5 -54v-79q0 -80 -112 -80t-112 80v11q0 7 8 7h26q8 0 8 -7v-7q0 -26 15 -39t55 -13t54.5 13t14.5 39v70q0 46 -70 46h-93q-9 0 -9 8v162q0 8 9 8z" />
    <glyph glyph-name="six.numerator" unicode="&#xf667;" 
d="M42 384v222q0 78 113 78q111 0 111 -78v-8q0 -9 -8 -9h-26q-8 0 -8 9v5q0 48 -69 48q-70 0 -70 -50v-99q17 27 76 27q109 0 109 -78v-67q0 -39 -25 -60.5t-89 -21.5q-114 0 -114 82zM228 387v56q0 27 -15.5 40t-56.5 13q-71 0 -71 -49v-60q0 -26 15.5 -39t55.5 -13t56 13
t16 39z" />
    <glyph glyph-name="seven.numerator" unicode="&#xf668;" 
d="M41 680h228q9 0 9 -8v-13q0 -5 -3 -12l-139 -333q-3 -8 -11 -8h-31q-9 0 -6 8l141 330h-188q-9 0 -9 9v19q0 8 9 8z" />
    <glyph glyph-name="eight.numerator" unicode="&#xf669;" 
d="M43 568v35q0 38 23.5 59.5t87.5 21.5t87 -21t23 -60v-35q0 -25 -11 -40.5t-40 -23.5q56 -12 56 -63v-58q0 -81 -115 -81t-115 81v58q0 51 55 63q-51 14 -51 64zM222 572v28q0 26 -14.5 39t-53.5 13q-40 0 -54.5 -13t-14.5 -39v-28q0 -26 14.5 -39t54.5 -13q39 0 53.5 13
t14.5 39zM227 387v49q0 26 -16 39t-57 13t-57 -13t-16 -39v-49q0 -26 16 -39.5t57 -13.5q73 0 73 53z" />
    <glyph glyph-name="nine.numerator" unicode="&#xf66a;" 
d="M266 602v-222q0 -78 -113 -78q-112 0 -112 78v8q0 9 9 9h25q8 0 8 -9v-5q0 -48 70 -48t70 50v99q-17 -27 -76 -27q-110 0 -110 78v67q0 39 25.5 60.5t89.5 21.5q114 0 114 -82zM80 599v-56q0 -27 15.5 -40t56.5 -13q71 0 71 49v60q0 26 -15.5 39t-55.5 13t-56 -13
t-16 -39z" />
    <glyph glyph-name="comma.numerator" unicode="&#xf66b;" horiz-adv-x="158" 
d="M61 324v34q0 8 8 8h25q9 0 9 -8v-36q0 -53 -58 -68q-7 -2 -11 6l-7 16q-4 8 6 11q28 9 28 37z" />
    <glyph glyph-name="period.numerator" unicode="&#xf66c;" horiz-adv-x="140" 
d="M91 358v-43q0 -9 -8 -9h-25q-9 0 -9 9v43q0 8 9 8h25q8 0 8 -8z" />
    <glyph glyph-name="commaaccent" unicode="&#xf6c3;" horiz-adv-x="264" 
d="M106 62v27q0 12 12 12h22q12 0 12 -12v-29q0 -53 -37 -114q-5 -9 -16 -6l-17 5q-11 3 -5 16q2 5 7.5 15.5t7 14t5 12t4.5 13t2.5 12.5t2 16t0.5 18z" />
    <glyph glyph-name="apple" unicode="&#xf8ff;" horiz-adv-x="1482" 
d="M69 529v8h1338v-8h-1338zM1213 332l-29 -2v4q0 20 12 20h17l-3 30q24 8 32 8q11 0 11 -8v-29h47v-3q0 -21 -12 -21h-35v-90q0 -15 16 -15q11 0 38.5 5.5t46.5 5.5q17 0 39.5 -6t22.5 -18q0 -14 -9.5 -21t-17.5 -7q-2 0 -26.5 12t-44.5 12q-7 0 -32 -4t-44 -4t-23 12.5
t-5 65.5q0 32 -1 53zM711 320q17 0 28.5 -13.5t11.5 -37.5q0 -68 -87 -68v-40l3 -32q-24 -8 -32 -8q-11 0 -11 8v75l-25 -3v-3q0 -79 -68 -79q-21 0 -31 10.5t-10 23.5q0 36 70 53v42q-17 -48 -46 -48q-28 0 -28 31v3q-19 -33 -53 -33q-29 0 -29 30v101l-29 -2v4q0 20 12 20
h17l-3 30q24 8 32 8q11 0 11 -8v-29h47v-3q0 -21 -12 -21h-35v-86q0 -16 13 -16q9 0 19 8t10 18v25l-3 33q24 8 32 8q11 0 11 -9v-66q0 -15 7 -15q8 0 17.5 17.5t8.5 30.5l-2 34q24 8 31 8q11 0 11 -9v-99l25 3v61l-3 36q24 8 32 8q11 0 11 -9v-40q17 48 47 48zM1172 258
q-16 -6 -44 -6q2 -22 26 -22q17 0 32 9q8 -5 8 -16q0 -4 -2.5 -8.5t-14 -9.5t-30.5 -5q-28 0 -44 14.5t-16 38.5q0 27 18.5 47.5t50.5 20.5q19 0 30 -9.5t11 -21.5q0 -24 -25 -32zM849 258q-16 -6 -44 -6q2 -22 26 -22q17 0 32 9q8 -5 8 -16q0 -4 -2.5 -8.5t-14 -9.5
t-30.5 -5q-28 0 -44 14.5t-16 38.5q0 27 18.5 47.5t50.5 20.5q19 0 30 -9.5t11 -21.5q0 -24 -25 -32zM150 258q-16 -6 -44 -6q2 -22 26 -22q17 0 32 9q8 -5 8 -16q0 -4 -2.5 -8.5t-14 -9.5t-30.5 -5q-28 0 -44 14.5t-16 38.5q0 27 18.5 47.5t50.5 20.5q19 0 30 -9.5
t11 -21.5q0 -24 -25 -32zM380 289v-49l3 -32q-24 -8 -31 -8q-11 0 -11 8v66q0 16 -8 16q-6 0 -16 -17.5t-10 -30.5l2 -34q-24 -8 -31 -8q-11 0 -11 8v66q0 16 -8 16q-7 0 -16.5 -17.5t-9.5 -30.5l3 -34q-24 -8 -32 -8q-11 0 -11 8v69l-3 36q24 8 32 8q11 0 11 -9v-40
q3 9 7.5 19t15 20t22.5 10q29 0 29 -32v-17q14 49 45 49q28 0 28 -32zM1071 289v-49l2 -32q-24 -8 -31 -8q-11 0 -11 8v67q0 15 -8 15q-7 0 -16.5 -17.5t-9.5 -30.5l3 -34q-24 -8 -32 -8q-11 0 -11 8v69l-3 36q24 8 32 8q11 0 11 -9v-40q17 49 45 49q29 0 29 -32zM105 264
q37 0 37 21q0 13 -13 13q-20 0 -24 -34zM1127 264q37 0 37 21q0 13 -13 13q-20 0 -24 -34zM804 264q37 0 37 21q0 13 -13 13q-20 0 -24 -34zM664 219q45 6 45 51q0 20 -13 20t-22.5 -18.5t-9.5 -29.5v-23zM914 250q11 0 18.5 -7t7.5 -17t-7.5 -16.5t-18.5 -6.5t-18 6.5
t-7 16.5t7 17t18 7zM559 194q-41 -9 -41 -32q0 -14 14 -14q25 0 27 46zM69 0v8h1338v-8h-1338z" />
    <glyph glyph-name="ff" unicode="&#xfb00;" horiz-adv-x="597" 
d="M96 491h10v89q0 123 179 123h5q12 0 12 -12v-21q0 -12 -12 -12h-5q-127 0 -127 -83v-84h238v91q0 123 180 123h4q12 0 12 -12v-20q0 -13 -12 -13h-4q-70 0 -98.5 -21.5t-28.5 -61.5v-86h116q11 0 11 -11v-20q0 -12 -11 -12h-116v-436q0 -12 -12 -12h-29q-12 0 -12 12v436
h-238v-436q0 -12 -11 -12h-29q-12 0 -12 12v436h-65q-12 0 -12 12v16q0 12 12 12z" />
    <glyph glyph-name="ffi" unicode="&#xfb03;" horiz-adv-x="822" 
d="M96 491h10v89q0 123 179 123h5q12 0 12 -12v-21q0 -12 -12 -12h-5q-127 0 -127 -83v-84h239v85q0 123 179 123h128q12 0 12 -12v-21q0 -12 -12 -12h-128q-127 0 -127 -83v-80h277q13 0 13 -12v-467q0 -12 -11 -12h-29q-12 0 -12 12v436h-238v-436q0 -12 -12 -12h-28
q-12 0 -12 12v436h-239v-436q0 -12 -11 -12h-29q-12 0 -12 12v436h-65q-12 0 -12 12v16q0 12 12 12z" />
    <glyph glyph-name="ffl" unicode="&#xfb04;" horiz-adv-x="822" 
d="M96 491h10v89q0 123 179 123h5q12 0 12 -12v-21q0 -12 -12 -12h-5q-127 0 -127 -83v-84h238v85q0 123 180 123h150q13 0 13 -12v-675q0 -12 -12 -12h-28q-12 0 -12 12v642h-111q-70 0 -98.5 -21.5t-28.5 -61.5v-80h116q11 0 11 -11v-20q0 -12 -11 -12h-116v-436
q0 -12 -12 -12h-29q-12 0 -12 12v436h-238v-436q0 -12 -12 -12h-28q-12 0 -12 12v436h-65q-12 0 -12 12v16q0 12 12 12z" />
    <glyph glyph-name="zero.tab" unicode="&#xff10;" horiz-adv-x="536" 
d="M69 133v414q0 66 44 103.5t154 37.5q111 0 155 -37.5t44 -103.5v-414q0 -66 -44 -103.5t-155 -37.5q-110 0 -154 37.5t-44 103.5zM413 141v398q0 50 -32 76.5t-114 26.5t-113.5 -26.5t-31.5 -76.5v-398q0 -50 31.5 -76.5t113.5 -26.5t114 26.5t32 76.5z" />
    <glyph glyph-name="one.tab" unicode="&#xff11;" horiz-adv-x="536" 
d="M92 628l208 54q11 2 11 -10v-626h166q12 0 12 -12v-22q0 -12 -12 -12h-386q-11 0 -11 12v22q0 12 11 12h167v579l-166 -45q-11 -3 -11 10v23q0 12 11 15z" />
    <glyph glyph-name="two.tab" unicode="&#xff12;" horiz-adv-x="536" 
d="M134 46h321q11 0 11 -12v-22q0 -12 -11 -12h-363q-12 0 -12 12v186q0 76 89 101l179 53q63 20 63 74v114q0 51 -31 77t-113 26q-81 0 -112 -26.5t-31 -76.5v-49q0 -13 -11 -13h-29q-12 0 -12 13v56q0 66 42.5 103.5t152.5 37.5q111 0 154 -37.5t43 -103.5v-120
q0 -50 -28.5 -78t-59.5 -37l-171 -49q-71 -19 -71 -70v-147z" />
    <glyph glyph-name="three.tab" unicode="&#xff13;" horiz-adv-x="536" 
d="M171 385h88q82 0 110.5 24t28.5 74v60q0 49 -30 74.5t-108 25.5q-79 0 -109 -25.5t-30 -74.5v-13q0 -12 -12 -12h-29q-11 0 -11 12v19q0 65 42 102t149 37t148.5 -36.5t41.5 -101.5v-74q0 -47 -19 -74t-70 -39q55 -12 75 -40t20 -76v-117q0 -65 -43.5 -101.5
t-151.5 -36.5q-109 0 -153 37t-44 102v19q0 12 11 12h29q12 0 12 -12v-13q0 -49 32.5 -74.5t111.5 -25.5q80 0 112 25.5t32 74.5v104q0 50 -28.5 74.5t-110.5 24.5h-94q-12 0 -12 11v22q0 12 12 12z" />
    <glyph glyph-name="four.tab" unicode="&#xff14;" horiz-adv-x="536" 
d="M248 668l-148 -398h288v398q0 12 12 12h30q11 0 11 -12v-656q0 -12 -11 -12h-30q-12 0 -12 12v212h-332q-12 0 -12 12v14q0 12 5 24l145 394q4 12 15 12h30q14 0 9 -12z" />
    <glyph glyph-name="five.tab" unicode="&#xff15;" horiz-adv-x="536" 
d="M106 680h324q13 0 13 -12v-22q0 -12 -13 -12h-283v-225h119q94 0 143 -33t49 -94v-151q0 -67 -40.5 -103t-148.5 -36t-148.5 36t-40.5 103v19q0 12 12 12h29q12 0 12 -12v-13q0 -51 28 -75.5t108 -24.5t108 24.5t28 75.5v138q0 89 -139 89h-160q-12 0 -12 12v292
q0 12 12 12z" />
    <glyph glyph-name="six.tab" unicode="&#xff16;" horiz-adv-x="536" 
d="M78 133v420q0 135 193 135q191 0 191 -135v-16q0 -12 -12 -12h-29q-11 0 -11 12v10q0 96 -139 96q-80 0 -110.5 -26t-30.5 -70v-200q33 55 149 55q106 0 148 -37.5t42 -103.5v-128q0 -66 -42.5 -103.5t-153.5 -37.5q-110 0 -152.5 37.5t-42.5 103.5zM416 139v116
q0 51 -30.5 76.5t-112.5 25.5q-78 0 -110.5 -24t-32.5 -69v-125q0 -50 31 -76t112 -26q82 0 112.5 26t30.5 76z" />
    <glyph glyph-name="seven.tab" unicode="&#xff17;" horiz-adv-x="536" 
d="M64 680h404q11 0 11 -12v-22q0 -5 -2 -11l-260 -623q-5 -12 -15 -12h-35q-13 0 -9 12l261 622h-355q-12 0 -12 12v22q0 12 12 12z" />
    <glyph glyph-name="eight.tab" unicode="&#xff18;" horiz-adv-x="536" 
d="M80 482v65q0 67 39 104t149 37q109 0 148.5 -37t39.5 -104v-65q0 -48 -20.5 -77t-75.5 -41q57 -12 80 -41.5t23 -76.5v-113q0 -66 -42.5 -103.5t-152.5 -37.5t-152.5 37.5t-42.5 103.5v113q0 47 22.5 76.5t78.5 41.5q-53 12 -73.5 41t-20.5 77zM404 489v52
q0 51 -27.5 76.5t-108.5 25.5t-108.5 -25.5t-27.5 -76.5v-52q0 -52 27.5 -77.5t108.5 -25.5t108.5 25.5t27.5 77.5zM410 139v100q0 51 -30.5 77t-111.5 26q-82 0 -112 -26t-30 -77v-100q0 -50 30 -76t112 -26q81 0 111.5 26t30.5 76z" />
    <glyph glyph-name="nine.tab" unicode="&#xff19;" horiz-adv-x="536" 
d="M458 547v-420q0 -135 -192 -135q-191 0 -191 135v16q0 12 11 12h29q11 0 11 -12v-10q0 -96 140 -96q79 0 109 26t30 70v199q-31 -54 -148 -54q-106 0 -148 37.5t-42 103.5v128q0 66 42.5 103.5t153.5 37.5q110 0 152.5 -37.5t42.5 -103.5zM405 541q0 50 -30.5 76
t-111.5 26q-82 0 -113 -26t-31 -76v-116q0 -50 31 -76t113 -26q79 0 110.5 24.5t31.5 70.5v123z" />
    <glyph glyph-name="Lgeminada" horiz-adv-x="956" 
d="M149 668v-622h296q12 0 12 -12v-22q0 -12 -12 -12h-339q-10 0 -10 12v656q0 12 12 12h30q11 0 11 -12zM627 668v-622h296q12 0 12 -12v-22q0 -12 -12 -12h-339q-10 0 -10 12v656q0 12 12 12h30q11 0 11 -12zM388 393v-77q0 -12 -11 -12h-30q-12 0 -12 12v77q0 12 12 12
h30q11 0 11 -12z" />
    <glyph glyph-name="lgeminada" horiz-adv-x="481" 
d="M135 687v-675q0 -12 -11 -12h-29q-12 0 -12 12v675q0 12 12 12h29q11 0 11 -12zM398 687v-675q0 -12 -11 -12h-29q-12 0 -12 12v675q0 12 12 12h29q11 0 11 -12zM267 393v-77q0 -12 -11 -12h-30q-12 0 -12 12v77q0 12 12 12h30q11 0 11 -12z" />
    <glyph glyph-name="acute.case" horiz-adv-x="233" 
d="M211 866l-81 -119q-5 -7 -14 -7h-25q-13 0 -6 11l72 117q7 10 16 10h32q15 0 6 -12z" />
    <glyph glyph-name="grave.case" horiz-adv-x="233" 
d="M136 747l-81 119q-8 12 5 12h32q9 0 16 -11l72 -116q8 -12 -5 -12h-25q-9 0 -14 8z" />
    <glyph glyph-name="hungarumlaut.case" horiz-adv-x="233" 
d="M222 866l-80 -116q-7 -10 -16 -10h-23q-12 0 -5 11l73 115q7 12 18 12h27q15 0 6 -12zM119 866l-64 -115q-6 -11 -16 -11h-22q-14 0 -7 11l58 115q7 12 17 12h26q7 0 9 -4t-1 -8z" />
    <glyph glyph-name="circumflex.case" horiz-adv-x="233" 
d="M116 844l-60 -93q-7 -11 -17 -11h-23q-13 0 -6 11l77 115q9 12 19 12h20q11 0 18 -11l79 -116q7 -11 -7 -11h-23q-10 0 -16 11z" />
    <glyph glyph-name="caron.case" horiz-adv-x="233" 
d="M56 866l60 -92l61 92q7 12 16 12h23q16 0 7 -12l-79 -115q-8 -11 -18 -11h-20q-10 0 -19 12l-77 114q-9 12 6 12h23q10 0 17 -12z" />
    <glyph glyph-name="breve.case" horiz-adv-x="233" 
d="M44 872v-18q0 -36 15 -54.5t58 -18.5t58 19t15 54v18q0 11 11 11h18q11 0 11 -11v-17q0 -53 -26 -81t-88 -28q-63 0 -88 28t-25 81v17q0 11 11 11h19q11 0 11 -11z" />
    <glyph glyph-name="tilde.case" horiz-adv-x="233" 
d="M182 796q19 0 25 11t6 43v9q0 11 13 11h16q11 0 11 -13v-19q0 -83 -69 -83q-26 0 -52 20l-45 36q-21 17 -36 17q-19 0 -25 -10.5t-6 -43.5v-9q0 -11 -13 -11h-17q-10 0 -10 14v19q0 82 68 82q29 0 52 -19l46 -37q23 -17 36 -17z" />
    <glyph glyph-name="macron.case" horiz-adv-x="233" 
d="M-12 820h257q12 0 12 -11v-18q0 -12 -12 -12h-257q-12 0 -12 12v18q0 11 12 11z" />
    <glyph glyph-name="dieresis.case" horiz-adv-x="233" 
d="M88 857v-98q0 -12 -11 -12h-18q-12 0 -12 12v98q0 12 12 12h18q11 0 11 -12zM186 857v-98q0 -12 -11 -12h-18q-12 0 -12 12v98q0 12 12 12h18q11 0 11 -12z" />
    <glyph glyph-name="dotaccent.case" horiz-adv-x="233" 
d="M143 838v-77q0 -12 -12 -12h-29q-12 0 -12 12v77q0 12 12 12h29q12 0 12 -12z" />
    <glyph glyph-name="ring.case" horiz-adv-x="233" 
d="M208 811v-15q0 -33 -22.5 -53t-69.5 -20q-91 0 -91 73v15q0 73 91 73q47 0 69.5 -20t22.5 -53zM174 800v7q0 47 -58 47q-57 0 -57 -47v-7q0 -47 57 -47q58 0 58 47z" />
    </font>
</defs>
</svg>
