<?xml version="1.0" standalone="no"?>
<!DOCTYPE svg PUBLIC "-//W3C//DTD SVG 1.1//EN" "http://www.w3.org/Graphics/SVG/1.1/DTD/svg11.dtd" >
<svg xmlns="http://www.w3.org/2000/svg" xmlns:xlink="http://www.w3.org/1999/xlink" version="1.1">
<metadata>
Created by FontForge 20170731 at Thu Dec 15 23:00:59 2016
 By Aleksey,,,
Copyright (c) 2008-2016 by Eduardo Manso. All rights reserved.
</metadata>
<defs>
<font id="Geogrotesque-LtIt" horiz-adv-x="307" >
  <font-face 
    font-family="Geogrotesque Light"
    font-weight="300"
    font-style="italic"
    font-stretch="normal"
    units-per-em="1000"
    panose-1="0 0 0 0 0 0 0 0 0 0"
    ascent="750"
    descent="-250"
    x-height="493"
    cap-height="680"
    bbox="-178 -218 1416 964"
    underline-thickness="36"
    underline-position="-197"
    slope="-7"
    unicode-range="U+0020-FF19"
  />
<missing-glyph horiz-adv-x="862" 
d="M716 94q-102 -102 -249 -102q-144 0 -246 102q-103 101 -103 247q0 144 103 247q102 102 246 102q147 0 249 -102q103 -103 103 -247q0 -146 -103 -247zM704 106q99 99 99 235t-99 235q-98 98 -237 98q-136 0 -234 -98q-99 -99 -99 -235q0 -137 99 -235q98 -98 234 -98
q139 0 237 98zM592 188l-123 122l-122 -122q-8 -8 -16 0l-15 16q-8 8 0 16l122 122l-121 122q-10 10 -2 17l15 14q9 9 17 1l122 -123l123 122q9 9 17 1l14 -14q10 -10 1 -18l-124 -122l123 -123q8 -8 0 -17l-14 -15q-7 -9 -17 1z" />
    <glyph glyph-name="fi" unicode="fi" horiz-adv-x="529" 
d="M469 479l-58 -467q-1 -12 -12 -12h-29q-12 0 -11 12l54 436h-238l-80 -643q-1 -13 -13 -13h-28q-12 0 -11 13l80 643h-65q-11 0 -10 12l1 16q1 12 13 12l56 3h10l10 85q14 123 191 123h131q11 0 10 -12l-2 -21q-2 -12 -13 -12h-128q-128 0 -138 -83l-9 -80h278
q12 0 11 -12z" />
    <glyph glyph-name="fl" unicode="fl" horiz-adv-x="529" 
d="M494 687l-83 -675q-1 -12 -12 -12h-29q-12 0 -11 12l79 642h-111q-128 0 -138 -83l-9 -80h115q12 0 11 -11l-3 -20q-1 -12 -12 -12h-116l-80 -643q-1 -13 -13 -13h-28q-12 0 -11 13l80 643h-65q-11 0 -10 12l1 16q1 12 13 12l56 3h10l10 85q14 123 191 123h154
q12 0 11 -12z" />
    <glyph glyph-name=".notdef" horiz-adv-x="862" 
d="M716 94q-102 -102 -249 -102q-144 0 -246 102q-103 101 -103 247q0 144 103 247q102 102 246 102q147 0 249 -102q103 -103 103 -247q0 -146 -103 -247zM704 106q99 99 99 235t-99 235q-98 98 -237 98q-136 0 -234 -98q-99 -99 -99 -235q0 -137 99 -235q98 -98 234 -98
q139 0 237 98zM592 188l-123 122l-122 -122q-8 -8 -16 0l-15 16q-8 8 0 16l122 122l-121 122q-10 10 -2 17l15 14q9 9 17 1l122 -123l123 122q9 9 17 1l14 -14q10 -10 1 -18l-124 -122l123 -123q8 -8 0 -17l-14 -15q-7 -9 -17 1z" />
    <glyph glyph-name=".null" horiz-adv-x="0" 
 />
    <glyph glyph-name="nonmarkingreturn" horiz-adv-x="333" 
 />
    <glyph glyph-name="space" unicode=" " horiz-adv-x="232" 
 />
    <glyph glyph-name="exclam" unicode="!" horiz-adv-x="221" 
d="M151 390l-34 -221q-1 -12 -13 -12h-21q-11 0 -10 12l23 221l33 278q1 12 13 12h32q12 0 10 -12zM112 89l-10 -77q-1 -12 -13 -12h-29q-12 0 -11 12l10 77q1 12 13 12h30q12 0 10 -12z" />
    <glyph glyph-name="quotedbl" unicode="&#x22;" horiz-adv-x="320" 
d="M168 668l-26 -173q-2 -13 -13 -13h-20q-11 0 -10 13l16 173q1 12 14 12h29q12 0 10 -12zM296 668l-26 -173q-2 -13 -13 -13h-19q-12 0 -11 13l16 173q1 12 14 12h29q12 0 10 -12z" />
    <glyph glyph-name="numbersign" unicode="#" horiz-adv-x="577" 
d="M170 12q-2 -12 -11 -12h-22q-14 0 -12 12l27 212h-85q-11 0 -11 12v16q0 12 11 12h91l19 153h-85q-12 0 -12 12v16q0 12 12 12h91l27 211q2 12 13 12h21q13 0 11 -12l-27 -211h161l27 211q2 12 12 12h22q13 0 11 -12l-27 -211h86q12 0 12 -12v-16q0 -12 -12 -12h-92
l-19 -153h86q12 0 12 -12v-16q0 -12 -12 -12h-92l-27 -212q-2 -12 -11 -12h-22q-14 0 -12 12l27 212h-161zM203 264h161l19 153h-161z" />
    <glyph glyph-name="dollar" unicode="$" horiz-adv-x="477" 
d="M216 0h-28q-12 0 -11 12l9 74q-69 4 -103.5 30t-34.5 64q0 7 1 16l3 25q1 11 13 11h27q9 0 8 -11l-2 -23q-1 -10 -1 -13q0 -60 118 -60q130 0 138 69l5 43q1 7 1 15q0 32 -55 50l-148 48q-30 9 -50 32t-20 52q0 7 1 15l5 39q13 98 157 105l9 75q2 12 14 12h28
q12 0 10 -12l-10 -75q65 -5 97.5 -31.5t32.5 -63.5q0 -6 -1 -18l-3 -26q-1 -11 -13 -11h-26q-12 0 -10 11l3 23q1 10 1 19q0 25 -28 42t-84 17q-118 0 -128 -68l-4 -30q-1 -8 -1 -12q0 -39 48 -54l152 -47q34 -10 53 -31t19 -48q0 -7 -1 -19l-6 -56q-5 -44 -45.5 -72
t-118.5 -32l-9 -74q-2 -12 -12 -12z" />
    <glyph glyph-name="percent" unicode="%" horiz-adv-x="718" 
d="M582 676l-391 -672q-7 -12 -18 -12h-23q-5 0 -6.5 4t1.5 8l391 672q7 12 18 12h23q12 0 5 -12zM328 599l-24 -188q-5 -38 -32 -60t-92 -22q-56 0 -83 19.5t-27 51.5q0 4 1 11l24 190q5 39 32.5 61t92.5 22q109 0 109 -72q0 -4 -1 -13zM115 417q-1 -7 -1 -9
q0 -22 15.5 -32.5t53.5 -10.5q73 0 79 52l23 178l1 10q0 43 -69 43q-42 0 -59.5 -13t-20.5 -40zM659 265l-24 -186q-5 -39 -32 -61t-92 -22q-110 0 -110 72q0 4 1 11l24 190q11 82 125 82q56 0 82.5 -19.5t26.5 -51.5q0 -5 -1 -15zM468 263l-23 -178q-1 -6 -1 -10
q0 -22 15.5 -32.5t54.5 -10.5t56.5 13t21.5 40l24 178l1 8q0 44 -69 44q-43 0 -60 -12.5t-20 -39.5z" />
    <glyph glyph-name="ampersand" unicode="&#x26;" horiz-adv-x="642" 
d="M493 131q-18 -139 -235 -139q-105 0 -154.5 32.5t-49.5 89.5q0 11 1 18l15 115q6 49 30 76.5t81 39.5q-78 18 -78 89q0 8 2 24l9 74q8 66 52.5 102t152.5 36q177 0 177 -114q0 -10 -1 -21l-2 -23q-1 -12 -13 -12h-29q-12 0 -10 12l2 25v10q0 78 -128 78q-68 0 -106 -22
t-44 -78l-7 -60q-2 -18 -2 -23q0 -38 28.5 -56.5t100.5 -18.5h318q13 0 11 -12l-3 -22q-1 -11 -13 -11h-78zM263 37q167 0 179 100l25 203h-193q-83 0 -114 -24t-38 -75l-13 -103q-1 -8 -1 -15q0 -86 155 -86z" />
    <glyph glyph-name="quotesingle" unicode="'" horiz-adv-x="193" 
d="M168 668l-26 -173q-2 -13 -13 -13h-20q-11 0 -10 13l16 173q1 12 14 12h29q12 0 10 -12z" />
    <glyph glyph-name="parenleft" unicode="(" horiz-adv-x="304" 
d="M33 -91l84 676q8 62 49.5 92.5t138.5 30.5h10q12 0 11 -12l-3 -21q-1 -12 -13 -12h-5q-70 0 -100.5 -21.5t-35.5 -61.5l-82 -665q-1 -6 -1 -17q0 -35 26.5 -53t90.5 -18h4q11 0 10 -12l-2 -21q-1 -12 -13 -12h-5q-84 0 -124.5 28t-40.5 77q0 12 1 22z" />
    <glyph glyph-name="parenright" unicode=")" horiz-adv-x="304" 
d="M259 581l-83 -676q-7 -62 -49.5 -92.5t-139.5 -30.5h-10q-11 0 -10 12l2 21q1 12 13 12h5q126 0 136 83l82 665q2 14 2 19q0 69 -117 69h-5q-11 0 -10 12l3 21q1 12 12 12h5q166 0 166 -108q0 -5 -2 -19z" />
    <glyph glyph-name="asterisk" unicode="*" horiz-adv-x="444" 
d="M212 381l21 131l-122 -74q-12 -8 -16 4l-6 15q-3 10 7 16l121 65l-105 66q-9 5 -3 15l8 14q7 12 18 4l104 -73l13 134q1 12 13 12h16q11 0 10 -12l-21 -134l120 74q11 6 16 -4l7 -14q6 -10 -6 -16l-123 -66l106 -66q8 -5 3 -15l-8 -14q-8 -12 -18 -4l-103 72l-12 -130
q-1 -13 -13 -13h-17q-11 0 -10 13z" />
    <glyph glyph-name="plus" unicode="+" horiz-adv-x="515" 
d="M240 144v173h-172q-12 0 -12 11v22q0 12 12 12h172v173q0 12 12 12h20q12 0 12 -12v-173h175q12 0 12 -12v-22q0 -11 -12 -11h-175v-173q0 -12 -12 -12h-20q-12 0 -12 12z" />
    <glyph glyph-name="comma" unicode="," horiz-adv-x="200" 
d="M43 30l8 59q1 12 13 12h30q12 0 10 -12l-8 -61q-11 -86 -102 -114q-12 -3 -14 7l-5 21q-2 10 9 15q53 21 59 73z" />
    <glyph glyph-name="hyphen" unicode="-" horiz-adv-x="437" 
d="M84 311h268q12 0 12 -11v-21q0 -12 -12 -12h-268q-12 0 -12 12v21q0 11 12 11z" />
    <glyph glyph-name="period" unicode="." horiz-adv-x="198" 
d="M102 89l-10 -77q-1 -12 -12 -12h-30q-11 0 -10 12l9 77q1 12 13 12h30q12 0 10 -12z" />
    <glyph glyph-name="slash" unicode="/" horiz-adv-x="351" 
d="M362 687l-322 -823q-4 -12 -16 -12h-33q-11 0 -6 12l321 823q5 12 15 12h33q12 0 8 -12z" />
    <glyph glyph-name="zero" unicode="0" horiz-adv-x="560" 
d="M62 135l50 412q8 66 55 103.5t159 37.5q185 0 185 -119q0 -14 -1 -24l-50 -412q-8 -66 -55.5 -103.5t-159.5 -37.5q-185 0 -185 117q0 10 2 26zM407 141l49 396q1 9 1 21q0 41 -30.5 62.5t-104.5 21.5q-81 0 -115.5 -26.5t-41.5 -76.5l-49 -394q-2 -16 -2 -24
q0 -40 30.5 -61.5t104.5 -21.5q82 0 116.5 26.5t41.5 76.5z" />
    <glyph glyph-name="one" unicode="1" horiz-adv-x="491" 
d="M111 628l213 54q5 1 8.5 -1.5t2.5 -8.5l-78 -626h166q11 0 10 -12l-2 -22q-1 -12 -13 -12h-385q-11 0 -10 12l2 22q1 12 13 12h166l72 582l-171 -47q-12 -3 -10 11l2 22q1 11 14 14z" />
    <glyph glyph-name="two" unicode="2" horiz-adv-x="533" 
d="M102 46h321q13 0 11 -12l-3 -22q-1 -12 -13 -12h-363q-11 0 -10 12l23 185q10 77 102 103l185 54q66 21 72 73l14 111q0 4 0.5 9t1 7.5t0.5 5.5q0 83 -134 83q-81 0 -115 -26.5t-40 -76.5l-6 -49q-1 -13 -13 -13h-29q-12 0 -10 13l7 56q4 32 15 55.5t33.5 44t63 31
t99.5 10.5q182 0 182 -117q0 -10 -2 -26l-14 -118q-6 -51 -36.5 -78.5t-65.5 -36.5l-177 -50q-20 -6 -32.5 -11t-28.5 -20.5t-19 -37.5z" />
    <glyph glyph-name="three" unicode="3" horiz-adv-x="533" 
d="M183 385h87q82 0 113 23.5t38 74.5l8 60q1 11 1 19q0 40 -29 60.5t-99 20.5q-78 0 -112 -26t-38 -74l-1 -13q-1 -12 -13 -12h-29q-10 0 -10 12l1 19q7 139 208 139q176 0 176 -115q0 -6 -2 -26l-9 -72q-6 -47 -27.5 -73.5t-74.5 -38.5q82 -20 82 -92q0 -9 -2 -27
l-14 -114q-8 -66 -54.5 -102t-156.5 -36q-183 0 -183 118q0 11 1 20l3 20q1 12 13 12h29q12 0 10 -12l-2 -14q-1 -8 -1 -18q0 -81 133 -81q80 0 115 25.5t41 74.5l13 104q2 20 2 23q0 38 -28.5 57t-100.5 19h-93q-13 0 -11 11l2 22q1 12 14 12z" />
    <glyph glyph-name="four" unicode="4" horiz-adv-x="523" 
d="M291 668l-195 -398h286l49 398q1 12 14 12h29q12 0 10 -12l-80 -656q-2 -12 -13 -12h-29q-12 0 -11 12l26 212h-332q-11 0 -10 11l2 20q1 10 5 16l195 397q6 12 17 12h31q13 0 6 -12z" />
    <glyph glyph-name="five" unicode="5" horiz-adv-x="516" 
d="M142 680h324q12 0 11 -12l-3 -22q-1 -12 -12 -12h-283l-29 -225h119q85 0 131.5 -29.5t46.5 -82.5q0 -4 -2 -24l-17 -142q-5 -44 -22 -72t-62.5 -47.5t-120.5 -19.5q-97 0 -135.5 30.5t-38.5 86.5q0 13 1 22l2 19q2 12 12 12h29q11 0 10 -12l-1 -12q-1 -9 -1 -22
q0 -39 27 -59t99 -20q80 0 110.5 24.5t37.5 75.5l16 129q2 20 2 21q0 77 -129 77h-160q-12 0 -11 12l36 292q1 12 13 12z" />
    <glyph glyph-name="six" unicode="6" horiz-adv-x="544" 
d="M62 133l51 420q7 60 52.5 97.5t155.5 37.5q177 0 177 -115q0 -8 -1 -20l-2 -16q-1 -12 -13 -12h-29q-11 0 -10 12l1 10q1 11 1 15q0 81 -129 81q-140 0 -151 -96l-25 -200q38 55 155 55q175 0 175 -117q0 -10 -2 -26l-14 -126q-4 -32 -15 -55.5t-34 -44t-64.5 -31
t-99.5 -10.5q-181 0 -181 116q0 9 2 25zM401 139l14 116q2 16 2 20q0 40 -30.5 61t-103.5 21q-142 0 -153 -93l-14 -122q-2 -18 -2 -23q0 -40 29 -61t102 -21q82 0 116 26t40 76z" />
    <glyph glyph-name="seven" unicode="7" horiz-adv-x="489" 
d="M90 680h403q12 0 11 -12l-2 -20q-1 -6 -5 -14l-336 -622q-7 -12 -16 -12h-36q-13 0 -7 12l336 622h-352q-13 0 -12 12l3 22q1 12 13 12z" />
    <glyph glyph-name="eight" unicode="8" horiz-adv-x="541" 
d="M106 484l8 63q4 33 13.5 55.5t30.5 43.5t60.5 31.5t97.5 10.5q176 0 176 -115q0 -8 -2 -26l-8 -65q-7 -50 -30 -78t-80 -40q89 -20 89 -97q0 -7 -2 -23l-13 -111q-8 -67 -53.5 -104t-157.5 -37q-180 0 -180 117q0 14 1 24l14 113q6 49 31.5 77.5t83.5 40.5q-81 18 -81 93
q0 7 2 27zM431 489l6 52q2 20 2 22q0 40 -27.5 60t-98.5 20q-80 0 -110.5 -25.5t-37.5 -76.5l-7 -52q-1 -10 -1 -23q0 -40 27 -60t98 -20q80 0 111.5 26t37.5 77zM394 139l12 98q1 11 1 22q0 41 -29 62t-102 21q-81 0 -114.5 -26t-39.5 -77l-12 -100q-2 -18 -2 -24
q0 -78 131 -78q82 0 115.5 26t39.5 76z" />
    <glyph glyph-name="nine" unicode="9" horiz-adv-x="543" 
d="M493 547l-51 -420q-7 -61 -51.5 -98t-154.5 -37q-179 0 -179 115q0 10 1 20l2 16q2 12 13 12h29q12 0 10 -12l-1 -10q0 -2 -0.5 -7.5t-0.5 -7.5q0 -81 130 -81q79 0 112 26t38 70l25 200q-40 -55 -155 -55q-176 0 -176 117q0 10 2 26l16 126q9 67 54.5 104t156.5 37
q182 0 182 -116q0 -9 -2 -25zM154 541l-14 -116q-2 -16 -2 -20q0 -40 30 -61t103 -21q143 0 154 93l14 122q2 18 2 23q0 40 -29 61t-102 21q-82 0 -116 -26t-40 -76z" />
    <glyph glyph-name="colon" unicode=":" horiz-adv-x="211" 
d="M155 480l-10 -77q-1 -12 -13 -12h-29q-11 0 -10 12l9 77q1 13 13 13h30q11 0 10 -13zM106 89l-9 -77q-1 -12 -13 -12h-30q-11 0 -10 12l9 77q1 12 14 12h30q11 0 9 -12z" />
    <glyph glyph-name="semicolon" unicode=";" horiz-adv-x="238" 
d="M173 480l-9 -77q-2 -12 -13 -12h-30q-11 0 -10 12l9 77q1 13 14 13h30q10 0 9 -13zM65 30l8 59q1 12 12 12h31q10 0 9 -12l-7 -61q-11 -86 -102 -114q-10 -3 -13 6l-6 22q-3 10 9 15q53 22 59 73z" />
    <glyph glyph-name="less" unicode="&#x3c;" horiz-adv-x="507" 
d="M416 478l-310 -138l310 -137q12 -6 12 -14v-29q0 -14 -12 -9l-351 160q-11 5 -11 13v32q0 9 11 14l351 160q12 5 12 -9v-29q0 -8 -12 -14z" />
    <glyph glyph-name="equal" unicode="=" horiz-adv-x="610" 
d="M110 442h397q11 0 11 -12v-21q0 -12 -11 -12h-397q-12 0 -12 12v21q0 12 12 12zM110 271h397q11 0 11 -12v-21q0 -12 -11 -12h-397q-12 0 -12 12v21q0 12 12 12z" />
    <glyph glyph-name="greater" unicode="&#x3e;" horiz-adv-x="498" 
d="M403 340l-310 138q-12 5 -12 13v30q0 15 12 10l351 -161q11 -5 11 -13v-33q0 -8 -11 -13l-351 -161q-12 -5 -12 10v29q0 9 12 14z" />
    <glyph glyph-name="question" unicode="?" horiz-adv-x="502" 
d="M196 169l11 81q9 65 79 97l67 32q57 29 64 82l10 79q1 9 1 19q0 84 -138 84q-82 0 -119 -26.5t-43 -76.5l-6 -49q-1 -13 -13 -13h-29q-11 0 -10 13l7 56q8 66 56.5 103.5t160.5 37.5q188 0 188 -121q0 -13 -1 -22l-11 -84q-11 -80 -95 -121l-55 -26q-54 -27 -61 -75
l-9 -70q-1 -12 -13 -12h-30q-13 0 -11 12zM240 89l-9 -77q-1 -12 -14 -12h-29q-11 0 -10 12l9 76q1 13 13 13h30q12 0 10 -12z" />
    <glyph glyph-name="at" unicode="@" horiz-adv-x="790" 
d="M531 -113h-185q-165 0 -232 37.5t-67 103.5q0 1 4 37l48 390q9 76 81.5 118.5t252.5 42.5q113 0 181.5 -19.5t93 -49t24.5 -71.5q0 -4 -2 -26l-36 -294q-15 -123 -129 -123q-41 0 -65.5 17t-29.5 48q-85 -65 -169 -65q-104 0 -104 86q0 20 4 36l40 180q13 60 47 92
t101 32q72 0 139 -59l10 39q3 12 14 12h24q13 0 10 -12l-63 -275q-5 -20 -5 -36q0 -25 13.5 -40t39.5 -15q60 0 72 89l36 286q1 7 1 20q0 50 -57 77.5t-194 27.5q-147 0 -209.5 -31t-69.5 -88l-49 -392q-3 -24 -3 -26q0 -52 56.5 -78.5t195.5 -26.5h186q12 0 10 -12l-2 -21
q-2 -11 -13 -11zM290 327l-36 -164q-4 -22 -4 -32q0 -51 74 -51q67 0 143 55q0 3 1.5 10t2.5 10l45 201q-56 56 -119 56q-89 0 -107 -85z" />
    <glyph glyph-name="A" unicode="A" horiz-adv-x="525" 
d="M294 680h31q11 0 13 -12l123 -656q1 -12 -9 -12h-31q-11 0 -14 12l-36 194h-241l-84 -194q-4 -12 -15 -12h-28q-13 0 -8 12l282 656q6 12 17 12zM364 249l-50 268q-8 51 -12 106q-20 -65 -36 -104l-118 -270h216z" />
    <glyph glyph-name="B" unicode="B" horiz-adv-x="578" 
d="M270 0h-197q-12 0 -11 12l80 656q2 12 14 12h168q194 0 194 -120q0 -12 -1 -21l-8 -65q-11 -92 -110 -119q108 -22 108 -107q0 -11 -1 -20l-11 -90q-8 -65 -59.5 -101.5t-165.5 -36.5zM320 635h-128l-33 -262h140q145 0 157 101l7 59q1 8 1 18q0 84 -144 84zM309 330
h-155l-35 -285h154q158 0 170 101l9 79q1 8 1 18q0 87 -144 87z" />
    <glyph glyph-name="C" unicode="C" horiz-adv-x="549" 
d="M481 198l-7 -65q-14 -141 -221 -141q-190 0 -190 119q0 8 2 24l50 412q8 66 57 103.5t163 37.5q190 0 190 -120q0 -13 -1 -23l-7 -50q-1 -13 -12 -13h-29q-12 0 -10 13l5 42q1 6 1 19q0 86 -140 86q-83 0 -120 -26.5t-44 -76.5l-49 -396q-1 -8 -1 -20q0 -85 139 -85
q156 0 166 103l6 57q1 11 13 11h29q12 0 10 -11z" />
    <glyph glyph-name="D" unicode="D" horiz-adv-x="599" 
d="M272 0h-200q-12 0 -10 12l80 656q2 12 13 12h195q103 0 149.5 -33.5t46.5 -88.5q0 -10 -2 -24l-48 -393q-18 -141 -224 -141zM347 634h-155l-73 -588h156q157 0 169 103l46 379q2 16 2 19q0 87 -145 87z" />
    <glyph glyph-name="E" unicode="E" horiz-adv-x="523" 
d="M426 0h-354q-12 0 -10 12l80 656q2 12 14 12h341q12 0 11 -12l-3 -22q-1 -12 -14 -12h-299l-31 -254h281q11 0 10 -12l-2 -21q-2 -12 -13 -12h-282l-36 -289h312q12 0 11 -12l-3 -22q-1 -12 -13 -12z" />
    <glyph glyph-name="F" unicode="F" horiz-adv-x="534" 
d="M156 680h367q12 0 11 -12l-3 -22q-1 -12 -13 -12h-326l-32 -256h307q12 0 11 -12l-3 -22q-1 -12 -13 -12h-307l-40 -320q-1 -12 -12 -12h-30q-13 0 -11 12l80 656q2 12 14 12z" />
    <glyph glyph-name="G" unicode="G" horiz-adv-x="568" 
d="M301 319h183q13 0 11 -12l-21 -174q-16 -141 -221 -141q-189 0 -189 118q0 15 1 25l50 412q8 66 57 103.5t163 37.5q190 0 190 -121q0 -12 -1 -23l-6 -47q-2 -12 -13 -12h-28q-13 0 -11 12l5 42q1 9 1 18q0 85 -140 85q-82 0 -120 -27t-44 -76l-49 -396q-1 -10 -1 -20
q0 -85 139 -85q152 0 165 101l17 134h-143q-12 0 -11 12l2 22q1 12 14 12z" />
    <glyph glyph-name="H" unicode="H" horiz-adv-x="610" 
d="M196 668l-35 -282h312l34 282q1 12 14 12h30q11 0 9 -12l-80 -656q-2 -12 -12 -12h-30q-12 0 -11 12l40 328h-311l-41 -328q-1 -12 -12 -12h-30q-13 0 -11 12l80 656q2 12 14 12h30q12 0 10 -12z" />
    <glyph glyph-name="I" unicode="I" horiz-adv-x="246" 
d="M196 668l-81 -656q-1 -12 -12 -12h-30q-13 0 -11 12l80 656q2 12 14 12h30q12 0 10 -12z" />
    <glyph glyph-name="J" unicode="J" horiz-adv-x="492" 
d="M69 174l-4 -32q-2 -16 -2 -23q0 -39 27.5 -60t93.5 -21q74 0 104.5 26t37.5 77l66 527q2 12 12 12h30q12 0 11 -12l-66 -535q-9 -67 -52 -104t-147 -37q-170 0 -170 118q0 9 2 27l5 37q1 12 13 12h29q11 0 10 -12z" />
    <glyph glyph-name="K" unicode="K" horiz-adv-x="538" 
d="M236 344l248 -332q3 -4 0.5 -8t-7.5 -4h-40q-9 0 -18 12l-230 308h-36l-38 -308q-1 -12 -12 -12h-30q-12 0 -11 12l80 656q1 12 14 12h30q12 0 10 -12l-38 -307h32l283 308q11 11 21 11h37q14 0 4 -12z" />
    <glyph glyph-name="L" unicode="L" horiz-adv-x="476" 
d="M196 668l-77 -622h296q11 0 10 -12l-2 -22q-1 -12 -13 -12h-339q-11 0 -9 12l80 656q2 12 14 12h30q12 0 10 -12z" />
    <glyph glyph-name="M" unicode="M" horiz-adv-x="720" 
d="M670 668l-80 -656q-2 -12 -12 -12h-29q-13 0 -11 12l68 554q-14 -35 -24 -53l-214 -397q-6 -12 -17 -12h-27q-12 0 -15 12l-120 404q-6 22 -9 45l-68 -553q-2 -12 -12 -12h-27q-13 0 -11 12l80 656q2 12 13 12h26q9 0 10 -7l141 -467q10 -36 12 -47q9 22 22 46l253 469
q3 6 12 6h30q11 0 9 -12z" />
    <glyph glyph-name="N" unicode="N" horiz-adv-x="608" 
d="M558 668l-80 -656q-2 -12 -13 -12h-25q-8 0 -11 6l-224 509q-8 17 -23 61l-70 -564q-2 -12 -13 -12h-27q-12 0 -10 12l80 656q1 12 14 12h24q8 0 10 -5l226 -513q14 -30 23 -57l69 563q2 12 13 12h27q12 0 10 -12z" />
    <glyph glyph-name="O" unicode="O" horiz-adv-x="587" 
d="M65 135l50 412q16 141 225 141q194 0 194 -122q0 -9 -1 -21l-50 -412q-16 -141 -226 -141q-193 0 -193 120q0 12 1 23zM430 141l49 396q1 6 1 18q0 87 -145 87q-153 0 -167 -103l-49 -396q-1 -6 -1 -18q0 -87 144 -87q154 0 168 103z" />
    <glyph glyph-name="P" unicode="P" horiz-adv-x="566" 
d="M301 269h-154l-32 -257q-1 -12 -12 -12h-30q-13 0 -11 12l80 656q2 12 13 12h194q193 0 193 -126q0 -12 -1 -23l-15 -125q-8 -66 -59 -101.5t-166 -35.5zM345 634h-153l-39 -319h152q85 0 124 25t45 74l14 111q1 8 1 19q0 90 -144 90z" />
    <glyph glyph-name="Q" unicode="Q" horiz-adv-x="587" 
d="M421 -169q-9 -9 -16 -1l-154 162q-188 3 -188 120q0 7 2 23l50 412q16 141 225 141q194 0 194 -122q0 -14 -1 -21l-50 -412q-14 -121 -170 -138l127 -131q7 -8 -1 -16zM430 141l49 396q1 9 1 18q0 87 -145 87q-153 0 -167 -103l-49 -396q-1 -6 -1 -18q0 -87 144 -87
q154 0 168 103z" />
    <glyph glyph-name="R" unicode="R" horiz-adv-x="584" 
d="M115 12q-1 -12 -12 -12h-30q-12 0 -11 12l80 656q3 12 13 12h193q102 0 148 -34.5t46 -92.5q0 -10 -1 -21l-13 -113q-14 -109 -144 -131l102 -276q3 -12 -12 -12h-29q-12 0 -16 12l-99 271q-9 -1 -28 -1h-154zM345 634h-153l-38 -307h153q156 0 169 99l12 99q1 10 1 18
q0 91 -144 91z" />
    <glyph glyph-name="S" unicode="S" horiz-adv-x="548" 
d="M448 498l5 43q1 10 1 18q0 84 -138 84q-152 0 -162 -101l-4 -40q-1 -10 -1 -14q0 -46 54 -68l181 -73q87 -36 87 -112q0 -8 -1 -18l-9 -84q-14 -141 -224 -141q-193 0 -193 121q0 13 1 22l6 50q1 13 13 13h29q12 0 11 -13l-6 -44q-1 -9 -1 -19q0 -85 143 -85
q155 0 168 102l9 73q1 9 1 13q0 48 -72 78l-169 68q-36 14 -58.5 42t-22.5 65q0 9 1 18l6 51q8 66 56 103.5t161 37.5q186 0 186 -120q0 -11 -1 -21l-5 -49q-2 -12 -13 -12h-29q-11 0 -10 12z" />
    <glyph glyph-name="T" unicode="T" horiz-adv-x="486" 
d="M82 680h415q12 0 11 -12l-2 -22q-1 -12 -13 -12h-182l-77 -622q-2 -12 -12 -12h-30q-12 0 -11 12l77 622h-181q-12 0 -11 12l3 22q1 12 13 12z" />
    <glyph glyph-name="U" unicode="U" horiz-adv-x="603" 
d="M192 668l-64 -521q-2 -20 -2 -22q0 -87 144 -87q155 0 169 103l65 527q2 12 12 12h30q12 0 11 -12l-66 -535q-18 -141 -225 -141q-194 0 -194 122q0 9 2 23l65 531q1 12 13 12h30q11 0 10 -12z" />
    <glyph glyph-name="V" unicode="V" horiz-adv-x="526" 
d="M212 0q-12 0 -14 12l-123 656q-3 12 11 12h32q10 0 13 -12l94 -505q8 -46 10 -95q15 48 34 93l219 507q4 12 16 12h30q13 0 8 -12l-283 -656q-6 -12 -16 -12h-31z" />
    <glyph glyph-name="W" unicode="W" horiz-adv-x="809" 
d="M480 668l67 -506q4 -35 6 -74q9 29 25 74l191 506q5 12 16 12h27q12 0 8 -12l-247 -656q-5 -12 -16 -12h-30q-13 0 -14 12l-66 514q-5 43 -6 65q-9 -35 -21 -66l-194 -513q-4 -12 -16 -12h-30q-12 0 -14 12l-86 656q-1 12 12 12h30q10 0 12 -12l67 -506q3 -18 6 -71
q17 48 26 71l191 506q4 12 15 12h28q11 0 13 -12z" />
    <glyph glyph-name="X" unicode="X" horiz-adv-x="522" 
d="M297 344l157 -332q6 -12 -8 -12h-34q-12 0 -17 12l-135 285l-201 -285q-8 -12 -19 -12h-33q-14 0 -5 13l235 333l-151 321q-6 13 7 13h35q11 0 16 -12l132 -277l192 277q8 12 19 12h34q13 0 4 -12z" />
    <glyph glyph-name="Y" unicode="Y" horiz-adv-x="515" 
d="M129 668l123 -308q8 -21 10 -34q9 20 18 34l201 308q9 12 16 12h32q15 0 7 -12l-252 -386l-34 -270q-1 -12 -13 -12h-29q-12 0 -11 12l32 264l-157 392q-4 12 10 12h33q9 0 14 -12z" />
    <glyph glyph-name="Z" unicode="Z" horiz-adv-x="473" 
d="M112 680h347q11 0 10 -12l-2 -22q0 -4 -5 -12l-392 -588h326q12 0 11 -12l-3 -22q-1 -12 -12 -12h-381q-12 0 -11 11l2 21q1 8 8 17l389 585h-293q-12 0 -11 12l3 22q1 12 14 12z" />
    <glyph glyph-name="bracketleft" unicode="[" horiz-adv-x="308" 
d="M22 -199l110 886q1 12 13 12h174q11 0 10 -12l-2 -22q-1 -12 -13 -12h-133l-102 -818h134q11 0 10 -12l-2 -22q-1 -12 -13 -12h-175q-12 0 -11 12z" />
    <glyph glyph-name="backslash" unicode="\" horiz-adv-x="348" 
d="M205 -136l-119 823q-2 12 10 12h30q13 0 14 -12l118 -822q2 -13 -10 -13h-30q-12 0 -13 12z" />
    <glyph glyph-name="bracketright" unicode="]" horiz-adv-x="308" 
d="M273 687l-109 -886q-1 -12 -13 -12h-174q-12 0 -11 12l3 22q1 12 13 12h133l101 818h-133q-11 0 -10 12l2 22q1 12 13 12h174q12 0 11 -12z" />
    <glyph glyph-name="asciicircum" unicode="^" horiz-adv-x="484" 
d="M387 317l-138 310l-138 -310q-5 -12 -13 -12h-29q-14 0 -9 12l160 352q6 11 13 11h32q7 0 13 -11l161 -352q5 -12 -9 -12h-29q-9 0 -14 12z" />
    <glyph glyph-name="underscore" unicode="_" horiz-adv-x="384" 
d="M-36 -88h357q11 0 11 -11v-21q0 -12 -11 -12h-357q-12 0 -12 12v21q0 11 12 11z" />
    <glyph glyph-name="grave" unicode="`" horiz-adv-x="336" 
d="M254 577l-66 119q-6 12 8 12h30q10 0 15 -10l56 -117q5 -11 -6 -11h-23q-10 0 -14 7z" />
    <glyph glyph-name="a" unicode="a" horiz-adv-x="520" 
d="M355 53q-85 -61 -180 -61q-61 0 -92.5 27.5t-31.5 74.5q0 13 1 21l33 263q15 123 151 123q97 0 167 -62l7 41q3 13 14 13h25q11 0 10 -13l-58 -468q-1 -12 -13 -12h-26q-11 0 -10 12zM136 371l-32 -250q-1 -5 -1 -14q0 -68 90 -68q85 0 167 59l37 296q-70 60 -153 60
q-49 0 -76 -23t-32 -60z" />
    <glyph glyph-name="b" unicode="b" horiz-adv-x="520" 
d="M84 0h-25q-12 0 -10 12l82 675q1 12 14 12h29q11 0 9 -12l-29 -247q82 61 178 61q61 0 93 -28t32 -77q0 -10 -1 -18l-33 -263q-15 -123 -152 -123q-95 0 -167 61l-6 -41q-2 -12 -14 -12zM372 121l31 250q1 6 1 14q0 69 -89 69q-85 0 -168 -60l-36 -296q66 -59 153 -59
q97 0 108 82z" />
    <glyph glyph-name="c" unicode="c" horiz-adv-x="478" 
d="M274 501q161 0 161 -105q0 -9 -1 -20l-2 -18q-1 -12 -12 -12h-27q-13 0 -11 11l2 17q1 8 1 16q0 67 -114 67q-69 0 -99.5 -21.5t-35.5 -61.5l-31 -251q-2 -14 -2 -20q0 -67 115 -67q70 0 99 21t36 61l4 25q1 12 13 12h26q12 0 10 -12l-3 -28q-7 -59 -49.5 -91t-140.5 -32
q-162 0 -162 103q0 9 1 20l32 262q7 60 50 92t140 32z" />
    <glyph glyph-name="d" unicode="d" horiz-adv-x="519" 
d="M355 53q-85 -61 -180 -61q-61 0 -93 27.5t-32 72.5q0 7 2 23l33 263q15 123 150 123q95 0 167 -61l30 247q2 12 13 12h29q12 0 10 -12l-83 -675q-1 -12 -13 -12h-26q-12 0 -10 12zM136 371l-31 -248q-1 -10 -1 -18q0 -30 22 -48t67 -18q85 0 167 59l36 296
q-67 60 -152 60q-50 0 -76.5 -23t-31.5 -60z" />
    <glyph glyph-name="e" unicode="e" horiz-adv-x="494" 
d="M438 377l-16 -124q-2 -11 -12 -11h-292l-15 -121q-1 -7 -1 -17q0 -34 26.5 -52t90.5 -18q127 0 137 82l3 23q1 12 14 12h25q12 0 10 -12l-3 -24q-7 -59 -50 -91t-140 -32q-165 0 -165 105q0 8 1 18l33 262q7 60 50.5 92t140.5 32q164 0 164 -105q0 -10 -1 -19zM135 376
l-12 -94h253l12 91q1 8 1 16q0 70 -117 70q-127 0 -137 -83z" />
    <glyph glyph-name="f" unicode="f" horiz-adv-x="305" 
d="M128 491l11 89q15 123 193 123h7q11 0 10 -12l-2 -21q-1 -12 -14 -12h-5q-128 0 -138 -83l-10 -84h116q12 0 11 -11l-2 -20q-1 -12 -13 -12h-116l-80 -643q-1 -13 -13 -13h-29q-11 0 -10 13l80 643h-65q-12 0 -11 12l1 16q1 12 14 12l55 3h10z" />
    <glyph glyph-name="g" unicode="g" horiz-adv-x="520" 
d="M176 -8q-62 0 -93.5 28t-31.5 76q0 10 1 19l33 263q15 123 151 123q97 0 167 -62l7 41q3 13 13 13h26q12 0 10 -13l-69 -564q-7 -60 -51.5 -92t-142.5 -32h-135q-13 0 -11 12l3 21q1 12 13 12h135q127 0 137 83l16 132q-83 -60 -178 -60zM136 371l-31 -247q-1 -5 -1 -17
q0 -68 89 -68q85 0 167 59l37 296q-70 60 -153 60q-50 0 -76.5 -23t-31.5 -60z" />
    <glyph glyph-name="h" unicode="h" horiz-adv-x="526" 
d="M183 687l-30 -247q81 61 179 61q61 0 93 -28t32 -75q0 -7 -1 -17l-45 -369q-1 -12 -14 -12h-28q-11 0 -10 12l43 359q1 5 1 14q0 69 -89 69q-88 0 -167 -60l-46 -382q-1 -12 -13 -12h-29q-11 0 -10 12l82 675q1 12 14 12h29q10 0 9 -12z" />
    <glyph glyph-name="i" unicode="i" horiz-adv-x="219" 
d="M183 687l-11 -95q-2 -12 -13 -12h-29q-12 0 -10 12l11 95q1 12 14 12h29q10 0 9 -12zM159 480l-58 -468q-1 -12 -13 -12h-29q-11 0 -10 12l58 468q2 13 12 13h29q12 0 11 -13z" />
    <glyph glyph-name="j" unicode="j" horiz-adv-x="219" 
d="M184 687l-12 -95q-2 -12 -12 -12h-29q-13 0 -11 12l12 95q2 12 13 12h29q12 0 10 -12zM159 480l-70 -564q-7 -60 -51 -92t-140 -32h-7q-11 0 -10 12l2 21q1 12 13 12h5q126 0 136 83l70 560q2 13 13 13h29q12 0 10 -13z" />
    <glyph glyph-name="k" unicode="k" horiz-adv-x="454" 
d="M88 0h-29q-11 0 -10 12l82 675q1 12 14 12h29q10 0 9 -12l-47 -389h32l204 183q12 12 21 12h37q7 0 8.5 -4.5t-3.5 -8.5l-223 -201l191 -267q3 -4 1 -8t-8 -4h-35q-9 0 -18 12l-175 245h-37l-30 -245q-1 -12 -13 -12z" />
    <glyph glyph-name="l" unicode="l" horiz-adv-x="219" 
d="M183 687l-82 -675q-1 -12 -13 -12h-29q-11 0 -10 12l82 675q1 12 14 12h29q10 0 9 -12z" />
    <glyph glyph-name="m" unicode="m" horiz-adv-x="824" 
d="M49 12l58 469q0 12 12 12h26q10 0 10 -12l-3 -41q77 61 174 61q100 0 120 -69q88 69 184 69q60 0 92.5 -28t32.5 -74q0 -9 -1 -18l-45 -369q-1 -12 -13 -12h-29q-13 0 -10 12l44 357q1 10 1 15q0 32 -22 51t-67 19q-85 0 -163 -60q0 -14 -1 -23l-44 -359q-3 -12 -13 -12
h-29q-11 0 -10 12l43 353q2 14 2 19q0 70 -89 70q-86 0 -162 -60l-46 -382q-1 -12 -13 -12h-29q-11 0 -10 12z" />
    <glyph glyph-name="n" unicode="n" horiz-adv-x="526" 
d="M119 493h26q13 0 11 -12l-4 -42q83 62 180 62q61 0 93 -28t32 -75q0 -12 -1 -19l-45 -367q-1 -12 -14 -12h-28q-11 0 -10 12l44 357q1 5 1 15q0 70 -89 70t-168 -60l-46 -382q-1 -12 -13 -12h-29q-11 0 -10 12l58 469q1 12 12 12z" />
    <glyph glyph-name="o" unicode="o" horiz-adv-x="507" 
d="M51 115l32 262q15 124 196 124q167 0 167 -106q0 -10 -1 -18l-32 -262q-15 -123 -195 -123q-168 0 -168 106q0 10 1 17zM361 119l32 255q1 6 1 12q0 71 -120 71q-129 0 -139 -83l-32 -255q-1 -6 -1 -13q0 -70 120 -70q129 0 139 83z" />
    <glyph glyph-name="p" unicode="p" horiz-adv-x="519" 
d="M119 493h26q11 0 10 -13l-4 -41q89 62 181 62q61 0 93 -28t32 -76q0 -9 -1 -19l-33 -263q-15 -123 -151 -123q-97 0 -167 60l-30 -247q-1 -13 -13 -13h-28q-12 0 -11 13l83 675q1 13 13 13zM371 121l31 249q1 7 1 15q0 69 -88 69q-87 0 -167 -60l-37 -296q66 -59 153 -59
q96 0 107 82z" />
    <glyph glyph-name="q" unicode="q" horiz-adv-x="520" 
d="M423 493h26q12 0 10 -13l-83 -675q-1 -13 -13 -13h-29q-12 0 -10 13l30 247q-83 -60 -178 -60q-62 0 -93.5 28t-31.5 77q0 8 1 18l33 263q15 123 151 123q97 0 167 -62l7 41q3 13 13 13zM136 371l-31 -247q-1 -7 -1 -16q0 -69 89 -69q85 0 167 59l37 296q-70 60 -153 60
q-50 0 -76.5 -23t-31.5 -60z" />
    <glyph glyph-name="r" unicode="r" horiz-adv-x="336" 
d="M328 500q14 0 12 -12l-3 -25q-1 -11 -14 -11q-48 -1 -97 -23.5t-80 -45.5l-45 -371q-1 -12 -13 -12h-29q-11 0 -10 12l58 469q1 12 12 12h26q13 0 11 -12l-5 -54q93 73 177 73z" />
    <glyph glyph-name="s" unicode="s" horiz-adv-x="470" 
d="M362 361l3 23q1 9 1 19q0 25 -28 42t-84 17q-118 0 -128 -68l-4 -30q-1 -7 -1 -12q0 -39 48 -54l152 -47q34 -10 53 -31t19 -48q0 -9 -1 -19l-6 -56q-5 -47 -51.5 -76t-137.5 -29q-81 0 -122.5 26.5t-41.5 66.5q0 8 1 18l3 25q1 11 13 11h27q9 0 8 -11l-2 -22
q-1 -11 -1 -16q0 -26 30.5 -42t87.5 -16q130 0 138 69l5 43q1 10 1 15q0 32 -55 50l-148 48q-30 9 -50 32t-20 52q0 7 1 15l5 39q13 106 180 106q79 0 118.5 -27.5t39.5 -68.5q0 -6 -1 -18l-3 -26q-1 -11 -13 -11h-26q-12 0 -10 11z" />
    <glyph glyph-name="t" unicode="t" horiz-adv-x="320" 
d="M171 448l-39 -318q-1 -9 -1 -18q0 -34 26.5 -50.5t90.5 -16.5h15q13 0 11 -12l-2 -21q-1 -12 -14 -12h-22q-85 0 -121.5 26t-36.5 75q0 11 1 22l40 325h-63q-12 0 -10 12l1 16q1 12 14 12l62 3h1l14 108q1 13 13 13h29q12 0 10 -13l-14 -108h119q12 0 10 -11l-2 -21
q-1 -11 -14 -11h-118z" />
    <glyph glyph-name="u" unicode="u" horiz-adv-x="520" 
d="M353 12l3 40q-78 -60 -173 -60q-61 0 -93.5 28t-32.5 74q0 8 1 17l46 369q1 13 13 13h29q11 0 10 -13l-45 -358q-1 -8 -1 -15q0 -68 90 -68q83 0 161 59l47 382q1 13 13 13h29q11 0 10 -13l-58 -468q-2 -12 -12 -12h-26q-12 0 -11 12z" />
    <glyph glyph-name="v" unicode="v" horiz-adv-x="437" 
d="M198 0h-32q-8 0 -11 11l-103 469q-2 13 11 13h30q9 0 12 -13l78 -360q3 -11 8 -53q17 48 19 52l169 361q7 13 15 13h28q16 0 9 -13l-218 -469q-5 -11 -15 -11z" />
    <glyph glyph-name="w" unicode="w" horiz-adv-x="661" 
d="M620 493h25q6 0 8.5 -4t0.5 -9l-192 -469q-4 -11 -14 -11h-33q-10 0 -11 11l-51 366q-2 17 -5 47q-7 -24 -17 -48l-149 -365q-4 -11 -15 -11h-34q-10 0 -11 11l-65 469q-2 13 11 13h29q10 0 12 -13l52 -371q4 -23 5 -40q5 20 12 40l148 371q5 13 16 13h33q10 0 12 -13
l52 -374q2 -10 4 -36q7 23 12 36l149 374q5 13 16 13z" />
    <glyph glyph-name="x" unicode="x" horiz-adv-x="455" 
d="M105 493q8 0 15 -13l110 -192l151 192q9 13 20 13h32q6 0 6.5 -4.5t-3.5 -8.5l-185 -231l133 -236q2 -3 2 -6t-2 -5t-7 -2h-32q-10 0 -16 12l-114 200l-159 -200q-10 -12 -20 -12h-31q-6 0 -7.5 4t2.5 8l194 239l-130 229q-6 13 7 13h34z" />
    <glyph glyph-name="y" unicode="y" horiz-adv-x="438" 
d="M431 480l-314 -676q-5 -12 -14 -12h-24q-15 0 -9 12l89 194l-107 482q-3 13 11 13h30q9 0 12 -13l79 -361q4 -19 8 -52q7 23 20 51l167 362q7 13 16 13h27q16 0 9 -13z" />
    <glyph glyph-name="z" unicode="z" horiz-adv-x="423" 
d="M87 493h299q12 0 10 -11l-2 -20q0 -1 -6 -13l-317 -405h272q12 0 11 -12l-2 -20q-1 -12 -14 -12h-324q-12 0 -11 12l3 20q2 8 5 12l317 405h-247q-11 0 -10 12l2 20q1 12 14 12z" />
    <glyph glyph-name="braceleft" unicode="{" horiz-adv-x="367" 
d="M152 354l28 231q15 123 191 123h8q12 0 10 -12l-2 -21q-1 -12 -13 -12h-5q-70 0 -100.5 -21.5t-35.5 -61.5l-29 -230q-10 -83 -98 -102q75 -16 75 -84q0 -3 -0.5 -7.5t-1.5 -10.5t-1 -9l-27 -218q-2 -14 -2 -23q0 -69 117 -69h5q12 0 10 -12l-3 -21q-1 -12 -12 -12h-4
q-167 0 -167 107q0 13 2 27l27 217q3 24 3 25q0 68 -108 68h-1q-12 0 -10 12l2 21q2 12 13 12h2q117 0 127 83z" />
    <glyph glyph-name="bar" unicode="|" horiz-adv-x="262" 
d="M151 687v-886q0 -12 -11 -12h-30q-12 0 -12 12v886q0 12 12 12h30q11 0 11 -12z" />
    <glyph glyph-name="braceright" unicode="}" horiz-adv-x="367" 
d="M258 576l-26 -214q-2 -12 -2 -22q0 -69 107 -69h1q12 0 10 -12l-2 -21q-1 -12 -13 -12h-1q-117 0 -127 -83l-30 -238q-15 -123 -191 -123h-7q-13 0 -11 12l2 21q2 12 14 12h5q126 0 136 83l29 237q10 83 99 101q-75 16 -75 85q0 14 2 28l27 213q2 14 2 21q0 68 -117 68
h-5q-12 0 -10 12l2 21q1 12 13 12h5q165 0 165 -107q0 -9 -2 -25z" />
    <glyph glyph-name="asciitilde" unicode="~" horiz-adv-x="468" 
d="M184 280q-22 12 -36 12q-19 0 -25.5 -9t-6.5 -34v-20q0 -11 -13 -11h-16q-10 0 -10 14v21q0 84 67 84q21 0 49 -15l84 -46q24 -14 41 -14q19 0 25 9t6 35v19q0 11 12 11h17q10 0 10 -13v-22q0 -84 -65 -84q-26 0 -55 16z" />
    <glyph glyph-name="uni00A0" unicode="&#xa0;" horiz-adv-x="232" 
 />
    <glyph glyph-name="exclamdown" unicode="&#xa1;" horiz-adv-x="213" 
d="M94 404l10 77q1 12 13 12h29q12 0 11 -12l-10 -77q-1 -12 -13 -12h-30q-12 0 -10 12zM55 103l34 221q1 12 13 12h21q11 0 10 -12l-23 -221l-33 -278q-1 -12 -13 -12h-32q-12 0 -10 12z" />
    <glyph glyph-name="cent" unicode="&#xa2;" horiz-adv-x="489" 
d="M241 12q-1 -12 -12 -12h-29q-12 0 -11 12l10 74q-137 7 -137 103q0 10 1 19l32 262q7 56 44.5 87.5t121.5 35.5l9 75q2 12 13 12h29q12 0 10 -12l-9 -75q133 -8 133 -104q0 -8 -1 -20l-2 -18q-1 -12 -12 -12h-27q-13 0 -11 11l2 17q1 10 1 16q0 67 -114 67
q-69 0 -99.5 -21.5t-35.5 -61.5l-31 -251q-1 -12 -1 -20q0 -67 114 -67q70 0 99 21t36 62l4 24q1 12 13 12h26q11 0 10 -12l-3 -28q-6 -54 -43 -86t-120 -36z" />
    <glyph glyph-name="sterling" unicode="&#xa3;" horiz-adv-x="596" 
d="M191 364h167q12 0 10 -11l-2 -21q-1 -12 -14 -12h-166l-34 -275h208q47 0 80 26t33 91v7q0 12 13 12h27q10 0 10 -12v-5q0 -164 -157 -164h-332q-12 0 -10 12l2 21q1 12 13 12h59l35 275h-60q-11 0 -10 12l3 21q1 11 13 11h59l23 190q8 67 51.5 100.5t154.5 33.5
q97 0 137 -28t40 -81q0 -7 -2 -25l-3 -27q-1 -12 -13 -12h-28q-12 0 -10 13l3 19q1 9 1 23q0 37 -28.5 54.5t-100.5 17.5q-81 0 -111.5 -22.5t-37.5 -72.5z" />
    <glyph glyph-name="currency" unicode="&#xa4;" horiz-adv-x="632" 
d="M76 96q-10 -10 -18 -1l-10 12q-6 9 2 17l107 95q-17 26 -12 67l14 108q5 40 28 68l-83 95q-7 9 2 17l13 11q10 9 17 0l84 -97q45 24 121 24q79 0 118 -25l110 98q9 7 16 0l11 -11q8 -8 -3 -17l-107 -96q17 -25 12 -67l-13 -108q-5 -40 -27 -68l82 -94q6 -8 -3 -17
l-12 -12q-9 -9 -17 1l-84 96q-42 -24 -121 -24q-78 0 -119 25zM205 392l-12 -103q-5 -40 20.5 -61.5t92.5 -21.5q123 0 133 83l12 103q5 39 -20.5 60.5t-92.5 21.5q-123 0 -133 -82z" />
    <glyph glyph-name="yen" unicode="&#xa5;" horiz-adv-x="544" 
d="M262 12q-1 -12 -13 -12h-29q-12 0 -11 12l32 260h-156q-13 0 -11 12l2 13q2 12 13 12h139l-33 83h-95q-12 0 -11 11l1 13q1 12 14 12h76l-96 240q-4 12 10 12h33q9 0 14 -12l123 -308q8 -21 10 -34q9 20 18 34l201 308q9 12 16 12h32q15 0 7 -12l-157 -240h80
q12 0 11 -12l-1 -13q-1 -11 -13 -11h-100l-54 -83h142q12 0 11 -12l-1 -13q-2 -12 -13 -12h-158z" />
    <glyph glyph-name="brokenbar" unicode="&#xa6;" horiz-adv-x="265" 
d="M151 668v-342q0 -12 -11 -12h-29q-12 0 -12 12v342q0 12 12 12h29q11 0 11 -12zM151 143v-342q0 -12 -11 -12h-29q-12 0 -12 12v342q0 12 12 12h29q11 0 11 -12z" />
    <glyph glyph-name="section" unicode="&#xa7;" horiz-adv-x="501" 
d="M405 164q-1 -12 -14 -12h-25q-12 0 -11 12l12 92q2 20 2 22q0 42 -54 58l-132 40q-87 27 -87 93q0 8 2 24l9 73q7 58 50.5 90t140.5 32q165 0 165 -104q0 -10 -1 -21l-1 -11q-1 -12 -14 -12h-26q-11 0 -10 13l1 9q1 8 1 19q0 69 -117 69q-128 0 -138 -82l-9 -72
q-2 -16 -2 -19q0 -41 64 -60l132 -39q30 -8 52.5 -30.5t22.5 -59.5q0 -15 -1 -23zM71 210l12 100q1 12 13 12h26q11 0 10 -12l-11 -91q-2 -16 -2 -22q0 -43 53 -59l133 -40q87 -25 87 -92q0 -6 -2 -24l-9 -73q-15 -122 -191 -122q-165 0 -165 102q0 13 1 23l1 11q1 12 14 12
h25q11 0 10 -13l-1 -9q-1 -8 -1 -18q0 -71 118 -71q127 0 137 83l9 72q2 16 2 19q0 42 -64 60l-131 39q-76 24 -76 90q0 7 2 23z" />
    <glyph glyph-name="dieresis" unicode="&#xa8;" horiz-adv-x="308" 
d="M209 690l-12 -98q-1 -12 -13 -12h-18q-12 0 -10 12l12 98q2 12 13 12h18q11 0 10 -12zM307 690l-12 -98q-1 -12 -13 -12h-18q-12 0 -10 12l12 98q2 12 13 12h18q11 0 10 -12z" />
    <glyph glyph-name="copyright" unicode="&#xa9;" horiz-adv-x="699" 
d="M616 525v-369q0 -36 -10 -63t-37 -51.5t-80.5 -37t-133.5 -12.5q-79 0 -132.5 12.5t-80.5 37t-37 51.5t-10 63v369q0 36 10 62.5t37 51t80.5 37t132.5 12.5q80 0 133.5 -12.5t80.5 -37t37 -51t10 -62.5zM575 150v381q0 57 -49.5 89t-170.5 32t-170.5 -32t-49.5 -90v-380
q0 -58 49.5 -90t170.5 -32q122 0 171 32t49 90zM356 551q79 0 108 -30.5t29 -90.5v-17q0 -12 -12 -12h-24q-12 0 -12 12v16q0 43 -17.5 63.5t-71.5 20.5q-55 0 -72.5 -20.5t-17.5 -63.5v-179q0 -42 17.5 -62.5t72.5 -20.5q54 0 71.5 20.5t17.5 62.5v24q0 12 12 12h24
q12 0 12 -12v-25q0 -60 -29 -90.5t-108 -30.5q-80 0 -108.5 30t-28.5 91v181q0 61 28.5 91t108.5 30z" />
    <glyph glyph-name="ordfeminine" unicode="&#xaa;" horiz-adv-x="382" 
d="M274 418q-49 -36 -107 -36q-37 0 -57 17t-20 45q0 11 1 19l18 150q8 75 95 75q55 0 99 -36l5 21q3 10 10 10h23q9 0 7 -9l-34 -280q-1 -7 -9 -7h-26q-7 0 -7 7zM152 607l-17 -134q-1 -10 -1 -19q0 -38 49 -38q51 0 95 37l20 163q-37 37 -85 37q-56 0 -61 -46z" />
    <glyph glyph-name="guillemotleft" unicode="&#xab;" horiz-adv-x="524" 
d="M82 245l140 -115q10 -8 9 -17l-4 -32q-2 -14 -12 -6l-169 141q-9 9 -8 20l2 20q1 11 14 20l203 140q11 7 11 -4v-2l-4 -32q-1 -9 -14 -18zM281 245l140 -115q10 -8 9 -17l-4 -32q-2 -14 -12 -6l-169 141q-9 9 -8 20l2 20q1 11 14 20l203 140q11 7 11 -4v-2l-4 -32
q-1 -9 -14 -18z" />
    <glyph glyph-name="logicalnot" unicode="&#xac;" horiz-adv-x="353" 
d="M69 313q0 45 31.5 77t77.5 32q45 0 77 -32t32 -77q0 -46 -32 -77.5t-77 -31.5q-46 0 -77.5 31.5t-31.5 77.5z" />
    <glyph glyph-name="uni00AD" unicode="&#xad;" horiz-adv-x="437" 
d="M84 311h268q12 0 12 -11v-21q0 -12 -12 -12h-268q-12 0 -12 12v21q0 11 12 11z" />
    <glyph glyph-name="registered" unicode="&#xae;" horiz-adv-x="580" 
d="M523 558v-177q0 -130 -211 -130q-213 0 -213 130v177q0 130 213 130q211 0 211 -130zM486 377v184q0 92 -174 92q-175 0 -175 -92v-183q0 -93 175 -93q174 0 174 92zM257 342q0 -9 -8 -9h-22q-8 0 -8 9v246q0 10 10 10h93q96 0 96 -71v-24q0 -51 -52 -66l41 -95
q4 -9 -8 -9h-23q-6 0 -10 9l-38 90h-71v-90zM319 568h-62v-106h62q30 0 45 12.5t15 30.5v20q0 18 -15 30.5t-45 12.5z" />
    <glyph glyph-name="macron" unicode="&#xaf;" horiz-adv-x="419" 
d="M160 645h256q6 0 9 -2.5t2 -7.5l-2 -19q-1 -12 -14 -12h-256q-13 0 -11 12l2 18q1 11 14 11z" />
    <glyph glyph-name="degree" unicode="&#xb0;" horiz-adv-x="396" 
d="M91 506l11 90q6 44 37 67t106 23q121 0 121 -78q0 -11 -1 -19l-11 -90q-5 -44 -36.5 -67t-104.5 -23q-123 0 -123 77q0 14 1 20zM309 501l11 87q1 5 1 13q0 49 -81 49q-85 0 -92 -55l-11 -89q-1 -6 -1 -14q0 -46 80 -46q86 0 93 55z" />
    <glyph glyph-name="plusminus" unicode="&#xb1;" horiz-adv-x="589" 
d="M266 227v131h-172q-12 0 -12 12v21q0 11 12 11h172v131q0 12 12 12h21q12 0 12 -12v-131h174q12 0 12 -11v-21q0 -12 -12 -12h-174v-131q0 -13 -12 -13h-21q-12 0 -12 13zM94 153h391q12 0 12 -12v-21q0 -12 -12 -12h-391q-12 0 -12 12v21q0 12 12 12z" />
    <glyph glyph-name="twosuperior" unicode="&#xb2;" 
d="M111 492h176q9 0 7 -8l-3 -20q-1 -8 -10 -8h-208q-5 0 -7.5 2t-1.5 6l13 100q6 46 59 61l100 29q36 12 39 37l7 57q1 8 1 10q0 42 -68 42q-42 0 -58.5 -13t-20.5 -39l-3 -25q-1 -9 -8 -9h-26q-9 0 -7 9l3 29q4 38 31.5 60t93.5 22q107 0 107 -72q0 -3 -1 -10l-8 -62
q-7 -50 -61 -66l-99 -29q-33 -9 -37 -33z" />
    <glyph glyph-name="threesuperior" unicode="&#xb3;" 
d="M150 669h45q41 0 57.5 13t19.5 40l3 28q1 9 1 11q0 40 -64 40q-40 0 -56.5 -12.5t-20.5 -38.5l-1 -6q-1 -8 -8 -8h-26q-7 0 -7 8l1 10q4 39 31 59.5t92 20.5q102 0 102 -66q0 -4 -1 -12l-5 -40q-4 -28 -15.5 -41.5t-40.5 -20.5q46 -11 46 -51q0 -4 -1 -12l-7 -61
q-9 -78 -124 -78q-108 0 -108 69q0 5 1 14l1 8q1 8 9 8h26q8 0 7 -8l-1 -6q-1 -7 -1 -11q0 -41 69 -41q41 0 58.5 12.5t20.5 38.5l6 51q1 8 1 10q0 41 -66 41h-48q-5 0 -7 1.5t-1 5.5l2 17q1 7 10 7z" />
    <glyph glyph-name="acute" unicode="&#xb4;" horiz-adv-x="336" 
d="M317 696l-94 -119q-7 -7 -16 -7h-25q-13 0 -5 11l87 117q8 10 16 10h33q13 0 4 -12z" />
    <glyph glyph-name="paragraph" unicode="&#xb6;" horiz-adv-x="570" 
d="M388 669l-106 -864q-1 -13 -14 -13h-30q-11 0 -10 13l59 477h-51q-178 0 -178 112q0 12 2 26l16 129q8 63 53.5 97t155.5 34h92q13 0 11 -11zM530 668l-106 -863q-1 -13 -13 -13h-30q-11 0 -10 13l106 863q1 12 13 12h30q12 0 10 -12z" />
    <glyph glyph-name="periodcentered" unicode="&#xb7;" horiz-adv-x="210" 
d="M132 300l-10 -77q-1 -12 -12 -12h-30q-11 0 -10 12l9 77q1 12 13 12h30q12 0 10 -12z" />
    <glyph glyph-name="cedilla" unicode="&#xb8;" horiz-adv-x="164" 
d="M75 -54h39q30 0 51 -17t21 -51q0 -47 -27 -68t-65 -21h-117q-12 0 -10 12l1 11q2 12 13 12h111q54 0 54 50q0 37 -43 37h-59q-20 0 -14 15l31 78q5 11 15 10l14 -2q11 -1 6 -15z" />
    <glyph glyph-name="onesuperior" unicode="&#xb9;" 
d="M118 804l123 26q4 1 7 -0.5t2 -6.5l-41 -331h86q10 0 8 -8l-3 -20q-1 -8 -9 -8h-215q-5 0 -7.5 1.5t-1.5 6.5l3 20q1 8 9 8h86l37 295l-89 -20q-3 -1 -5.5 1t-1.5 6l2 19q1 10 10 11z" />
    <glyph glyph-name="ordmasculine" unicode="&#xba;" horiz-adv-x="369" 
d="M91 473l17 137q10 78 122 78q53 0 80.5 -18t27.5 -49q0 -6 -2 -20l-18 -142q-10 -77 -122 -77q-53 0 -80 17t-27 47q0 11 2 27zM274 463l18 138q1 8 1 14q0 38 -65 38q-70 0 -76 -45l-16 -125q-3 -24 -3 -29q0 -38 65 -38q70 0 76 47z" />
    <glyph glyph-name="guillemotright" unicode="&#xbb;" horiz-adv-x="530" 
d="M232 253l-140 115q-10 8 -9 17l4 32q2 14 12 6l169 -141q9 -9 8 -20l-2 -20q-1 -11 -14 -20l-203 -140q-11 -7 -11 4v2l4 32q1 9 14 18zM437 253l-140 115q-10 8 -9 17l4 32q2 14 12 6l169 -141q9 -9 8 -20l-2 -20q-1 -11 -14 -20l-203 -140q-11 -7 -11 4v2l4 32
q1 9 14 18z" />
    <glyph glyph-name="onequarter" unicode="&#xbc;" horiz-adv-x="720" 
d="M605 676l-391 -672q-8 -12 -18 -12h-23q-5 0 -6.5 4t1.5 8l391 672q7 12 18 12h23q12 0 5 -12zM108 654l123 26q4 1 7 -0.5t2 -6.5l-41 -331h86q10 0 8 -8l-3 -20q-1 -8 -9 -8h-215q-5 0 -7.5 1.5t-1.5 6.5l3 20q1 8 9 8h86l37 295l-89 -20q-3 -1 -5.5 1t-1.5 6l2 19
q1 10 10 11zM550 366l-100 -213h144l27 212q1 9 9 9h25q9 0 8 -8l-44 -358q-1 -8 -9 -8h-26q-9 0 -8 8l14 110h-182q-8 0 -8 7l1 11q1 10 5 16l101 214q4 8 11 8h27q8 0 5 -8z" />
    <glyph glyph-name="onehalf" unicode="&#xbd;" horiz-adv-x="735" 
d="M602 676l-391 -672q-7 -12 -18 -12h-23q-5 0 -6.5 4t1.5 8l391 672q7 12 18 12h23q12 0 5 -12zM108 654l123 26q4 1 7 -0.5t2 -6.5l-41 -331h86q10 0 8 -8l-3 -20q-1 -8 -9 -8h-215q-5 0 -7.5 1.5t-1.5 6.5l3 20q1 8 9 8h86l37 295l-89 -20q-3 -1 -5.5 1t-1.5 6l2 19
q1 10 10 11zM464 36h176q9 0 7 -8l-3 -20q-1 -8 -10 -8h-208q-5 0 -7.5 2t-1.5 6l13 100q6 46 59 61l100 29q36 12 39 37l7 57q1 8 1 10q0 42 -68 42q-42 0 -58.5 -13t-20.5 -39l-3 -25q-2 -9 -8 -9h-26q-8 0 -7 9l3 29q4 38 31.5 60t93.5 22q107 0 107 -72q0 -3 -1 -10
l-8 -62q-7 -50 -61 -66l-99 -29q-33 -9 -37 -33z" />
    <glyph glyph-name="threequarters" unicode="&#xbe;" horiz-adv-x="721" 
d="M600 676l-391 -672q-7 -12 -18 -12h-23q-5 0 -6.5 4t1.5 8l391 672q7 12 18 12h23q12 0 5 -12zM150 519h45q41 0 57.5 13t19.5 40l3 28q1 9 1 11q0 40 -64 40q-40 0 -56.5 -12.5t-20.5 -38.5l-1 -6q-1 -8 -8 -8h-26q-7 0 -7 8l1 10q4 39 31 59.5t92 20.5q102 0 102 -66
q0 -4 -1 -12l-5 -40q-4 -28 -15.5 -41.5t-40.5 -20.5q46 -11 46 -51q0 -4 -1 -12l-7 -61q-9 -78 -124 -78q-108 0 -108 69q0 5 1 14l1 8q1 8 9 8h26q8 0 7 -8l-1 -6q-1 -7 -1 -11q0 -41 69 -41q41 0 58.5 12.5t20.5 38.5l6 51q1 8 1 10q0 41 -66 41h-48q-5 0 -7 1.5t-1 5.5
l2 17q1 7 10 7zM551 366l-100 -213h144l27 212q1 9 9 9h25q9 0 8 -8l-44 -358q-1 -8 -9 -8h-26q-9 0 -8 8l14 110h-182q-8 0 -8 7l1 11q1 10 5 16l101 214q4 8 11 8h27q8 0 5 -8z" />
    <glyph glyph-name="questiondown" unicode="&#xbf;" horiz-adv-x="496" 
d="M248 404l9 77q1 12 14 12h29q11 0 10 -12l-9 -76q-1 -13 -13 -13h-30q-12 0 -10 12zM292 324l-11 -81q-9 -65 -79 -97l-67 -32q-57 -29 -64 -82l-10 -79q-1 -9 -1 -19q0 -84 138 -84q82 0 119 26.5t43 76.5l6 49q1 13 13 13h29q11 0 10 -13l-7 -56q-8 -66 -56.5 -103.5
t-160.5 -37.5q-188 0 -188 121q0 13 1 22l11 84q11 80 95 121l55 26q54 27 61 75l9 70q1 12 13 12h30q13 0 11 -12z" />
    <glyph glyph-name="Agrave" unicode="&#xc0;" horiz-adv-x="525" 
d="M276 747l-65 119q-6 12 7 12h31q10 0 15 -10l56 -117q6 -11 -6 -11h-23q-11 0 -15 7zM294 680h31q11 0 13 -12l123 -656q1 -12 -9 -12h-31q-11 0 -14 12l-36 194h-241l-84 -194q-4 -12 -15 -12h-28q-13 0 -8 12l282 656q6 12 17 12zM364 249l-50 268q-8 51 -12 106
q-20 -65 -36 -104l-118 -270h216z" />
    <glyph glyph-name="Aacute" unicode="&#xc1;" horiz-adv-x="525" 
d="M432 866l-94 -119q-7 -7 -15 -7h-26q-12 0 -4 11l86 117q8 10 16 10h33q14 0 4 -12zM294 680h31q11 0 13 -12l123 -656q1 -12 -9 -12h-31q-11 0 -14 12l-36 194h-241l-84 -194q-4 -12 -15 -12h-28q-13 0 -8 12l282 656q6 12 17 12zM364 249l-50 268q-8 51 -12 106
q-20 -65 -36 -104l-118 -270h216z" />
    <glyph glyph-name="Acircumflex" unicode="&#xc2;" horiz-adv-x="525" 
d="M321 844l-72 -93q-7 -11 -17 -11h-24q-13 0 -5 11l91 115q10 12 20 12h20q12 0 17 -11l64 -116q5 -11 -7 -11h-22q-10 0 -16 11zM294 680h31q11 0 13 -12l123 -656q1 -12 -9 -12h-31q-11 0 -14 12l-36 194h-241l-84 -194q-4 -12 -15 -12h-28q-13 0 -8 12l282 656
q6 12 17 12zM364 249l-50 268q-8 51 -12 106q-20 -65 -36 -104l-118 -270h216z" />
    <glyph glyph-name="Atilde" unicode="&#xc3;" horiz-adv-x="525" 
d="M245 828q-18 0 -25 -10.5t-11 -38.5l-2 -14q-1 -11 -14 -11h-16q-11 0 -9 14l4 22q8 43 26 61t48 18q28 0 52 -21l40 -36q18 -16 32 -16q18 0 25.5 11t11.5 43l1 9q1 11 14 11h16q11 0 9 -13l-3 -21q-12 -81 -75 -81q-27 0 -52 22l-41 36q-19 15 -31 15zM294 680h31
q11 0 13 -12l123 -656q1 -12 -9 -12h-31q-11 0 -14 12l-36 194h-241l-84 -194q-4 -12 -15 -12h-28q-13 0 -8 12l282 656q6 12 17 12zM364 249l-50 268q-8 51 -12 106q-20 -65 -36 -104l-118 -270h216z" />
    <glyph glyph-name="Adieresis" unicode="&#xc4;" horiz-adv-x="525" 
d="M296 857l-12 -98q-2 -12 -13 -12h-18q-11 0 -10 12l11 98q2 12 14 12h18q12 0 10 -12zM394 857l-12 -98q-2 -12 -13 -12h-18q-11 0 -10 12l11 98q2 12 14 12h18q12 0 10 -12zM294 680h31q11 0 13 -12l123 -656q1 -12 -9 -12h-31q-11 0 -14 12l-36 194h-241l-84 -194
q-4 -12 -15 -12h-28q-13 0 -8 12l282 656q6 12 17 12zM364 249l-50 268q-8 51 -12 106q-20 -65 -36 -104l-118 -270h216z" />
    <glyph glyph-name="Aring" unicode="&#xc5;" horiz-adv-x="525" 
d="M408 809l-2 -22q-5 -64 -96 -64q-47 0 -66.5 19.5t-16.5 54.5l2 22q5 65 97 65q45 0 65 -21t17 -54zM374 792l1 14q2 24 -9 36t-43 12q-59 0 -62 -40l-1 -13q-2 -25 9 -36.5t42 -11.5q60 0 63 39zM294 680h31q11 0 13 -12l123 -656q1 -12 -9 -12h-31q-11 0 -14 12
l-36 194h-241l-84 -194q-4 -12 -15 -12h-28q-13 0 -8 12l282 656q6 12 17 12zM364 249l-50 268q-8 51 -12 106q-20 -65 -36 -104l-118 -270h216z" />
    <glyph glyph-name="AE" unicode="&#xc6;" horiz-adv-x="828" 
d="M-8 0q-17 0 -8 12l461 656q7 12 21 12h337q11 0 10 -11l-2 -22q-1 -12 -14 -12h-299l-32 -256h282q11 0 10 -11l-2 -20q-2 -12 -14 -12h-281l-36 -291h312q11 0 10 -12l-2 -21q-1 -12 -13 -12h-348q-7 0 -11 2.5t-3 10.5l24 193h-221l-135 -194q-8 -12 -17 -12h-29z
M401 530l-197 -281h195l42 341q-6 -10 -13 -20.5t-15 -22t-12 -17.5z" />
    <glyph glyph-name="Ccedilla" unicode="&#xc7;" horiz-adv-x="549" 
d="M338 -122q0 -47 -27 -68t-65 -21h-117q-12 0 -10 12l1 11q2 12 13 12h111q54 0 54 50q0 37 -43 37h-59q-20 0 -14 15l27 68q-146 13 -146 117q0 8 2 24l50 412q8 66 57 103.5t163 37.5q190 0 190 -120q0 -13 -1 -23l-7 -50q-1 -13 -12 -13h-29q-12 0 -10 13l5 42
q1 6 1 19q0 86 -140 86q-83 0 -120 -26.5t-44 -76.5l-49 -396q-1 -8 -1 -20q0 -85 139 -85q156 0 166 103l6 57q1 11 13 11h29q12 0 10 -11l-7 -65q-14 -141 -221 -141h-7l-19 -46h39q30 0 51 -17t21 -51z" />
    <glyph glyph-name="Egrave" unicode="&#xc8;" horiz-adv-x="523" 
d="M301 747l-65 119q-6 12 7 12h31q10 0 15 -10l56 -117q5 -11 -6 -11h-23q-12 0 -15 7zM426 0h-354q-12 0 -10 12l80 656q2 12 14 12h341q12 0 11 -12l-3 -22q-1 -12 -14 -12h-299l-31 -254h281q11 0 10 -12l-2 -21q-2 -12 -13 -12h-282l-36 -289h312q12 0 11 -12l-3 -22
q-1 -12 -13 -12z" />
    <glyph glyph-name="Eacute" unicode="&#xc9;" horiz-adv-x="523" 
d="M442 866l-94 -119q-7 -7 -15 -7h-26q-12 0 -4 11l86 117q8 10 16 10h33q14 0 4 -12zM426 0h-354q-12 0 -10 12l80 656q2 12 14 12h341q12 0 11 -12l-3 -22q-1 -12 -14 -12h-299l-31 -254h281q11 0 10 -12l-2 -21q-2 -12 -13 -12h-282l-36 -289h312q12 0 11 -12l-3 -22
q-1 -12 -13 -12z" />
    <glyph glyph-name="Ecircumflex" unicode="&#xca;" horiz-adv-x="523" 
d="M341 844l-72 -93q-7 -11 -17 -11h-24q-13 0 -5 11l91 115q10 12 20 12h20q12 0 17 -11l64 -116q5 -11 -7 -11h-22q-10 0 -16 11zM426 0h-354q-12 0 -10 12l80 656q2 12 14 12h341q12 0 11 -12l-3 -22q-1 -12 -14 -12h-299l-31 -254h281q11 0 10 -12l-2 -21
q-2 -12 -13 -12h-282l-36 -289h312q12 0 11 -12l-3 -22q-1 -12 -13 -12z" />
    <glyph glyph-name="Edieresis" unicode="&#xcb;" horiz-adv-x="523" 
d="M320 857l-12 -98q-2 -12 -13 -12h-18q-11 0 -10 12l11 98q2 12 14 12h18q12 0 10 -12zM418 857l-12 -98q-2 -12 -13 -12h-18q-11 0 -10 12l11 98q2 12 14 12h18q12 0 10 -12zM426 0h-354q-12 0 -10 12l80 656q2 12 14 12h341q12 0 11 -12l-3 -22q-1 -12 -14 -12h-299
l-31 -254h281q11 0 10 -12l-2 -21q-2 -12 -13 -12h-282l-36 -289h312q12 0 11 -12l-3 -22q-1 -12 -13 -12z" />
    <glyph glyph-name="Igrave" unicode="&#xcc;" horiz-adv-x="246" 
d="M149 747l-65 119q-6 12 7 12h31q10 0 15 -10l56 -117q5 -11 -6 -11h-23q-12 0 -15 7zM196 668l-81 -656q-1 -12 -12 -12h-30q-13 0 -11 12l80 656q2 12 14 12h30q12 0 10 -12z" />
    <glyph glyph-name="Iacute" unicode="&#xcd;" horiz-adv-x="246" 
d="M297 866l-94 -119q-7 -7 -15 -7h-26q-12 0 -4 11l86 117q8 10 16 10h33q14 0 4 -12zM196 668l-81 -656q-1 -12 -12 -12h-30q-13 0 -11 12l80 656q2 12 14 12h30q12 0 10 -12z" />
    <glyph glyph-name="Icircumflex" unicode="&#xce;" horiz-adv-x="246" 
d="M188 844l-72 -93q-7 -11 -17 -11h-24q-13 0 -5 11l91 115q10 12 20 12h20q11 0 17 -11l64 -116q6 -11 -7 -11h-22q-10 0 -16 11zM196 668l-81 -656q-1 -12 -12 -12h-30q-13 0 -11 12l80 656q2 12 14 12h30q12 0 10 -12z" />
    <glyph glyph-name="Idieresis" unicode="&#xcf;" horiz-adv-x="246" 
d="M164 857l-12 -98q-2 -12 -13 -12h-18q-11 0 -10 12l11 98q2 12 14 12h18q12 0 10 -12zM262 857l-12 -98q-2 -12 -13 -12h-18q-11 0 -10 12l11 98q2 12 14 12h18q12 0 10 -12zM196 668l-81 -656q-1 -12 -12 -12h-30q-13 0 -11 12l80 656q2 12 14 12h30q12 0 10 -12z" />
    <glyph glyph-name="Eth" unicode="&#xd0;" horiz-adv-x="607" 
d="M505 141q-18 -141 -224 -141h-200q-11 0 -10 12l38 312h-76q-11 0 -10 11l2 18q1 12 14 12h75l37 303q1 12 13 12h195q103 0 149.5 -33.5t46.5 -88.5q0 -10 -2 -24zM128 46h156q157 0 169 103l46 379q2 16 2 19q0 87 -145 87h-155l-33 -269h139q12 0 11 -12l-2 -18
q-1 -11 -14 -11h-139z" />
    <glyph glyph-name="Ntilde" unicode="&#xd1;" horiz-adv-x="608" 
d="M304 828q-18 0 -25 -10.5t-11 -38.5l-2 -14q-1 -11 -14 -11h-16q-11 0 -9 14l4 22q8 43 26 61t48 18q28 0 52 -21l40 -36q18 -16 32 -16q18 0 25.5 11t11.5 43l1 9q1 11 14 11h16q11 0 9 -13l-3 -21q-12 -81 -75 -81q-27 0 -52 22l-41 36q-19 15 -31 15zM558 668
l-80 -656q-2 -12 -13 -12h-25q-8 0 -11 6l-224 509q-8 17 -23 61l-70 -564q-2 -12 -13 -12h-27q-12 0 -10 12l80 656q1 12 14 12h24q8 0 10 -5l226 -513q14 -30 23 -57l69 563q2 12 13 12h27q12 0 10 -12z" />
    <glyph glyph-name="Ograve" unicode="&#xd2;" horiz-adv-x="587" 
d="M321 747l-65 119q-6 12 7 12h31q10 0 15 -10l56 -117q5 -11 -6 -11h-23q-12 0 -15 7zM65 135l50 412q16 141 225 141q194 0 194 -122q0 -9 -1 -21l-50 -412q-16 -141 -226 -141q-193 0 -193 120q0 12 1 23zM430 141l49 396q1 6 1 18q0 87 -145 87q-153 0 -167 -103
l-49 -396q-1 -6 -1 -18q0 -87 144 -87q154 0 168 103z" />
    <glyph glyph-name="Oacute" unicode="&#xd3;" horiz-adv-x="587" 
d="M464 866l-94 -119q-7 -7 -15 -7h-26q-12 0 -4 11l86 117q8 10 16 10h33q14 0 4 -12zM65 135l50 412q16 141 225 141q194 0 194 -122q0 -9 -1 -21l-50 -412q-16 -141 -226 -141q-193 0 -193 120q0 12 1 23zM430 141l49 396q1 6 1 18q0 87 -145 87q-153 0 -167 -103
l-49 -396q-1 -6 -1 -18q0 -87 144 -87q154 0 168 103z" />
    <glyph glyph-name="Ocircumflex" unicode="&#xd4;" horiz-adv-x="587" 
d="M357 844l-72 -93q-7 -11 -17 -11h-24q-13 0 -5 11l91 115q10 12 20 12h20q12 0 17 -11l64 -116q5 -11 -7 -11h-22q-10 0 -16 11zM65 135l50 412q16 141 225 141q194 0 194 -122q0 -9 -1 -21l-50 -412q-16 -141 -226 -141q-193 0 -193 120q0 12 1 23zM430 141l49 396
q1 6 1 18q0 87 -145 87q-153 0 -167 -103l-49 -396q-1 -6 -1 -18q0 -87 144 -87q154 0 168 103z" />
    <glyph glyph-name="Otilde" unicode="&#xd5;" horiz-adv-x="587" 
d="M292 828q-18 0 -25 -10.5t-11 -38.5l-2 -14q-1 -11 -14 -11h-16q-11 0 -9 14l4 22q8 43 26 61t48 18q28 0 52 -21l40 -36q18 -16 32 -16q18 0 25.5 11t11.5 43l1 9q1 11 14 11h16q11 0 9 -13l-3 -21q-12 -81 -75 -81q-27 0 -52 22l-41 36q-19 15 -31 15zM65 135l50 412
q16 141 225 141q194 0 194 -122q0 -9 -1 -21l-50 -412q-16 -141 -226 -141q-193 0 -193 120q0 12 1 23zM430 141l49 396q1 6 1 18q0 87 -145 87q-153 0 -167 -103l-49 -396q-1 -6 -1 -18q0 -87 144 -87q154 0 168 103z" />
    <glyph glyph-name="Odieresis" unicode="&#xd6;" horiz-adv-x="587" 
d="M333 857l-12 -98q-1 -12 -13 -12h-18q-12 0 -10 12l11 98q1 12 14 12h18q11 0 10 -12zM431 857l-12 -98q-1 -12 -13 -12h-18q-12 0 -10 12l11 98q1 12 14 12h18q11 0 10 -12zM65 135l50 412q16 141 225 141q194 0 194 -122q0 -9 -1 -21l-50 -412q-16 -141 -226 -141
q-193 0 -193 120q0 12 1 23zM430 141l49 396q1 6 1 18q0 87 -145 87q-153 0 -167 -103l-49 -396q-1 -6 -1 -18q0 -87 144 -87q154 0 168 103z" />
    <glyph glyph-name="multiply" unicode="&#xd7;" horiz-adv-x="465" 
d="M203 343l-122 122q-7 7 0 16l15 16q8 8 17 -1l122 -122l123 123q7 7 16 0l16 -15q9 -7 0 -16l-123 -123l122 -123q9 -8 0 -17l-15 -15q-8 -8 -16 0l-123 123l-122 -122q-9 -9 -17 0l-15 15q-9 8 0 17z" />
    <glyph glyph-name="Oslash" unicode="&#xd8;" horiz-adv-x="587" 
d="M110 -11q-11 -18 -23 -18h-20q-15 0 -4 18l29 49q-29 29 -29 74q0 7 2 23l50 412q16 141 225 141q80 0 131 -23l16 27q9 17 22 17h20q7 0 8 -5.5t-3 -11.5l-30 -50q30 -30 30 -76q0 -12 -1 -21l-50 -412q-16 -141 -226 -141q-85 0 -131 23zM118 125q0 -20 7 -34l319 530
q-37 21 -109 21q-153 0 -167 -103l-49 -396q-1 -8 -1 -18zM480 555q0 21 -7 35l-320 -530q36 -22 109 -22q154 0 168 103l49 396q1 9 1 18z" />
    <glyph glyph-name="Ugrave" unicode="&#xd9;" horiz-adv-x="603" 
d="M328 747l-65 119q-6 12 7 12h31q10 0 15 -10l56 -117q6 -11 -6 -11h-23q-11 0 -15 7zM192 668l-64 -521q-2 -20 -2 -22q0 -87 144 -87q155 0 169 103l65 527q2 12 12 12h30q12 0 11 -12l-66 -535q-18 -141 -225 -141q-194 0 -194 122q0 9 2 23l65 531q1 12 13 12h30
q11 0 10 -12z" />
    <glyph glyph-name="Uacute" unicode="&#xda;" horiz-adv-x="603" 
d="M472 866l-94 -119q-7 -7 -15 -7h-26q-12 0 -4 11l86 117q8 10 16 10h33q14 0 4 -12zM192 668l-64 -521q-2 -20 -2 -22q0 -87 144 -87q155 0 169 103l65 527q2 12 12 12h30q12 0 11 -12l-66 -535q-18 -141 -225 -141q-194 0 -194 122q0 9 2 23l65 531q1 12 13 12h30
q11 0 10 -12z" />
    <glyph glyph-name="Ucircumflex" unicode="&#xdb;" horiz-adv-x="603" 
d="M367 844l-72 -93q-7 -11 -17 -11h-24q-13 0 -5 11l91 115q10 12 20 12h20q12 0 17 -11l64 -116q5 -11 -7 -11h-22q-10 0 -16 11zM192 668l-64 -521q-2 -20 -2 -22q0 -87 144 -87q155 0 169 103l65 527q2 12 12 12h30q12 0 11 -12l-66 -535q-18 -141 -225 -141
q-194 0 -194 122q0 9 2 23l65 531q1 12 13 12h30q11 0 10 -12z" />
    <glyph glyph-name="Udieresis" unicode="&#xdc;" horiz-adv-x="603" 
d="M339 857l-12 -98q-1 -12 -13 -12h-18q-12 0 -10 12l11 98q1 12 14 12h18q11 0 10 -12zM437 857l-12 -98q-1 -12 -13 -12h-18q-12 0 -10 12l11 98q1 12 14 12h18q11 0 10 -12zM192 668l-64 -521q-2 -20 -2 -22q0 -87 144 -87q155 0 169 103l65 527q2 12 12 12h30
q12 0 11 -12l-66 -535q-18 -141 -225 -141q-194 0 -194 122q0 9 2 23l65 531q1 12 13 12h30q11 0 10 -12z" />
    <glyph glyph-name="Yacute" unicode="&#xdd;" horiz-adv-x="515" 
d="M431 866l-94 -119q-7 -7 -15 -7h-26q-12 0 -4 11l86 117q8 10 16 10h33q14 0 4 -12zM129 668l123 -308q8 -21 10 -34q9 20 18 34l201 308q9 12 16 12h32q15 0 7 -12l-252 -386l-34 -270q-1 -12 -13 -12h-29q-12 0 -11 12l32 264l-157 392q-4 12 10 12h33q9 0 14 -12z" />
    <glyph glyph-name="Thorn" unicode="&#xde;" horiz-adv-x="571" 
d="M196 668l-22 -175h152q102 0 148 -33.5t46 -88.5q0 -10 -1 -20l-14 -106q-8 -66 -59 -103.5t-166 -37.5h-153l-12 -92q-1 -12 -12 -12h-30q-12 0 -11 12l80 656q2 12 14 12h30q11 0 10 -12zM322 448h-153l-37 -299h153q154 0 168 104l12 91q1 9 1 16q0 88 -144 88z" />
    <glyph glyph-name="germandbls" unicode="&#xdf;" horiz-adv-x="595" 
d="M191 582l-69 -570q-2 -12 -14 -12h-29q-11 0 -10 12l54 436h-65q-10 0 -10 10l1 18q1 12 14 12l64 3h1l11 94q14 123 202 123q172 0 172 -107q0 -2 -2 -24l-3 -29q-4 -37 -31.5 -57.5t-57.5 -28.5l-65 -17q-1 0 -10 -2.5t-13 -3.5t-12.5 -5.5t-13 -9t-9 -12.5t-6.5 -18
l-1 -5q-8 -41 52 -64l114 -44q81 -32 81 -86q0 -11 -1 -18l-7 -63q-7 -60 -45 -91t-132 -31q-81 0 -114 25t-33 72q0 9 1 20l2 16q1 12 14 12h20q11 0 10 -12l-1 -14q-1 -9 -1 -17q0 -32 23 -48.5t82 -16.5q66 0 93 21t32 61l6 52q2 18 2 21q0 35 -62 57l-111 41
q-82 32 -71 102l2 13q11 61 88 80l58 15q63 16 68 59l3 24q1 9 1 20q0 73 -126 73q-136 0 -146 -86z" />
    <glyph glyph-name="agrave" unicode="&#xe0;" horiz-adv-x="520" 
d="M262 577l-66 119q-6 12 8 12h30q10 0 15 -10l56 -117q5 -11 -6 -11h-23q-10 0 -14 7zM355 53q-85 -61 -180 -61q-61 0 -92.5 27.5t-31.5 74.5q0 13 1 21l33 263q15 123 151 123q97 0 167 -62l7 41q3 13 14 13h25q11 0 10 -13l-58 -468q-1 -12 -13 -12h-26q-11 0 -10 12z
M136 371l-32 -250q-1 -5 -1 -14q0 -68 90 -68q85 0 167 59l37 296q-70 60 -153 60q-49 0 -76 -23t-32 -60z" />
    <glyph glyph-name="aacute" unicode="&#xe1;" horiz-adv-x="520" 
d="M395 696l-94 -119q-7 -7 -16 -7h-25q-13 0 -5 11l87 117q8 10 16 10h33q13 0 4 -12zM355 53q-85 -61 -180 -61q-61 0 -92.5 27.5t-31.5 74.5q0 13 1 21l33 263q15 123 151 123q97 0 167 -62l7 41q3 13 14 13h25q11 0 10 -13l-58 -468q-1 -12 -13 -12h-26q-11 0 -10 12z
M136 371l-32 -250q-1 -5 -1 -14q0 -68 90 -68q85 0 167 59l37 296q-70 60 -153 60q-49 0 -76 -23t-32 -60z" />
    <glyph glyph-name="acircumflex" unicode="&#xe2;" horiz-adv-x="520" 
d="M290 674l-72 -93q-7 -11 -17 -11h-25q-14 0 -5 11l92 115q9 12 20 12h20q11 0 17 -11l64 -116q6 -11 -7 -11h-22q-10 0 -16 11zM355 53q-85 -61 -180 -61q-61 0 -92.5 27.5t-31.5 74.5q0 13 1 21l33 263q15 123 151 123q97 0 167 -62l7 41q3 13 14 13h25q11 0 10 -13
l-58 -468q-1 -12 -13 -12h-26q-11 0 -10 12zM136 371l-32 -250q-1 -5 -1 -14q0 -68 90 -68q85 0 167 59l37 296q-70 60 -153 60q-49 0 -76 -23t-32 -60z" />
    <glyph glyph-name="atilde" unicode="&#xe3;" horiz-adv-x="520" 
d="M223 654q-17 0 -24 -10.5t-12 -39.5l-2 -13q-1 -11 -14 -11h-16q-12 0 -9 13l4 21q8 43 26 62t48 19q27 0 52 -22l40 -36q18 -16 32 -16q18 0 25.5 11t11.5 43l1 9q1 11 14 11h16q11 0 9 -13l-3 -21q-12 -80 -74 -80q-30 0 -53 21l-41 36q-20 16 -31 16zM355 53
q-85 -61 -180 -61q-61 0 -92.5 27.5t-31.5 74.5q0 13 1 21l33 263q15 123 151 123q97 0 167 -62l7 41q3 13 14 13h25q11 0 10 -13l-58 -468q-1 -12 -13 -12h-26q-11 0 -10 12zM136 371l-32 -250q-1 -5 -1 -14q0 -68 90 -68q85 0 167 59l37 296q-70 60 -153 60q-49 0 -76 -23
t-32 -60z" />
    <glyph glyph-name="adieresis" unicode="&#xe4;" horiz-adv-x="520" 
d="M264 690l-12 -98q-2 -12 -13 -12h-18q-11 0 -10 12l12 98q1 12 13 12h18q12 0 10 -12zM362 690l-12 -98q-2 -12 -13 -12h-18q-11 0 -10 12l12 98q1 12 13 12h18q12 0 10 -12zM355 53q-85 -61 -180 -61q-61 0 -92.5 27.5t-31.5 74.5q0 13 1 21l33 263q15 123 151 123
q97 0 167 -62l7 41q3 13 14 13h25q11 0 10 -13l-58 -468q-1 -12 -13 -12h-26q-11 0 -10 12zM136 371l-32 -250q-1 -5 -1 -14q0 -68 90 -68q85 0 167 59l37 296q-70 60 -153 60q-49 0 -76 -23t-32 -60z" />
    <glyph glyph-name="aring" unicode="&#xe5;" horiz-adv-x="520" 
d="M388 641l-2 -21q-7 -64 -96 -64q-46 0 -66 19t-17 54l2 23q5 65 97 65q46 0 65.5 -20.5t16.5 -55.5zM354 625l1 13q2 24 -9 36.5t-43 12.5q-59 0 -62 -40l-1 -13q-2 -25 9 -36.5t42 -11.5q60 0 63 39zM355 53q-85 -61 -180 -61q-61 0 -92.5 27.5t-31.5 74.5q0 13 1 21
l33 263q15 123 151 123q97 0 167 -62l7 41q3 13 14 13h25q11 0 10 -13l-58 -468q-1 -12 -13 -12h-26q-11 0 -10 12zM136 371l-32 -250q-1 -5 -1 -14q0 -68 90 -68q85 0 167 59l37 296q-70 60 -153 60q-49 0 -76 -23t-32 -60z" />
    <glyph glyph-name="ae" unicode="&#xe6;" horiz-adv-x="786" 
d="M730 377l-16 -124q-2 -11 -12 -11h-292l-15 -119q-1 -10 -1 -20q0 -69 117 -69q127 0 137 82l3 23q1 12 14 12h24q11 0 10 -12l-3 -25q-7 -59 -49.5 -90.5t-139.5 -31.5q-137 0 -158 72q-89 -72 -185 -72q-58 0 -93.5 26t-35.5 73q0 9 1 17l6 47q6 50 42 81.5t97 31.5
h181l12 101q2 20 2 21q0 70 -114 70q-69 0 -98 -21t-36 -61l-3 -18q-1 -12 -13 -12h-25q-12 0 -11 12l2 18q7 59 49.5 91t138.5 32q115 0 142 -59q40 59 160 59q163 0 163 -105q0 -10 -1 -19zM426 376l-12 -94h254l12 90q1 9 1 17q0 70 -118 70q-127 0 -137 -83zM175 35
q74 0 167 68l15 124h-174q-40 0 -63 -22t-28 -57l-4 -30q-1 -9 -1 -14q0 -69 88 -69z" />
    <glyph glyph-name="ccedilla" unicode="&#xe7;" horiz-adv-x="477" 
d="M313 -122q0 -47 -27 -68t-65 -21h-117q-12 0 -10 12l1 11q1 12 13 12h111q54 0 54 50q0 37 -43 37h-59q-20 0 -14 15l27 67q-134 8 -134 102q0 9 1 20l32 262q7 60 50 92t140 32q161 0 161 -105q0 -9 -1 -20l-2 -18q-1 -12 -12 -12h-27q-13 0 -11 11l2 17q1 8 1 16
q0 67 -114 67q-69 0 -99.5 -21.5t-35.5 -61.5l-31 -251q-2 -14 -2 -20q0 -67 115 -67q70 0 99 21t36 61l4 25q1 12 13 12h26q11 0 10 -12l-3 -28q-7 -57 -47.5 -89.5t-133.5 -33.5l-19 -46h39q30 0 51 -17t21 -51z" />
    <glyph glyph-name="egrave" unicode="&#xe8;" horiz-adv-x="494" 
d="M259 577l-66 119q-6 12 8 12h30q10 0 15 -10l56 -117q6 -11 -6 -11h-23q-11 0 -14 7zM438 377l-16 -124q-2 -11 -12 -11h-292l-15 -121q-1 -7 -1 -17q0 -34 26.5 -52t90.5 -18q127 0 137 82l3 23q1 12 14 12h25q12 0 10 -12l-3 -24q-7 -59 -50 -91t-140 -32
q-165 0 -165 105q0 8 1 18l33 262q7 60 50.5 92t140.5 32q164 0 164 -105q0 -10 -1 -19zM135 376l-12 -94h253l12 91q1 8 1 16q0 70 -117 70q-127 0 -137 -83z" />
    <glyph glyph-name="eacute" unicode="&#xe9;" horiz-adv-x="494" 
d="M399 696l-94 -119q-7 -7 -16 -7h-25q-13 0 -5 11l87 117q8 10 16 10h33q13 0 4 -12zM438 377l-16 -124q-2 -11 -12 -11h-292l-15 -121q-1 -7 -1 -17q0 -34 26.5 -52t90.5 -18q127 0 137 82l3 23q1 12 14 12h25q12 0 10 -12l-3 -24q-7 -59 -50 -91t-140 -32
q-165 0 -165 105q0 8 1 18l33 262q7 60 50.5 92t140.5 32q164 0 164 -105q0 -10 -1 -19zM135 376l-12 -94h253l12 91q1 8 1 16q0 70 -117 70q-127 0 -137 -83z" />
    <glyph glyph-name="ecircumflex" unicode="&#xea;" horiz-adv-x="494" 
d="M293 674l-72 -93q-7 -11 -17 -11h-25q-14 0 -5 11l92 115q9 12 20 12h20q11 0 17 -11l64 -116q5 -11 -7 -11h-22q-10 0 -16 11zM438 377l-16 -124q-2 -11 -12 -11h-292l-15 -121q-1 -7 -1 -17q0 -34 26.5 -52t90.5 -18q127 0 137 82l3 23q1 12 14 12h25q12 0 10 -12
l-3 -24q-7 -59 -50 -91t-140 -32q-165 0 -165 105q0 8 1 18l33 262q7 60 50.5 92t140.5 32q164 0 164 -105q0 -10 -1 -19zM135 376l-12 -94h253l12 91q1 8 1 16q0 70 -117 70q-127 0 -137 -83z" />
    <glyph glyph-name="edieresis" unicode="&#xeb;" horiz-adv-x="494" 
d="M263 690l-12 -98q-1 -12 -13 -12h-18q-12 0 -10 12l12 98q2 12 13 12h18q11 0 10 -12zM361 690l-12 -98q-1 -12 -13 -12h-18q-12 0 -10 12l12 98q2 12 13 12h18q11 0 10 -12zM438 377l-16 -124q-2 -11 -12 -11h-292l-15 -121q-1 -7 -1 -17q0 -34 26.5 -52t90.5 -18
q127 0 137 82l3 23q1 12 14 12h25q12 0 10 -12l-3 -24q-7 -59 -50 -91t-140 -32q-165 0 -165 105q0 8 1 18l33 262q7 60 50.5 92t140.5 32q164 0 164 -105q0 -10 -1 -19zM135 376l-12 -94h253l12 91q1 8 1 16q0 70 -117 70q-127 0 -137 -83z" />
    <glyph glyph-name="igrave" unicode="&#xec;" horiz-adv-x="218" 
d="M114 577l-66 119q-6 12 8 12h30q10 0 15 -10l56 -117q5 -11 -6 -11h-23q-10 0 -14 7zM157 480l-57 -468q-2 -12 -14 -12h-28q-11 0 -10 12l57 468q2 13 13 13h29q11 0 10 -13z" />
    <glyph glyph-name="iacute" unicode="&#xed;" horiz-adv-x="218" 
d="M262 696l-94 -119q-7 -7 -16 -7h-25q-13 0 -5 11l87 117q8 10 16 10h33q13 0 4 -12zM158 480l-57 -468q-1 -12 -14 -12h-28q-11 0 -10 12l57 468q2 13 13 13h29q11 0 10 -13z" />
    <glyph glyph-name="icircumflex" unicode="&#xee;" horiz-adv-x="217" 
d="M155 674l-72 -93q-7 -11 -17 -11h-25q-14 0 -5 11l92 115q9 12 20 12h20q11 0 17 -11l64 -116q5 -11 -7 -11h-22q-10 0 -16 11zM157 480l-57 -468q-2 -12 -14 -12h-28q-11 0 -10 12l57 468q2 13 13 13h29q11 0 10 -13z" />
    <glyph glyph-name="idieresis" unicode="&#xef;" horiz-adv-x="218" 
d="M130 690l-12 -98q-2 -12 -13 -12h-18q-11 0 -10 12l12 98q1 12 13 12h18q12 0 10 -12zM228 690l-12 -98q-2 -12 -13 -12h-18q-11 0 -10 12l12 98q1 12 13 12h18q12 0 10 -12zM157 480l-57 -468q-2 -12 -14 -12h-28q-11 0 -10 12l57 468q2 13 13 13h29q11 0 10 -13z" />
    <glyph glyph-name="eth" unicode="&#xf0;" horiz-adv-x="514" 
d="M411 115q-7 -59 -51 -91t-141 -32q-168 0 -168 105q0 10 1 18l32 263q15 123 151 123q99 0 166 -62l15 119q4 32 0 53l-90 -37q-12 -6 -15 5l-2 8q-3 10 7 15l88 36q-20 26 -102 26h-87q-11 0 -10 11l1 16q1 12 14 12h87q107 0 144 -43l55 24q10 4 14 -4l4 -8
q5 -10 -8 -15l-51 -22q8 -26 4 -56zM362 119l34 276q-67 60 -152 60q-50 0 -77 -23t-32 -60l-31 -253q-1 -8 -1 -14q0 -70 120 -70q129 0 139 84z" />
    <glyph glyph-name="ntilde" unicode="&#xf1;" horiz-adv-x="526" 
d="M238 654q-17 0 -24 -10.5t-12 -39.5l-2 -13q-1 -11 -14 -11h-16q-12 0 -9 13l4 21q8 43 26 62t48 19q27 0 52 -22l40 -36q18 -16 32 -16q18 0 25.5 11t11.5 43l1 9q1 11 14 11h16q11 0 9 -13l-3 -21q-12 -80 -74 -80q-31 0 -53 21l-41 36q-20 16 -31 16zM119 493h26
q13 0 11 -12l-4 -42q83 62 180 62q61 0 93 -28t32 -75q0 -12 -1 -19l-45 -367q-1 -12 -14 -12h-28q-11 0 -10 12l44 357q1 5 1 15q0 70 -89 70t-168 -60l-46 -382q-1 -12 -13 -12h-29q-11 0 -10 12l58 469q1 12 12 12z" />
    <glyph glyph-name="ograve" unicode="&#xf2;" horiz-adv-x="507" 
d="M255 577l-66 119q-6 12 8 12h30q10 0 15 -10l56 -117q6 -11 -6 -11h-23q-11 0 -14 7zM51 115l32 262q15 124 196 124q167 0 167 -106q0 -10 -1 -18l-32 -262q-15 -123 -195 -123q-168 0 -168 106q0 10 1 17zM361 119l32 255q1 6 1 12q0 71 -120 71q-129 0 -139 -83
l-32 -255q-1 -6 -1 -13q0 -70 120 -70q129 0 139 83z" />
    <glyph glyph-name="oacute" unicode="&#xf3;" horiz-adv-x="507" 
d="M401 696l-94 -119q-7 -7 -16 -7h-25q-13 0 -5 11l87 117q8 10 16 10h33q13 0 4 -12zM51 115l32 262q15 124 196 124q167 0 167 -106q0 -10 -1 -18l-32 -262q-15 -123 -195 -123q-168 0 -168 106q0 10 1 17zM361 119l32 255q1 6 1 12q0 71 -120 71q-129 0 -139 -83
l-32 -255q-1 -6 -1 -13q0 -70 120 -70q129 0 139 83z" />
    <glyph glyph-name="ocircumflex" unicode="&#xf4;" horiz-adv-x="507" 
d="M299 674l-72 -93q-7 -11 -17 -11h-25q-14 0 -5 11l92 115q9 12 20 12h20q11 0 17 -11l64 -116q5 -11 -7 -11h-22q-10 0 -16 11zM51 115l32 262q15 124 196 124q167 0 167 -106q0 -10 -1 -18l-32 -262q-15 -123 -195 -123q-168 0 -168 106q0 10 1 17zM361 119l32 255
q1 6 1 12q0 71 -120 71q-129 0 -139 -83l-32 -255q-1 -6 -1 -13q0 -70 120 -70q129 0 139 83z" />
    <glyph glyph-name="otilde" unicode="&#xf5;" horiz-adv-x="507" 
d="M223 654q-17 0 -24 -10.5t-12 -39.5l-2 -13q-1 -11 -14 -11h-16q-12 0 -9 13l4 21q8 43 26 62t48 19q27 0 52 -22l40 -36q18 -16 32 -16q18 0 25.5 11t11.5 43l1 9q1 11 14 11h16q11 0 9 -13l-3 -21q-12 -80 -74 -80q-30 0 -53 21l-41 36q-20 16 -31 16zM51 115l32 262
q15 124 196 124q167 0 167 -106q0 -10 -1 -18l-32 -262q-15 -123 -195 -123q-168 0 -168 106q0 10 1 17zM361 119l32 255q1 6 1 12q0 71 -120 71q-129 0 -139 -83l-32 -255q-1 -6 -1 -13q0 -70 120 -70q129 0 139 83z" />
    <glyph glyph-name="odieresis" unicode="&#xf6;" horiz-adv-x="507" 
d="M268 690l-12 -98q-2 -12 -13 -12h-18q-11 0 -10 12l12 98q1 12 13 12h18q12 0 10 -12zM366 690l-12 -98q-2 -12 -13 -12h-18q-11 0 -10 12l12 98q1 12 13 12h18q12 0 10 -12zM51 115l32 262q15 124 196 124q167 0 167 -106q0 -10 -1 -18l-32 -262q-15 -123 -195 -123
q-168 0 -168 106q0 10 1 17zM361 119l32 255q1 6 1 12q0 71 -120 71q-129 0 -139 -83l-32 -255q-1 -6 -1 -13q0 -70 120 -70q129 0 139 83z" />
    <glyph glyph-name="divide" unicode="&#xf7;" horiz-adv-x="566" 
d="M313 531v-78q0 -12 -11 -12h-30q-12 0 -12 12v78q0 11 12 11h30q11 0 11 -11zM87 348h399q12 0 12 -11v-21q0 -12 -12 -12h-398q-11 0 -11 12v21q0 11 10 11zM313 202v-77q0 -12 -11 -12h-30q-12 0 -12 12v77q0 12 12 12h30q11 0 11 -12z" />
    <glyph glyph-name="oslash" unicode="&#xf8;" horiz-adv-x="507" 
d="M94 -13q-11 -17 -24 -17h-17q-7 0 -7.5 6t3.5 11l29 43q-28 27 -28 68q0 10 1 17l32 262q15 124 196 124q68 0 107 -18l17 25q11 17 23 17h19q14 0 3 -17l-30 -45q28 -25 28 -68q0 -8 -1 -18l-32 -262q-15 -123 -195 -123q-69 0 -108 18zM103 119q-3 -28 6 -44l249 367
q-28 15 -84 15q-129 0 -139 -83zM222 36q129 0 139 83l32 251q3 32 -7 47l-249 -367q30 -14 85 -14z" />
    <glyph glyph-name="ugrave" unicode="&#xf9;" horiz-adv-x="520" 
d="M264 577l-66 119q-6 12 8 12h30q10 0 15 -10l56 -117q5 -11 -6 -11h-23q-10 0 -14 7zM353 12l3 40q-78 -60 -173 -60q-61 0 -93.5 28t-32.5 74q0 8 1 17l46 369q1 13 13 13h29q11 0 10 -13l-45 -358q-1 -8 -1 -15q0 -68 90 -68q83 0 161 59l47 382q1 13 13 13h29
q11 0 10 -13l-58 -468q-2 -12 -12 -12h-26q-12 0 -11 12z" />
    <glyph glyph-name="uacute" unicode="&#xfa;" horiz-adv-x="520" 
d="M403 696l-94 -119q-7 -7 -16 -7h-25q-13 0 -5 11l87 117q8 10 16 10h33q13 0 4 -12zM353 12l3 40q-78 -60 -173 -60q-61 0 -93.5 28t-32.5 74q0 8 1 17l46 369q1 13 13 13h29q11 0 10 -13l-45 -358q-1 -8 -1 -15q0 -68 90 -68q83 0 161 59l47 382q1 13 13 13h29
q11 0 10 -13l-58 -468q-2 -12 -12 -12h-26q-12 0 -11 12z" />
    <glyph glyph-name="ucircumflex" unicode="&#xfb;" horiz-adv-x="520" 
d="M299 674l-72 -93q-7 -11 -17 -11h-25q-14 0 -5 11l92 115q9 12 20 12h20q11 0 17 -11l64 -116q5 -11 -7 -11h-22q-10 0 -16 11zM353 12l3 40q-78 -60 -173 -60q-61 0 -93.5 28t-32.5 74q0 8 1 17l46 369q1 13 13 13h29q11 0 10 -13l-45 -358q-1 -8 -1 -15q0 -68 90 -68
q83 0 161 59l47 382q1 13 13 13h29q11 0 10 -13l-58 -468q-2 -12 -12 -12h-26q-12 0 -11 12z" />
    <glyph glyph-name="udieresis" unicode="&#xfc;" horiz-adv-x="520" 
d="M274 690l-12 -98q-2 -12 -13 -12h-18q-11 0 -10 12l12 98q1 12 13 12h18q12 0 10 -12zM372 690l-12 -98q-2 -12 -13 -12h-18q-11 0 -10 12l12 98q1 12 13 12h18q12 0 10 -12zM353 12l3 40q-78 -60 -173 -60q-61 0 -93.5 28t-32.5 74q0 8 1 17l46 369q1 13 13 13h29
q11 0 10 -13l-45 -358q-1 -8 -1 -15q0 -68 90 -68q83 0 161 59l47 382q1 13 13 13h29q11 0 10 -13l-58 -468q-2 -12 -12 -12h-26q-12 0 -11 12z" />
    <glyph glyph-name="yacute" unicode="&#xfd;" horiz-adv-x="438" 
d="M363 696l-94 -119q-7 -7 -16 -7h-25q-13 0 -5 11l87 117q8 10 16 10h33q13 0 4 -12zM431 480l-314 -676q-5 -12 -14 -12h-24q-15 0 -9 12l89 194l-107 482q-3 13 11 13h30q9 0 12 -13l79 -361q4 -19 8 -52q7 23 20 51l167 362q7 13 16 13h27q16 0 9 -13z" />
    <glyph glyph-name="thorn" unicode="&#xfe;" horiz-adv-x="520" 
d="M273 -8q-99 0 -167 60l-31 -248q-1 -12 -12 -12h-29q-12 0 -11 12l109 883q2 12 13 12h29q12 0 10 -12l-30 -248q83 62 179 62q61 0 93 -28t32 -75q0 -10 -2 -26l-33 -258q-15 -122 -150 -122zM264 37q97 0 108 84l31 245q2 16 2 19q0 70 -90 70q-84 0 -167 -60l-37 -298
q67 -60 153 -60z" />
    <glyph glyph-name="ydieresis" unicode="&#xff;" horiz-adv-x="438" 
d="M228 690l-12 -98q-2 -12 -13 -12h-18q-11 0 -10 12l12 98q1 12 13 12h18q12 0 10 -12zM326 690l-12 -98q-2 -12 -13 -12h-18q-11 0 -10 12l12 98q1 12 13 12h18q12 0 10 -12zM431 480l-314 -676q-5 -12 -14 -12h-24q-15 0 -9 12l89 194l-107 482q-3 13 11 13h30
q9 0 12 -13l79 -361q4 -19 8 -52q7 23 20 51l167 362q7 13 16 13h27q16 0 9 -13z" />
    <glyph glyph-name="Amacron" unicode="&#x100;" horiz-adv-x="525" 
d="M186 820h256q6 0 9 -2.5t2 -7.5l-2 -19q-1 -12 -13 -12h-257q-13 0 -11 12l2 18q1 11 14 11zM294 680h31q11 0 13 -12l123 -656q1 -12 -9 -12h-31q-11 0 -14 12l-36 194h-241l-84 -194q-4 -12 -15 -12h-28q-13 0 -8 12l282 656q6 12 17 12zM364 249l-50 268
q-8 51 -12 106q-20 -65 -36 -104l-118 -270h216z" />
    <glyph glyph-name="amacron" unicode="&#x101;" horiz-adv-x="520" 
d="M163 645h256q6 0 9 -2.5t2 -7.5l-2 -19q-2 -12 -14 -12h-256q-12 0 -11 12l2 18q1 11 14 11zM355 53q-85 -61 -180 -61q-61 0 -92.5 27.5t-31.5 74.5q0 13 1 21l33 263q15 123 151 123q97 0 167 -62l7 41q3 13 14 13h25q11 0 10 -13l-58 -468q-1 -12 -13 -12h-26
q-11 0 -10 12zM136 371l-32 -250q-1 -5 -1 -14q0 -68 90 -68q85 0 167 59l37 296q-70 60 -153 60q-49 0 -76 -23t-32 -60z" />
    <glyph glyph-name="Abreve" unicode="&#x102;" horiz-adv-x="525" 
d="M245 872l-2 -24q-1 -9 -1 -15q0 -28 15 -40.5t53 -12.5q45 0 61.5 19.5t19.5 58.5l1 14q1 10 12 10h19q11 0 9 -10l-1 -12q-5 -57 -32 -86t-92 -29q-105 0 -105 85q0 8 1 19l2 23q1 10 13 10h18q10 0 9 -10zM294 680h31q11 0 13 -12l123 -656q1 -12 -9 -12h-31
q-11 0 -14 12l-36 194h-241l-84 -194q-4 -12 -15 -12h-28q-13 0 -8 12l282 656q6 12 17 12zM364 249l-50 268q-8 51 -12 106q-20 -65 -36 -104l-118 -270h216z" />
    <glyph glyph-name="abreve" unicode="&#x103;" horiz-adv-x="520" 
d="M218 683l-2 -23q-1 -10 -1 -16q0 -27 15 -40t52 -13q44 0 61 20t20 59l1 13q1 10 13 10h18q11 0 10 -10l-2 -12q-10 -59 -35 -87t-89 -28q-104 0 -104 86q0 8 1 18l2 23q1 10 12 10h18q11 0 10 -10zM355 53q-85 -61 -180 -61q-61 0 -92.5 27.5t-31.5 74.5q0 13 1 21
l33 263q15 123 151 123q97 0 167 -62l7 41q3 13 14 13h25q11 0 10 -13l-58 -468q-1 -12 -13 -12h-26q-11 0 -10 12zM136 371l-32 -250q-1 -5 -1 -14q0 -68 90 -68q85 0 167 59l37 296q-70 60 -153 60q-49 0 -76 -23t-32 -60z" />
    <glyph glyph-name="Aogonek" unicode="&#x104;" horiz-adv-x="525" 
d="M294 680h31q11 0 13 -12l123 -656q1 -12 -9 -12h-11q-36 -8 -52 -28t-16 -43q0 -40 56 -40h26q13 0 12 -12l-2 -14q-1 -12 -14 -12h-34q-86 0 -86 70q0 25 17.5 53.5t56.5 48.5l-34 183h-241l-84 -194q-4 -12 -15 -12h-28q-13 0 -8 12l282 656q6 12 17 12zM364 249
l-50 268q-8 48 -12 106q-22 -72 -36 -104l-118 -270h216z" />
    <glyph glyph-name="aogonek" unicode="&#x105;" horiz-adv-x="519" 
d="M175 -8q-61 0 -93 27.5t-32 75.5q0 6 2 20l33 263q15 123 151 123q94 0 167 -62l7 41q3 13 13 13h26q11 0 10 -13l-58 -468q-1 -12 -13 -12h-2q-31 -6 -49.5 -27.5t-18.5 -42.5q0 -41 57 -41h15q14 0 12 -12l-2 -14q-1 -12 -14 -12h-23q-87 0 -87 70q0 28 21.5 55
t55.5 44l2 33q-85 -61 -180 -61zM136 371l-32 -250q-1 -6 -1 -14q0 -68 90 -68q85 0 167 59l37 296q-70 60 -153 60q-49 0 -76 -23t-32 -60z" />
    <glyph glyph-name="Cacute" unicode="&#x106;" horiz-adv-x="549" 
d="M460 866l-94 -119q-7 -7 -15 -7h-26q-12 0 -4 11l86 117q8 10 16 10h33q14 0 4 -12zM481 198l-7 -65q-14 -141 -221 -141q-190 0 -190 119q0 8 2 24l50 412q8 66 57 103.5t163 37.5q190 0 190 -120q0 -13 -1 -23l-7 -50q-1 -13 -12 -13h-29q-12 0 -10 13l5 42q1 6 1 19
q0 86 -140 86q-83 0 -120 -26.5t-44 -76.5l-49 -396q-1 -8 -1 -20q0 -85 139 -85q156 0 166 103l6 57q1 11 13 11h29q12 0 10 -11z" />
    <glyph glyph-name="cacute" unicode="&#x107;" horiz-adv-x="478" 
d="M395 696l-94 -119q-7 -7 -16 -7h-25q-13 0 -5 11l87 117q8 10 16 10h33q13 0 4 -12zM274 501q161 0 161 -105q0 -9 -1 -20l-2 -18q-1 -12 -12 -12h-27q-13 0 -11 11l2 17q1 8 1 16q0 67 -114 67q-69 0 -99.5 -21.5t-35.5 -61.5l-31 -251q-2 -14 -2 -20q0 -67 115 -67
q70 0 99 21t36 61l4 25q1 12 13 12h26q12 0 10 -12l-3 -28q-7 -59 -49.5 -91t-140.5 -32q-162 0 -162 103q0 9 1 20l32 262q7 60 50 92t140 32z" />
    <glyph glyph-name="Ccircumflex" unicode="&#x108;" horiz-adv-x="549" 
d="M351 844l-72 -93q-7 -11 -17 -11h-24q-13 0 -5 11l91 115q10 12 20 12h20q12 0 17 -11l64 -116q5 -11 -7 -11h-22q-10 0 -16 11zM481 198l-7 -65q-14 -141 -221 -141q-190 0 -190 119q0 8 2 24l50 412q8 66 57 103.5t163 37.5q190 0 190 -120q0 -13 -1 -23l-7 -50
q-1 -13 -12 -13h-29q-12 0 -10 13l5 42q1 6 1 19q0 86 -140 86q-83 0 -120 -26.5t-44 -76.5l-49 -396q-1 -8 -1 -20q0 -85 139 -85q156 0 166 103l6 57q1 11 13 11h29q12 0 10 -11z" />
    <glyph glyph-name="ccircumflex" unicode="&#x109;" horiz-adv-x="478" 
d="M289 674l-72 -93q-7 -11 -17 -11h-25q-14 0 -5 11l92 115q9 12 20 12h20q11 0 17 -11l64 -116q5 -11 -7 -11h-22q-10 0 -16 11zM274 501q161 0 161 -105q0 -9 -1 -20l-2 -18q-1 -12 -12 -12h-27q-13 0 -11 11l2 17q1 8 1 16q0 67 -114 67q-69 0 -99.5 -21.5t-35.5 -61.5
l-31 -251q-2 -14 -2 -20q0 -67 115 -67q70 0 99 21t36 61l4 25q1 12 13 12h26q12 0 10 -12l-3 -28q-7 -59 -49.5 -91t-140.5 -32q-162 0 -162 103q0 9 1 20l32 262q7 60 50 92t140 32z" />
    <glyph glyph-name="Cdotaccent" unicode="&#x10a;" horiz-adv-x="549" 
d="M380 838l-9 -77q-1 -11 -13 -11h-29q-12 0 -11 11l9 77q1 12 13 12h30q11 0 10 -12zM481 198l-7 -65q-14 -141 -221 -141q-190 0 -190 119q0 8 2 24l50 412q8 66 57 103.5t163 37.5q190 0 190 -120q0 -13 -1 -23l-7 -50q-1 -13 -12 -13h-29q-12 0 -10 13l5 42q1 6 1 19
q0 86 -140 86q-83 0 -120 -26.5t-44 -76.5l-49 -396q-1 -8 -1 -20q0 -85 139 -85q156 0 166 103l6 57q1 11 13 11h29q12 0 10 -11z" />
    <glyph glyph-name="cdotaccent" unicode="&#x10b;" horiz-adv-x="478" 
d="M315 675l-9 -77q-2 -12 -13 -12h-29q-12 0 -11 12l9 77q2 12 13 12h30q11 0 10 -12zM274 501q161 0 161 -105q0 -9 -1 -20l-2 -18q-1 -12 -12 -12h-27q-13 0 -11 11l2 17q1 8 1 16q0 67 -114 67q-69 0 -99.5 -21.5t-35.5 -61.5l-31 -251q-2 -14 -2 -20q0 -67 115 -67
q70 0 99 21t36 61l4 25q1 12 13 12h26q12 0 10 -12l-3 -28q-7 -59 -49.5 -91t-140.5 -32q-162 0 -162 103q0 9 1 20l32 262q7 60 50 92t140 32z" />
    <glyph glyph-name="Ccaron" unicode="&#x10c;" horiz-adv-x="549" 
d="M293 866l49 -92l72 92q9 12 18 12h24q14 0 5 -12l-93 -115q-8 -11 -19 -11h-19q-11 0 -18 12l-65 114q-3 4 -0.5 8t8.5 4h24q8 0 14 -12zM481 198l-7 -65q-14 -141 -221 -141q-190 0 -190 119q0 8 2 24l50 412q8 66 57 103.5t163 37.5q190 0 190 -120q0 -13 -1 -23
l-7 -50q-1 -13 -12 -13h-29q-12 0 -10 13l5 42q1 6 1 19q0 86 -140 86q-83 0 -120 -26.5t-44 -76.5l-49 -396q-1 -8 -1 -20q0 -85 139 -85q156 0 166 103l6 57q1 11 13 11h29q12 0 10 -11z" />
    <glyph glyph-name="ccaron" unicode="&#x10d;" horiz-adv-x="478" 
d="M235 696l49 -92l71 92q10 12 19 12h24q14 0 4 -12l-92 -115q-8 -11 -20 -11h-19q-10 0 -17 12l-65 114q-7 12 8 12h23q9 0 15 -12zM274 501q161 0 161 -105q0 -9 -1 -20l-2 -18q-1 -12 -12 -12h-27q-13 0 -11 11l2 17q1 8 1 16q0 67 -114 67q-69 0 -99.5 -21.5
t-35.5 -61.5l-31 -251q-2 -14 -2 -20q0 -67 115 -67q70 0 99 21t36 61l4 25q1 12 13 12h26q12 0 10 -12l-3 -28q-7 -59 -49.5 -91t-140.5 -32q-162 0 -162 103q0 9 1 20l32 262q7 60 50 92t140 32z" />
    <glyph glyph-name="Dcaron" unicode="&#x10e;" horiz-adv-x="599" 
d="M294 866l49 -92l72 92q9 12 18 12h24q14 0 5 -12l-93 -115q-8 -11 -19 -11h-19q-11 0 -18 12l-65 114q-3 4 -0.5 8t8.5 4h24q8 0 14 -12zM272 0h-200q-12 0 -10 12l80 656q2 12 13 12h195q103 0 149.5 -33.5t46.5 -88.5q0 -10 -2 -24l-48 -393q-18 -141 -224 -141z
M347 634h-155l-73 -588h156q157 0 169 103l46 379q2 16 2 19q0 87 -145 87z" />
    <glyph glyph-name="dcaron" unicode="&#x10f;" horiz-adv-x="532" 
d="M563 674l4 27q1 12 13 12h22q12 0 10 -12l-3 -29q-5 -48 -51 -114q-6 -9 -16 -6l-17 5q-10 3 -3 15q35 58 41 102zM355 53q-85 -61 -180 -61q-61 0 -93 27.5t-32 72.5q0 7 2 23l33 263q15 123 150 123q95 0 167 -61l30 247q2 12 13 12h29q12 0 10 -12l-83 -675
q-1 -12 -13 -12h-26q-12 0 -10 12zM136 371l-31 -248q-1 -10 -1 -18q0 -30 22 -48t67 -18q85 0 167 59l36 296q-67 60 -152 60q-50 0 -76.5 -23t-31.5 -60z" />
    <glyph glyph-name="Dcroat" unicode="&#x110;" horiz-adv-x="607" 
d="M505 141q-18 -141 -224 -141h-200q-11 0 -10 12l38 312h-76q-11 0 -10 11l2 18q1 12 14 12h75l37 303q1 12 13 12h195q103 0 149.5 -33.5t46.5 -88.5q0 -10 -2 -24zM128 46h156q157 0 169 103l46 379q2 16 2 19q0 87 -145 87h-155l-33 -269h139q12 0 11 -12l-2 -18
q-1 -11 -14 -11h-139z" />
    <glyph glyph-name="dcroat" unicode="&#x111;" horiz-adv-x="519" 
d="M355 53q-85 -61 -180 -61q-61 0 -93 27.5t-32 72.5q0 7 2 23l33 263q15 123 150 123q95 0 167 -61l15 123h-166q-13 0 -11 12l2 15q2 12 13 12h167l10 85q2 12 13 12h29q12 0 10 -12l-10 -85h44q12 0 11 -12l-2 -15q-1 -12 -13 -12h-45l-68 -551q-1 -12 -13 -12h-26
q-12 0 -10 12zM136 371l-31 -248q-1 -10 -1 -18q0 -30 22 -48t67 -18q85 0 167 59l36 296q-67 60 -152 60q-50 0 -76.5 -23t-31.5 -60z" />
    <glyph glyph-name="Emacron" unicode="&#x112;" horiz-adv-x="523" 
d="M203 820h256q6 0 9 -2.5t2 -7.5l-2 -19q-2 -12 -13 -12h-257q-12 0 -11 12l2 18q1 11 14 11zM426 0h-354q-12 0 -10 12l80 656q2 12 14 12h341q12 0 11 -12l-3 -22q-1 -12 -14 -12h-299l-31 -254h281q11 0 10 -12l-2 -21q-2 -12 -13 -12h-282l-36 -289h312q12 0 11 -12
l-3 -22q-1 -12 -13 -12z" />
    <glyph glyph-name="emacron" unicode="&#x113;" horiz-adv-x="494" 
d="M159 645h256q6 0 9 -2.5t2 -7.5l-2 -19q-2 -12 -14 -12h-256q-12 0 -11 12l2 18q1 11 14 11zM438 377l-16 -124q-2 -11 -12 -11h-292l-15 -121q-1 -7 -1 -17q0 -34 26.5 -52t90.5 -18q127 0 137 82l3 23q1 12 14 12h25q12 0 10 -12l-3 -24q-7 -59 -50 -91t-140 -32
q-165 0 -165 105q0 8 1 18l33 262q7 60 50.5 92t140.5 32q164 0 164 -105q0 -10 -1 -19zM135 376l-12 -94h253l12 91q1 8 1 16q0 70 -117 70q-127 0 -137 -83z" />
    <glyph glyph-name="Ebreve" unicode="&#x114;" horiz-adv-x="523" 
d="M264 872l-2 -24q-1 -9 -1 -15q0 -28 15 -40.5t53 -12.5q45 0 61.5 19.5t19.5 58.5l1 14q1 10 12 10h19q11 0 9 -10l-1 -12q-5 -57 -32 -86t-92 -29q-105 0 -105 85q0 8 1 19l2 23q1 10 13 10h18q10 0 9 -10zM426 0h-354q-12 0 -10 12l80 656q2 12 14 12h341q12 0 11 -12
l-3 -22q-1 -12 -14 -12h-299l-31 -254h281q11 0 10 -12l-2 -21q-2 -12 -13 -12h-282l-36 -289h312q12 0 11 -12l-3 -22q-1 -12 -13 -12z" />
    <glyph glyph-name="ebreve" unicode="&#x115;" horiz-adv-x="494" 
d="M217 683l-2 -23q-1 -10 -1 -16q0 -27 15 -40t52 -13q44 0 61 20t20 59l1 13q1 10 13 10h18q11 0 10 -10l-2 -12q-10 -59 -35 -87t-89 -28q-104 0 -104 86q0 8 1 18l2 23q1 10 12 10h18q11 0 10 -10zM438 377l-16 -124q-2 -11 -12 -11h-292l-15 -121q-1 -7 -1 -17
q0 -34 26.5 -52t90.5 -18q127 0 137 82l3 23q1 12 14 12h25q12 0 10 -12l-3 -24q-7 -59 -50 -91t-140 -32q-165 0 -165 105q0 8 1 18l33 262q7 60 50.5 92t140.5 32q164 0 164 -105q0 -10 -1 -19zM135 376l-12 -94h253l12 91q1 8 1 16q0 70 -117 70q-127 0 -137 -83z" />
    <glyph glyph-name="Edotaccent" unicode="&#x116;" horiz-adv-x="523" 
d="M365 838l-9 -77q-1 -11 -13 -11h-29q-12 0 -11 11l9 77q2 12 13 12h30q11 0 10 -12zM426 0h-354q-12 0 -10 12l80 656q2 12 14 12h341q12 0 11 -12l-3 -22q-1 -12 -14 -12h-299l-31 -254h281q11 0 10 -12l-2 -21q-2 -12 -13 -12h-282l-36 -289h312q12 0 11 -12l-3 -22
q-1 -12 -13 -12z" />
    <glyph glyph-name="edotaccent" unicode="&#x117;" horiz-adv-x="494" 
d="M311 675l-9 -77q-2 -12 -13 -12h-29q-12 0 -11 12l9 77q2 12 13 12h30q11 0 10 -12zM438 377l-16 -124q-2 -11 -12 -11h-292l-15 -121q-1 -7 -1 -17q0 -34 26.5 -52t90.5 -18q127 0 137 82l3 23q1 12 14 12h25q12 0 10 -12l-3 -24q-7 -59 -50 -91t-140 -32
q-165 0 -165 105q0 8 1 18l33 262q7 60 50.5 92t140.5 32q164 0 164 -105q0 -10 -1 -19zM135 376l-12 -94h253l12 91q1 8 1 16q0 70 -117 70q-127 0 -137 -83z" />
    <glyph glyph-name="Eogonek" unicode="&#x118;" horiz-adv-x="523" 
d="M426 0h-26q-35 0 -53 -20.5t-18 -47.5q0 -43 56 -43h29q14 0 12 -12l-1 -14q-1 -12 -14 -12h-39q-38 0 -61.5 17.5t-23.5 54.5q0 47 38 77h-253q-12 0 -10 12l80 656q2 12 14 12h341q12 0 11 -12l-3 -22q-1 -12 -14 -12h-299l-31 -254h281q11 0 10 -12l-2 -21
q-2 -12 -13 -12h-282l-36 -289h312q12 0 11 -12l-3 -22q-1 -12 -13 -12z" />
    <glyph glyph-name="eogonek" unicode="&#x119;" horiz-adv-x="494" 
d="M438 377l-16 -124q-2 -11 -12 -11h-292l-15 -121q-2 -18 -2 -19q0 -68 118 -68q127 0 137 82l3 23q1 12 14 12h25q12 0 10 -12l-3 -24q-7 -57 -51 -91l-27.5 -22t-19 -25.5t-11.5 -40.5q0 -47 60 -47h31q13 0 12 -12l-1 -14q-1 -12 -15 -12h-39q-40 0 -65 18.5t-25 56.5
t27 71q-32 -5 -66 -5q-165 0 -165 105q0 11 1 18l33 262q7 60 50.5 92t140.5 32q164 0 164 -105q0 -10 -1 -19zM135 376l-12 -94h253l12 91q1 7 1 16q0 70 -117 70q-127 0 -137 -83z" />
    <glyph glyph-name="Ecaron" unicode="&#x11a;" horiz-adv-x="523" 
d="M279 866l49 -92l72 92q9 12 18 12h24q14 0 5 -12l-93 -115q-8 -11 -19 -11h-19q-11 0 -18 12l-65 114q-3 4 -0.5 8t8.5 4h24q8 0 14 -12zM426 0h-354q-12 0 -10 12l80 656q2 12 14 12h341q12 0 11 -12l-3 -22q-1 -12 -14 -12h-299l-31 -254h281q11 0 10 -12l-2 -21
q-2 -12 -13 -12h-282l-36 -289h312q12 0 11 -12l-3 -22q-1 -12 -13 -12z" />
    <glyph glyph-name="ecaron" unicode="&#x11b;" horiz-adv-x="494" 
d="M229 696l49 -92l71 92q10 12 19 12h24q14 0 4 -12l-92 -115q-8 -11 -20 -11h-19q-10 0 -17 12l-65 114q-7 12 8 12h23q9 0 15 -12zM438 377l-16 -124q-2 -11 -12 -11h-292l-15 -121q-1 -7 -1 -17q0 -34 26.5 -52t90.5 -18q127 0 137 82l3 23q1 12 14 12h25q12 0 10 -12
l-3 -24q-7 -59 -50 -91t-140 -32q-165 0 -165 105q0 8 1 18l33 262q7 60 50.5 92t140.5 32q164 0 164 -105q0 -10 -1 -19zM135 376l-12 -94h253l12 91q1 8 1 16q0 70 -117 70q-127 0 -137 -83z" />
    <glyph glyph-name="Gcircumflex" unicode="&#x11c;" horiz-adv-x="568" 
d="M355 844l-72 -93q-7 -11 -17 -11h-24q-13 0 -5 11l91 115q10 12 20 12h20q12 0 17 -11l64 -116q5 -11 -7 -11h-22q-10 0 -16 11zM301 319h183q13 0 11 -12l-21 -174q-16 -141 -221 -141q-189 0 -189 118q0 15 1 25l50 412q8 66 57 103.5t163 37.5q190 0 190 -121
q0 -12 -1 -23l-6 -47q-2 -12 -13 -12h-28q-13 0 -11 12l5 42q1 9 1 18q0 85 -140 85q-82 0 -120 -27t-44 -76l-49 -396q-1 -10 -1 -20q0 -85 139 -85q152 0 165 101l17 134h-143q-12 0 -11 12l2 22q1 12 14 12z" />
    <glyph glyph-name="gcircumflex" unicode="&#x11d;" horiz-adv-x="520" 
d="M298 674l-72 -93q-7 -11 -17 -11h-25q-14 0 -5 11l92 115q9 12 20 12h20q11 0 17 -11l64 -116q6 -11 -7 -11h-22q-10 0 -16 11zM176 -8q-62 0 -93.5 28t-31.5 76q0 10 1 19l33 263q15 123 151 123q97 0 167 -62l7 41q3 13 13 13h26q12 0 10 -13l-69 -564
q-7 -60 -51.5 -92t-142.5 -32h-135q-13 0 -11 12l3 21q1 12 13 12h135q127 0 137 83l16 132q-83 -60 -178 -60zM136 371l-31 -247q-1 -5 -1 -17q0 -68 89 -68q85 0 167 59l37 296q-70 60 -153 60q-50 0 -76.5 -23t-31.5 -60z" />
    <glyph glyph-name="Gbreve" unicode="&#x11e;" horiz-adv-x="568" 
d="M273 872l-2 -24q-1 -9 -1 -15q0 -28 15 -40.5t53 -12.5q45 0 61.5 19.5t19.5 58.5l1 14q1 10 12 10h19q11 0 9 -10l-1 -12q-5 -57 -32 -86t-92 -29q-105 0 -105 85q0 8 1 19l2 23q1 10 13 10h18q10 0 9 -10zM301 319h183q13 0 11 -12l-21 -174q-16 -141 -221 -141
q-189 0 -189 118q0 15 1 25l50 412q8 66 57 103.5t163 37.5q190 0 190 -121q0 -12 -1 -23l-6 -47q-2 -12 -13 -12h-28q-13 0 -11 12l5 42q1 9 1 18q0 85 -140 85q-82 0 -120 -27t-44 -76l-49 -396q-1 -10 -1 -20q0 -85 139 -85q152 0 165 101l17 134h-143q-12 0 -11 12l2 22
q1 12 14 12z" />
    <glyph glyph-name="gbreve" unicode="&#x11f;" horiz-adv-x="520" 
d="M219 683l-2 -23q-1 -10 -1 -16q0 -27 15 -40t52 -13q44 0 61 20t20 59l1 13q1 10 13 10h18q11 0 10 -10l-2 -12q-10 -59 -35 -87t-89 -28q-104 0 -104 86q0 8 1 18l2 23q1 10 12 10h18q11 0 10 -10zM176 -8q-62 0 -93.5 28t-31.5 76q0 10 1 19l33 263q15 123 151 123
q97 0 167 -62l7 41q3 13 13 13h26q12 0 10 -13l-69 -564q-7 -60 -51.5 -92t-142.5 -32h-135q-13 0 -11 12l3 21q1 12 13 12h135q127 0 137 83l16 132q-83 -60 -178 -60zM136 371l-31 -247q-1 -5 -1 -17q0 -68 89 -68q85 0 167 59l37 296q-70 60 -153 60q-50 0 -76.5 -23
t-31.5 -60z" />
    <glyph glyph-name="Gdotaccent" unicode="&#x120;" horiz-adv-x="568" 
d="M366 837l-9 -77q-1 -11 -13 -11h-29q-12 0 -11 11l9 77q1 12 13 12h30q11 0 10 -12zM301 319h183q13 0 11 -12l-21 -174q-16 -141 -221 -141q-189 0 -189 118q0 15 1 25l50 412q8 66 57 103.5t163 37.5q190 0 190 -121q0 -12 -1 -23l-6 -47q-2 -12 -13 -12h-28
q-13 0 -11 12l5 42q1 9 1 18q0 85 -140 85q-82 0 -120 -27t-44 -76l-49 -396q-1 -10 -1 -20q0 -85 139 -85q152 0 165 101l17 134h-143q-12 0 -11 12l2 22q1 12 14 12z" />
    <glyph glyph-name="gdotaccent" unicode="&#x121;" horiz-adv-x="520" 
d="M314 675l-9 -77q-1 -12 -13 -12h-29q-12 0 -11 12l9 77q2 12 13 12h30q12 0 10 -12zM176 -8q-62 0 -93.5 28t-31.5 76q0 10 1 19l33 263q15 123 151 123q97 0 167 -62l7 41q3 13 13 13h26q12 0 10 -13l-69 -564q-7 -60 -51.5 -92t-142.5 -32h-135q-13 0 -11 12l3 21
q1 12 13 12h135q127 0 137 83l16 132q-83 -60 -178 -60zM136 371l-31 -247q-1 -5 -1 -17q0 -68 89 -68q85 0 167 59l37 296q-70 60 -153 60q-50 0 -76.5 -23t-31.5 -60z" />
    <glyph glyph-name="Gcommaaccent" unicode="&#x122;" horiz-adv-x="568" 
d="M301 319h183q13 0 11 -12l-21 -174q-16 -141 -221 -141q-189 0 -189 118q0 15 1 25l50 412q8 66 57 103.5t163 37.5q190 0 190 -121q0 -12 -1 -23l-6 -47q-2 -12 -13 -12h-28q-13 0 -11 12l5 42q1 9 1 18q0 85 -140 85q-82 0 -120 -27t-44 -76l-49 -396q-1 -10 -1 -20
q0 -85 139 -85q152 0 165 101l17 134h-143q-12 0 -11 12l2 22q1 12 14 12zM223 -89l4 27q1 12 13 12h22q12 0 10 -12l-3 -29q-5 -48 -51 -114q-6 -9 -16 -6l-17 5q-10 3 -3 15q35 58 41 102z" />
    <glyph glyph-name="gcommaaccent" unicode="&#x123;" horiz-adv-x="520" 
d="M304 612l-4 -27q-2 -12 -13 -12h-22q-11 0 -10 12l3 29q5 48 51 114q6 9 16 6l17 -5q10 -3 3 -15q-35 -58 -41 -102zM176 -8q-62 0 -93.5 28t-31.5 76q0 10 1 19l33 263q15 123 151 123q97 0 167 -62l7 41q3 13 13 13h26q12 0 10 -13l-69 -564q-7 -60 -51.5 -92
t-142.5 -32h-135q-13 0 -11 12l3 21q1 12 13 12h135q127 0 137 83l16 132q-83 -60 -178 -60zM136 371l-31 -247q-1 -5 -1 -17q0 -68 89 -68q85 0 167 59l37 296q-70 60 -153 60q-50 0 -76.5 -23t-31.5 -60z" />
    <glyph glyph-name="Hcircumflex" unicode="&#x124;" horiz-adv-x="610" 
d="M367 844l-72 -93q-7 -11 -17 -11h-24q-13 0 -5 11l91 115q10 12 20 12h20q12 0 17 -11l64 -116q5 -11 -7 -11h-22q-10 0 -16 11zM196 668l-35 -282h312l34 282q1 12 14 12h30q11 0 9 -12l-80 -656q-2 -12 -12 -12h-30q-12 0 -11 12l40 328h-311l-41 -328q-1 -12 -12 -12
h-30q-13 0 -11 12l80 656q2 12 14 12h30q12 0 10 -12z" />
    <glyph glyph-name="hcircumflex" unicode="&#x125;" horiz-adv-x="526" 
d="M174 844l-72 -93q-7 -11 -17 -11h-24q-13 0 -5 11l91 115q10 12 20 12h20q11 0 17 -11l64 -116q6 -11 -7 -11h-22q-10 0 -16 11zM183 687l-30 -247q81 61 179 61q61 0 93 -28t32 -75q0 -7 -1 -17l-45 -369q-1 -12 -14 -12h-28q-11 0 -10 12l43 359q1 5 1 14q0 69 -89 69
q-88 0 -167 -60l-46 -382q-1 -12 -13 -12h-29q-11 0 -10 12l82 675q1 12 14 12h29q10 0 9 -12z" />
    <glyph glyph-name="Hbar" unicode="&#x126;" horiz-adv-x="612" 
d="M117 12q-1 -12 -12 -12h-30q-13 0 -11 12l60 489h-37q-13 0 -11 12l1 15q1 12 13 12h38l16 128q2 12 14 12h30q12 0 10 -12l-16 -128h312l15 128q1 12 14 12h30q11 0 9 -12l-16 -128h38q12 0 11 -12l-1 -15q-2 -12 -13 -12h-39l-60 -489q-2 -12 -12 -12h-30q-12 0 -11 12
l40 328h-311zM163 386h312l14 115h-312z" />
    <glyph glyph-name="hbar" unicode="&#x127;" horiz-adv-x="526" 
d="M101 12q-1 -12 -13 -12h-29q-11 0 -10 12l67 551h-47q-13 0 -12 12l2 15q1 12 13 12h49l10 85q1 12 14 12h29q10 0 9 -12l-10 -85h162q12 0 11 -12l-2 -15q-2 -12 -13 -12h-163l-15 -123q81 61 179 61q61 0 93 -28t32 -75q0 -7 -1 -17l-45 -369q-1 -12 -14 -12h-28
q-11 0 -10 12l43 359q1 5 1 14q0 69 -89 69q-88 0 -167 -60z" />
    <glyph glyph-name="Itilde" unicode="&#x128;" horiz-adv-x="246" 
d="M119 828q-18 0 -25 -10.5t-11 -38.5l-2 -14q-1 -11 -14 -11h-16q-11 0 -9 14l4 22q8 43 26 61t48 18q28 0 52 -21l40 -36q18 -16 32 -16q18 0 25.5 11t11.5 43l1 9q1 11 14 11h16q11 0 9 -13l-3 -21q-12 -81 -75 -81q-27 0 -52 22l-41 36q-19 15 -31 15zM196 668
l-81 -656q-1 -12 -12 -12h-30q-13 0 -11 12l80 656q2 12 14 12h30q12 0 10 -12z" />
    <glyph glyph-name="itilde" unicode="&#x129;" horiz-adv-x="217" 
d="M80 654q-17 0 -24 -10.5t-12 -39.5l-2 -13q-1 -11 -14 -11h-16q-12 0 -9 13l4 21q8 43 26 62t48 19q27 0 52 -22l40 -36q18 -16 32 -16q18 0 25.5 11t11.5 43l1 9q1 11 14 11h16q11 0 9 -13l-3 -21q-12 -80 -74 -80q-31 0 -53 21l-41 36q-20 16 -31 16zM157 480l-57 -468
q-2 -12 -14 -12h-28q-11 0 -10 12l57 468q2 13 13 13h29q11 0 10 -13z" />
    <glyph glyph-name="Imacron" unicode="&#x12a;" horiz-adv-x="246" 
d="M57 820h256q6 0 9 -2.5t2 -7.5l-2 -19q-2 -12 -13 -12h-257q-12 0 -11 12l2 18q1 11 14 11zM196 668l-81 -656q-1 -12 -12 -12h-30q-13 0 -11 12l80 656q2 12 14 12h30q12 0 10 -12z" />
    <glyph glyph-name="imacron" unicode="&#x12b;" horiz-adv-x="217" 
d="M26 645h256q6 0 9 -2.5t2 -7.5l-2 -19q-1 -12 -14 -12h-256q-13 0 -11 12l2 18q1 11 14 11zM157 480l-57 -468q-2 -12 -14 -12h-28q-11 0 -10 12l57 468q2 13 13 13h29q11 0 10 -13z" />
    <glyph glyph-name="Ibreve" unicode="&#x12c;" horiz-adv-x="246" 
d="M113 872l-2 -24q-1 -9 -1 -15q0 -28 15 -40.5t53 -12.5q45 0 61.5 19.5t19.5 58.5l1 14q1 10 12 10h19q11 0 9 -10l-1 -12q-5 -57 -32 -86t-92 -29q-105 0 -105 85q0 8 1 19l2 23q1 10 13 10h18q10 0 9 -10zM196 668l-81 -656q-1 -12 -12 -12h-30q-13 0 -11 12l80 656
q2 12 14 12h30q12 0 10 -12z" />
    <glyph glyph-name="ibreve" unicode="&#x12d;" horiz-adv-x="217" 
d="M80 683l-2 -23q-1 -10 -1 -16q0 -27 15 -40t52 -13q44 0 61 20t20 59l1 13q1 10 13 10h18q11 0 10 -10l-2 -12q-10 -59 -35 -87t-89 -28q-104 0 -104 86q0 8 1 18l2 23q1 10 12 10h18q11 0 10 -10zM157 480l-57 -468q-2 -12 -14 -12h-28q-11 0 -10 12l57 468q2 13 13 13
h29q11 0 10 -13z" />
    <glyph glyph-name="Iogonek" unicode="&#x12e;" horiz-adv-x="247" 
d="M196 668l-80 -656q-2 -12 -13 -12h-6q-34 -6 -52 -27t-18 -44q0 -40 57 -40h22q14 0 12 -12l-2 -14q-1 -12 -14 -12h-31q-85 0 -85 69q0 67 78 104l79 644q1 12 14 12h29q12 0 10 -12z" />
    <glyph glyph-name="iogonek" unicode="&#x12f;" horiz-adv-x="222" 
d="M186 687l-11 -95q-1 -12 -13 -12h-29q-11 0 -10 12l11 95q2 12 14 12h29q10 0 9 -12zM162 480l-58 -468q-2 -12 -13 -12h-4q-37 -8 -54.5 -28.5t-17.5 -43.5q0 -39 56 -39h23q12 0 11 -12l-1 -14q-1 -12 -14 -12h-30q-37 0 -61.5 16.5t-24.5 52.5q0 32 21.5 60t57.5 45
l57 455q2 13 12 13h29q12 0 11 -13z" />
    <glyph glyph-name="Idotaccent" unicode="&#x130;" horiz-adv-x="246" 
d="M217 838l-9 -77q-1 -11 -13 -11h-29q-12 0 -11 11l9 77q2 12 13 12h30q11 0 10 -12zM196 668l-81 -656q-1 -12 -12 -12h-30q-13 0 -11 12l80 656q2 12 14 12h30q12 0 10 -12z" />
    <glyph glyph-name="dotlessi" unicode="&#x131;" horiz-adv-x="218" 
d="M158 480l-57 -468q-1 -12 -14 -12h-28q-11 0 -10 12l57 468q2 13 13 13h29q11 0 10 -13z" />
    <glyph glyph-name="IJ" unicode="&#x132;" horiz-adv-x="739" 
d="M196 668l-81 -656q-1 -12 -12 -12h-30q-13 0 -11 12l80 656q2 12 14 12h30q12 0 10 -12zM316 174l-4 -32q-2 -16 -2 -23q0 -39 27.5 -60t93.5 -21q74 0 104.5 26t37.5 77l66 527q1 12 12 12h30q13 0 11 -12l-66 -535q-9 -67 -52 -104t-147 -37q-170 0 -170 118q0 9 2 27
l5 37q1 12 13 12h29q12 0 10 -12z" />
    <glyph glyph-name="ij" unicode="&#x133;" horiz-adv-x="438" 
d="M183 687l-11 -95q-2 -12 -13 -12h-29q-12 0 -10 12l11 95q1 12 14 12h29q10 0 9 -12zM403 687l-12 -95q-1 -12 -12 -12h-29q-12 0 -11 12l12 95q1 12 13 12h29q11 0 10 -12zM159 480l-58 -468q-1 -12 -13 -12h-29q-11 0 -10 12l58 468q2 13 12 13h29q12 0 11 -13z
M378 480l-70 -564q-7 -60 -51 -92t-140 -32h-7q-12 0 -10 12l2 21q2 12 13 12h5q126 0 136 83l70 560q2 13 13 13h29q12 0 10 -13z" />
    <glyph glyph-name="Jcircumflex" unicode="&#x134;" horiz-adv-x="492" 
d="M433 844l-72 -93q-7 -11 -17 -11h-24q-13 0 -5 11l91 115q10 12 20 12h20q12 0 17 -11l64 -116q5 -11 -7 -11h-22q-10 0 -16 11zM69 174l-4 -32q-2 -16 -2 -23q0 -39 27.5 -60t93.5 -21q74 0 104.5 26t37.5 77l66 527q2 12 12 12h30q12 0 11 -12l-66 -535
q-9 -67 -52 -104t-147 -37q-170 0 -170 118q0 9 2 27l5 37q1 12 13 12h29q11 0 10 -12z" />
    <glyph glyph-name="jcircumflex" unicode="&#x135;" horiz-adv-x="219" 
d="M149 674l-72 -93q-7 -11 -17 -11h-25q-14 0 -5 11l92 115q9 12 20 12h20q11 0 17 -11l64 -116q5 -11 -7 -11h-22q-10 0 -16 11zM159 480l-70 -565q-7 -60 -51 -91.5t-140 -31.5h-7q-11 0 -10 12l2 20q1 12 13 12h5q126 0 136 84l70 560q2 13 13 13h29q12 0 10 -13z" />
    <glyph glyph-name="Kcommaaccent" unicode="&#x136;" horiz-adv-x="538" 
d="M236 344l248 -332q3 -4 0.5 -8t-7.5 -4h-40q-9 0 -18 12l-230 308h-36l-38 -308q-1 -12 -12 -12h-30q-12 0 -11 12l80 656q1 12 14 12h30q12 0 10 -12l-38 -307h32l283 308q11 11 21 11h37q14 0 4 -12zM204 -89l4 27q2 12 13 12h22q11 0 10 -12l-3 -29q-5 -48 -51 -114
q-6 -9 -16 -6l-17 5q-10 3 -3 15q35 58 41 102z" />
    <glyph glyph-name="kcommaaccent" unicode="&#x137;" horiz-adv-x="454" 
d="M88 0h-29q-11 0 -10 12l82 675q1 12 14 12h29q10 0 9 -12l-47 -389h32l204 183q12 12 21 12h37q7 0 8.5 -4.5t-3.5 -8.5l-223 -201l191 -267q3 -4 1 -8t-8 -4h-35q-9 0 -18 12l-175 245h-37l-30 -245q-1 -12 -13 -12zM173 -89l4 27q1 12 13 12h22q12 0 10 -12l-3 -29
q-5 -48 -51 -114q-6 -9 -16 -6l-17 5q-10 3 -3 15q35 58 41 102z" />
    <glyph glyph-name="kgreenlandic" unicode="&#x138;" horiz-adv-x="454" 
d="M88 0h-29q-11 0 -10 12l58 469q1 12 13 12h29q12 0 10 -12l-23 -183h33l203 183q12 12 21 12h38q7 0 8.5 -4.5t-3.5 -8.5l-223 -201l191 -267q3 -4 0.5 -8t-8.5 -4h-34q-10 0 -19 12l-175 245h-37l-30 -245q-1 -12 -13 -12z" />
    <glyph glyph-name="Lacute" unicode="&#x139;" horiz-adv-x="476" 
d="M298 866l-94 -119q-7 -7 -15 -7h-26q-12 0 -4 11l86 117q8 10 16 10h33q14 0 4 -12zM196 668l-77 -622h296q11 0 10 -12l-2 -22q-1 -12 -13 -12h-339q-11 0 -9 12l80 656q2 12 14 12h30q12 0 10 -12z" />
    <glyph glyph-name="lacute" unicode="&#x13a;" horiz-adv-x="219" 
d="M284 866l-94 -119q-7 -7 -15 -7h-26q-12 0 -4 11l86 117q8 10 16 10h33q14 0 4 -12zM183 687l-82 -675q-1 -12 -13 -12h-29q-11 0 -10 12l82 675q1 12 14 12h29q10 0 9 -12z" />
    <glyph glyph-name="Lcommaaccent" unicode="&#x13b;" horiz-adv-x="476" 
d="M196 668l-77 -622h296q11 0 10 -12l-2 -22q-1 -12 -13 -12h-339q-11 0 -9 12l80 656q2 12 14 12h30q12 0 10 -12zM202 -89l4 27q2 12 13 12h22q11 0 10 -12l-3 -29q-5 -48 -51 -114q-6 -9 -16 -6l-17 5q-10 3 -3 15q35 58 41 102z" />
    <glyph glyph-name="lcommaaccent" unicode="&#x13c;" horiz-adv-x="219" 
d="M183 687l-82 -675q-1 -12 -13 -12h-29q-11 0 -10 12l82 675q1 12 14 12h29q10 0 9 -12zM39 -89l4 27q1 12 13 12h22q12 0 10 -12l-3 -29q-5 -48 -51 -114q-6 -9 -16 -6l-17 5q-10 3 -3 15q35 58 41 102z" />
    <glyph glyph-name="Lcaron" unicode="&#x13d;" horiz-adv-x="476" 
d="M363 659l4 27q1 12 13 12h22q12 0 10 -12l-3 -29q-5 -48 -51 -114q-6 -9 -16 -6l-17 5q-10 3 -3 15q35 58 41 102zM196 668l-77 -622h296q11 0 10 -12l-2 -22q-1 -12 -13 -12h-339q-11 0 -9 12l80 656q2 12 14 12h30q12 0 10 -12z" />
    <glyph glyph-name="lcaron" unicode="&#x13e;" horiz-adv-x="231" 
d="M263 674l4 27q1 12 13 12h22q12 0 10 -12l-3 -29q-5 -48 -51 -114q-6 -9 -16 -6l-17 5q-10 3 -3 15q35 58 41 102zM183 687l-82 -675q-1 -12 -13 -12h-29q-11 0 -10 12l82 675q1 12 14 12h29q10 0 9 -12z" />
    <glyph glyph-name="Ldot" unicode="&#x13f;" horiz-adv-x="476" 
d="M196 668l-77 -622h296q11 0 10 -12l-2 -22q-1 -12 -13 -12h-339q-11 0 -9 12l80 656q2 12 14 12h30q12 0 10 -12zM400 393l-10 -77q-1 -12 -12 -12h-30q-11 0 -10 12l9 77q1 12 13 12h30q12 0 10 -12z" />
    <glyph glyph-name="ldot" unicode="&#x140;" horiz-adv-x="261" 
d="M183 687l-82 -675q-1 -12 -13 -12h-29q-11 0 -10 12l82 675q1 12 14 12h29q10 0 9 -12zM278 393l-10 -77q-1 -12 -12 -12h-30q-11 0 -10 12l9 77q1 12 13 12h30q12 0 10 -12z" />
    <glyph glyph-name="Lslash" unicode="&#x141;" horiz-adv-x="482" 
d="M431 12q-1 -12 -13 -12h-339q-11 0 -9 12l36 299l-65 -26q-10 -4 -14 7l-4 10q-5 11 8 16l80 31l39 319q2 12 14 12h30q12 0 10 -12l-37 -297l67 26q11 4 14 -6l4 -12q3 -10 -9 -15l-81 -31l-35 -287h296q11 0 10 -12z" />
    <glyph glyph-name="lslash" unicode="&#x142;" horiz-adv-x="251" 
d="M117 12q-1 -12 -13 -12h-29q-11 0 -10 12l36 299l-67 -26q-12 -5 -15 7l-2 10q-3 11 8 16l81 32l41 337q1 12 14 12h29q10 0 9 -12l-38 -316l65 26q11 5 15 -6l3 -12q3 -10 -8 -15l-80 -31z" />
    <glyph glyph-name="Nacute" unicode="&#x143;" horiz-adv-x="608" 
d="M477 866l-94 -119q-7 -7 -15 -7h-26q-12 0 -4 11l86 117q8 10 16 10h33q14 0 4 -12zM558 668l-80 -656q-2 -12 -13 -12h-25q-8 0 -11 6l-224 509q-8 17 -23 61l-70 -564q-2 -12 -13 -12h-27q-12 0 -10 12l80 656q1 12 14 12h24q8 0 10 -5l226 -513q14 -30 23 -57l69 563
q2 12 13 12h27q12 0 10 -12z" />
    <glyph glyph-name="nacute" unicode="&#x144;" horiz-adv-x="526" 
d="M429 696l-94 -119q-7 -7 -16 -7h-25q-13 0 -5 11l87 117q8 10 16 10h33q13 0 4 -12zM119 493h26q13 0 11 -12l-4 -42q83 62 180 62q61 0 93 -28t32 -75q0 -12 -1 -19l-45 -367q-1 -12 -14 -12h-28q-11 0 -10 12l44 357q1 5 1 15q0 70 -89 70t-168 -60l-46 -382
q-1 -12 -13 -12h-29q-11 0 -10 12l58 469q1 12 12 12z" />
    <glyph glyph-name="Ncommaaccent" unicode="&#x145;" horiz-adv-x="608" 
d="M558 668l-80 -656q-2 -12 -13 -12h-25q-8 0 -11 6l-224 509q-8 17 -23 61l-70 -564q-2 -12 -13 -12h-27q-12 0 -10 12l80 656q1 12 14 12h24q8 0 10 -5l226 -513q14 -30 23 -57l69 563q2 12 13 12h27q12 0 10 -12zM241 -89l4 27q1 12 13 12h22q12 0 10 -12l-3 -29
q-5 -48 -51 -114q-6 -9 -16 -6l-17 5q-10 3 -3 15q35 58 41 102z" />
    <glyph glyph-name="ncommaaccent" unicode="&#x146;" horiz-adv-x="526" 
d="M119 493h26q13 0 11 -12l-4 -42q83 62 180 62q61 0 93 -28t32 -75q0 -12 -1 -19l-45 -367q-1 -12 -14 -12h-28q-11 0 -10 12l44 357q1 5 1 15q0 70 -89 70t-168 -60l-46 -382q-1 -12 -13 -12h-29q-11 0 -10 12l58 469q1 12 12 12zM196 -89l4 27q2 12 13 12h22
q11 0 10 -12l-3 -29q-5 -48 -51 -114q-6 -9 -16 -6l-17 5q-10 3 -3 15q35 58 41 102z" />
    <glyph glyph-name="Ncaron" unicode="&#x147;" horiz-adv-x="608" 
d="M306 866l49 -92l72 92q9 12 18 12h24q14 0 5 -12l-93 -115q-8 -11 -19 -11h-19q-11 0 -18 12l-65 114q-3 4 -0.5 8t8.5 4h24q8 0 14 -12zM558 668l-80 -656q-2 -12 -13 -12h-25q-8 0 -11 6l-224 509q-8 17 -23 61l-70 -564q-2 -12 -13 -12h-27q-12 0 -10 12l80 656
q1 12 14 12h24q8 0 10 -5l226 -513q14 -30 23 -57l69 563q2 12 13 12h27q12 0 10 -12z" />
    <glyph glyph-name="ncaron" unicode="&#x148;" horiz-adv-x="526" 
d="M253 696l49 -92l71 92q10 12 19 12h24q14 0 4 -12l-92 -115q-8 -11 -20 -11h-19q-10 0 -17 12l-65 114q-7 12 8 12h23q9 0 15 -12zM119 493h26q13 0 11 -12l-4 -42q83 62 180 62q61 0 93 -28t32 -75q0 -12 -1 -19l-45 -367q-1 -12 -14 -12h-28q-11 0 -10 12l44 357
q1 5 1 15q0 70 -89 70t-168 -60l-46 -382q-1 -12 -13 -12h-29q-11 0 -10 12l58 469q1 12 12 12z" />
    <glyph glyph-name="napostrophe" unicode="&#x149;" horiz-adv-x="525" 
d="M125 674l4 27q1 12 13 12h22q12 0 10 -12l-3 -29q-5 -48 -51 -114q-6 -9 -16 -6l-17 5q-10 3 -3 15q35 58 41 102zM118 493h26q12 0 11 -12l-4 -42q83 62 180 62q61 0 93 -28t32 -75q0 -12 -1 -19l-45 -367q-2 -12 -14 -12h-28q-11 0 -10 12l44 357q1 5 1 15q0 70 -89 70
t-168 -60l-46 -382q-2 -12 -13 -12h-29q-11 0 -10 12l58 469q2 12 12 12z" />
    <glyph glyph-name="Eng" unicode="&#x14a;" horiz-adv-x="608" 
d="M558 668l-93 -753q-7 -60 -51 -91.5t-140 -31.5h-6q-12 0 -11 12l3 20q2 12 13 12h4q129 0 139 84l11 90l-222 505q-8 17 -23 61l-70 -564q-2 -12 -12 -12h-27q-13 0 -11 12l80 656q2 12 14 12h24q8 0 10 -5l226 -513q14 -30 23 -57l69 563q2 12 14 12h26q12 0 10 -12z
" />
    <glyph glyph-name="eng" unicode="&#x14b;" horiz-adv-x="526" 
d="M457 399q0 -13 -1 -19l-58 -465q-7 -60 -51 -91.5t-140 -31.5h-6q-13 0 -11 12l3 20q1 12 13 12h5q126 0 136 84l56 450q1 5 1 15q0 70 -89 70t-168 -60l-46 -383q-1 -12 -14 -12h-28q-11 0 -10 12l57 469q2 12 13 12h25q12 0 11 -12l-3 -42q80 62 179 62q61 0 93.5 -28
t32.5 -74z" />
    <glyph glyph-name="Omacron" unicode="&#x14c;" horiz-adv-x="587" 
d="M228 820h256q6 0 9 -2.5t2 -7.5l-2 -19q-1 -12 -13 -12h-257q-13 0 -11 12l2 18q1 11 14 11zM65 135l50 412q16 141 225 141q194 0 194 -122q0 -9 -1 -21l-50 -412q-16 -141 -226 -141q-193 0 -193 120q0 12 1 23zM430 141l49 396q1 6 1 18q0 87 -145 87
q-153 0 -167 -103l-49 -396q-1 -6 -1 -18q0 -87 144 -87q154 0 168 103z" />
    <glyph glyph-name="omacron" unicode="&#x14d;" horiz-adv-x="507" 
d="M169 645h256q6 0 9 -2.5t2 -7.5l-2 -19q-2 -12 -14 -12h-256q-12 0 -11 12l2 18q1 11 14 11zM51 115l32 262q15 124 196 124q167 0 167 -106q0 -10 -1 -18l-32 -262q-15 -123 -195 -123q-168 0 -168 106q0 10 1 17zM361 119l32 255q1 6 1 12q0 71 -120 71
q-129 0 -139 -83l-32 -255q-1 -6 -1 -13q0 -70 120 -70q129 0 139 83z" />
    <glyph glyph-name="Obreve" unicode="&#x14e;" horiz-adv-x="587" 
d="M293 872l-2 -24q-1 -9 -1 -15q0 -28 15 -40.5t53 -12.5q45 0 61.5 19.5t19.5 58.5l1 14q1 10 12 10h19q11 0 9 -10l-1 -12q-5 -57 -32 -86t-92 -29q-105 0 -105 85q0 8 1 19l2 23q1 10 13 10h18q10 0 9 -10zM65 135l50 412q16 141 225 141q194 0 194 -122q0 -9 -1 -21
l-50 -412q-16 -141 -226 -141q-193 0 -193 120q0 12 1 23zM430 141l49 396q1 6 1 18q0 87 -145 87q-153 0 -167 -103l-49 -396q-1 -6 -1 -18q0 -87 144 -87q154 0 168 103z" />
    <glyph glyph-name="obreve" unicode="&#x14f;" horiz-adv-x="507" 
d="M227 683l-2 -23q-1 -10 -1 -16q0 -27 15 -40t52 -13q44 0 61 20t20 59l1 13q1 10 13 10h18q11 0 10 -10l-2 -12q-10 -59 -35 -87t-89 -28q-104 0 -104 86q0 8 1 18l2 23q1 10 12 10h18q11 0 10 -10zM51 115l32 262q15 124 196 124q167 0 167 -106q0 -10 -1 -18l-32 -262
q-15 -123 -195 -123q-168 0 -168 106q0 10 1 17zM361 119l32 255q1 6 1 12q0 71 -120 71q-129 0 -139 -83l-32 -255q-1 -6 -1 -13q0 -70 120 -70q129 0 139 83z" />
    <glyph glyph-name="Ohungarumlaut" unicode="&#x150;" horiz-adv-x="587" 
d="M509 866l-92 -116q-8 -10 -18 -10h-23q-13 0 -4 11l87 115q10 12 19 12h27q14 0 4 -12zM406 866l-78 -115q-8 -11 -17 -11h-22q-13 0 -6 11l73 115q7 12 18 12h26q15 0 6 -12zM65 135l50 412q16 141 225 141q194 0 194 -122q0 -9 -1 -21l-50 -412q-16 -141 -226 -141
q-193 0 -193 120q0 12 1 23zM430 141l49 396q1 6 1 18q0 87 -145 87q-153 0 -167 -103l-49 -396q-1 -6 -1 -18q0 -87 144 -87q154 0 168 103z" />
    <glyph glyph-name="ohungarumlaut" unicode="&#x151;" horiz-adv-x="507" 
d="M448 696l-94 -116q-8 -10 -18 -10h-21q-12 0 -5 11l87 115q9 12 20 12h27q13 0 4 -12zM346 696l-79 -115q-8 -11 -18 -11h-21q-13 0 -6 11l72 115q9 12 18 12h27q16 0 7 -12zM51 115l32 262q15 124 196 124q167 0 167 -106q0 -10 -1 -18l-32 -262q-15 -123 -195 -123
q-168 0 -168 106q0 10 1 17zM361 119l32 255q1 6 1 12q0 71 -120 71q-129 0 -139 -83l-32 -255q-1 -6 -1 -13q0 -70 120 -70q129 0 139 83z" />
    <glyph glyph-name="OE" unicode="&#x152;" horiz-adv-x="875" 
d="M414 12l3 24q-55 -44 -160 -44q-194 0 -194 120q0 5 2 23l50 412q16 141 219 141q110 0 158 -45l3 25q1 12 13 12h342q11 0 10 -11l-3 -22q-1 -12 -13 -12h-300l-31 -255h281q12 0 11 -11l-2 -21q-1 -12 -14 -12h-281l-36 -291h311q12 0 11 -11l-2 -22q-1 -12 -13 -12
h-354q-13 0 -11 12zM118 124q0 -87 144 -87q155 0 167 93l51 414q5 42 -26.5 70.5t-118.5 28.5q-153 0 -167 -103l-49 -397q-1 -7 -1 -19z" />
    <glyph glyph-name="oe" unicode="&#x153;" horiz-adv-x="804" 
d="M713 114q-10 -60 -51 -91t-137 -31q-114 0 -149 51q-41 -51 -159 -51q-168 0 -168 105q0 9 1 18l33 262q7 60 51 92t142 32q115 0 147 -53q42 53 160 53q165 0 165 -105q0 -10 -1 -19l-15 -122q-1 -11 -12 -11h-292l-16 -127q-1 -7 -1 -14q0 -70 117 -70q127 0 137 82
l3 23q1 12 14 12h25q11 0 10 -12zM686 281l12 95q1 8 1 13q0 71 -118 71q-127 0 -137 -84l-12 -95h254zM361 119l32 255q4 37 -21.5 60.5t-97.5 23.5q-129 0 -139 -84l-32 -255q-1 -8 -1 -14q0 -70 120 -70q129 0 139 84z" />
    <glyph glyph-name="Racute" unicode="&#x154;" horiz-adv-x="584" 
d="M442 866l-94 -119q-7 -7 -15 -7h-26q-12 0 -4 11l86 117q8 10 16 10h33q14 0 4 -12zM115 12q-1 -12 -12 -12h-30q-12 0 -11 12l80 656q3 12 13 12h193q102 0 148 -34.5t46 -92.5q0 -10 -1 -21l-13 -113q-14 -109 -144 -131l102 -276q3 -12 -12 -12h-29q-12 0 -16 12
l-99 271q-9 -1 -28 -1h-154zM345 634h-153l-38 -307h153q156 0 169 99l12 99q1 10 1 18q0 91 -144 91z" />
    <glyph glyph-name="racute" unicode="&#x155;" horiz-adv-x="336" 
d="M328 696l-94 -119q-7 -7 -16 -7h-25q-13 0 -5 11l87 117q8 10 16 10h33q13 0 4 -12zM328 500q14 0 12 -12l-3 -25q-1 -11 -14 -11q-48 -1 -97 -23.5t-80 -45.5l-45 -371q-1 -12 -13 -12h-29q-11 0 -10 12l58 469q1 12 12 12h26q13 0 11 -12l-5 -54q93 73 177 73z" />
    <glyph glyph-name="Rcommaaccent" unicode="&#x156;" horiz-adv-x="584" 
d="M115 12q-1 -12 -12 -12h-30q-12 0 -11 12l80 656q3 12 13 12h193q102 0 148 -34.5t46 -92.5q0 -10 -1 -21l-13 -113q-14 -109 -144 -131l102 -276q3 -12 -12 -12h-29q-12 0 -16 12l-99 271q-9 -1 -28 -1h-154zM345 634h-153l-38 -307h153q156 0 169 99l12 99q1 10 1 18
q0 91 -144 91zM227 -89l4 27q1 12 13 12h22q12 0 10 -12l-3 -29q-5 -48 -51 -114q-6 -9 -16 -6l-17 5q-10 3 -3 15q35 58 41 102z" />
    <glyph glyph-name="rcommaaccent" unicode="&#x157;" horiz-adv-x="336" 
d="M328 500q14 0 12 -12l-3 -25q-1 -11 -14 -11q-48 -1 -97 -23.5t-80 -45.5l-45 -371q-1 -12 -13 -12h-29q-11 0 -10 12l58 469q1 12 12 12h26q13 0 11 -12l-5 -54q93 73 177 73zM39 -89l4 27q1 12 13 12h22q12 0 10 -12l-3 -29q-5 -48 -51 -114q-6 -9 -16 -6l-17 5
q-10 3 -3 15q35 58 41 102z" />
    <glyph glyph-name="Rcaron" unicode="&#x158;" horiz-adv-x="584" 
d="M279 866l49 -92l72 92q9 12 18 12h24q14 0 5 -12l-93 -115q-8 -11 -19 -11h-19q-11 0 -18 12l-65 114q-3 4 -0.5 8t8.5 4h24q8 0 14 -12zM115 12q-1 -12 -12 -12h-30q-12 0 -11 12l80 656q3 12 13 12h193q102 0 148 -34.5t46 -92.5q0 -10 -1 -21l-13 -113
q-14 -109 -144 -131l102 -276q3 -12 -12 -12h-29q-12 0 -16 12l-99 271q-9 -1 -28 -1h-154zM345 634h-153l-38 -307h153q156 0 169 99l12 99q1 10 1 18q0 91 -144 91z" />
    <glyph glyph-name="rcaron" unicode="&#x159;" horiz-adv-x="336" 
d="M162 696l49 -92l71 92q10 12 19 12h24q14 0 4 -12l-92 -115q-8 -11 -20 -11h-19q-10 0 -17 12l-65 114q-7 12 8 12h23q9 0 15 -12zM328 500q14 0 12 -12l-3 -25q-1 -11 -14 -11q-48 -1 -97 -23.5t-80 -45.5l-45 -371q-1 -12 -13 -12h-29q-11 0 -10 12l58 469q1 12 12 12
h26q13 0 11 -12l-5 -54q93 73 177 73z" />
    <glyph glyph-name="Sacute" unicode="&#x15a;" horiz-adv-x="548" 
d="M441 866l-94 -119q-7 -7 -15 -7h-26q-12 0 -4 11l86 117q8 10 16 10h33q14 0 4 -12zM448 498l5 43q1 10 1 18q0 84 -138 84q-152 0 -162 -101l-4 -40q-1 -10 -1 -14q0 -46 54 -68l181 -73q87 -36 87 -112q0 -8 -1 -18l-9 -84q-14 -141 -224 -141q-193 0 -193 121
q0 13 1 22l6 50q1 13 13 13h29q12 0 11 -13l-6 -44q-1 -9 -1 -19q0 -85 143 -85q155 0 168 102l9 73q1 9 1 13q0 48 -72 78l-169 68q-36 14 -58.5 42t-22.5 65q0 9 1 18l6 51q8 66 56 103.5t161 37.5q186 0 186 -120q0 -11 -1 -21l-5 -49q-2 -12 -13 -12h-29q-11 0 -10 12z
" />
    <glyph glyph-name="sacute" unicode="&#x15b;" horiz-adv-x="470" 
d="M374 696l-94 -119q-7 -7 -16 -7h-25q-13 0 -5 11l87 117q8 10 16 10h33q13 0 4 -12zM362 361l3 23q1 9 1 19q0 25 -28 42t-84 17q-118 0 -128 -68l-4 -30q-1 -7 -1 -12q0 -39 48 -54l152 -47q34 -10 53 -31t19 -48q0 -9 -1 -19l-6 -56q-5 -47 -51.5 -76t-137.5 -29
q-81 0 -122.5 26.5t-41.5 66.5q0 8 1 18l3 25q1 11 13 11h27q9 0 8 -11l-2 -22q-1 -11 -1 -16q0 -26 30.5 -42t87.5 -16q130 0 138 69l5 43q1 10 1 15q0 32 -55 50l-148 48q-30 9 -50 32t-20 52q0 7 1 15l5 39q13 106 180 106q79 0 118.5 -27.5t39.5 -68.5q0 -6 -1 -18
l-3 -26q-1 -11 -13 -11h-26q-12 0 -10 11z" />
    <glyph glyph-name="Scircumflex" unicode="&#x15c;" horiz-adv-x="548" 
d="M332 844l-72 -93q-7 -11 -17 -11h-24q-13 0 -5 11l91 115q10 12 20 12h20q11 0 17 -11l64 -116q6 -11 -7 -11h-22q-10 0 -16 11zM448 498l5 43q1 10 1 18q0 84 -138 84q-152 0 -162 -101l-4 -40q-1 -10 -1 -14q0 -46 54 -68l181 -73q87 -36 87 -112q0 -8 -1 -18l-9 -84
q-14 -141 -224 -141q-193 0 -193 121q0 13 1 22l6 50q1 13 13 13h29q12 0 11 -13l-6 -44q-1 -9 -1 -19q0 -85 143 -85q155 0 168 102l9 73q1 9 1 13q0 48 -72 78l-169 68q-36 14 -58.5 42t-22.5 65q0 9 1 18l6 51q8 66 56 103.5t161 37.5q186 0 186 -120q0 -11 -1 -21
l-5 -49q-2 -12 -13 -12h-29q-11 0 -10 12z" />
    <glyph glyph-name="scircumflex" unicode="&#x15d;" horiz-adv-x="470" 
d="M268 674l-72 -93q-7 -11 -17 -11h-25q-14 0 -5 11l92 115q9 12 20 12h20q11 0 17 -11l64 -116q6 -11 -7 -11h-22q-10 0 -16 11zM362 361l3 23q1 9 1 19q0 25 -28 42t-84 17q-118 0 -128 -68l-4 -30q-1 -7 -1 -12q0 -39 48 -54l152 -47q34 -10 53 -31t19 -48q0 -9 -1 -19
l-6 -56q-5 -47 -51.5 -76t-137.5 -29q-81 0 -122.5 26.5t-41.5 66.5q0 8 1 18l3 25q1 11 13 11h27q9 0 8 -11l-2 -22q-1 -11 -1 -16q0 -26 30.5 -42t87.5 -16q130 0 138 69l5 43q1 10 1 15q0 32 -55 50l-148 48q-30 9 -50 32t-20 52q0 7 1 15l5 39q13 106 180 106
q79 0 118.5 -27.5t39.5 -68.5q0 -6 -1 -18l-3 -26q-1 -11 -13 -11h-26q-12 0 -10 11z" />
    <glyph glyph-name="Scedilla" unicode="&#x15e;" horiz-adv-x="548" 
d="M336 -122q0 -47 -27 -68t-65 -21h-117q-12 0 -10 12l1 11q2 12 13 12h111q54 0 54 50q0 37 -43 37h-59q-20 0 -14 15l27 67q-163 9 -163 120q0 13 1 22l6 50q1 13 13 13h29q12 0 11 -13l-6 -44q-1 -9 -1 -19q0 -85 143 -85q155 0 168 102l9 73q1 9 1 13q0 48 -72 78
l-169 68q-36 14 -58.5 42t-22.5 65q0 9 1 18l6 51q8 66 56 103.5t161 37.5q186 0 186 -120q0 -11 -1 -21l-5 -49q-2 -12 -13 -12h-29q-11 0 -10 12l5 43q1 10 1 18q0 84 -138 84q-152 0 -162 -101l-4 -40q-1 -10 -1 -14q0 -46 54 -68l181 -73q87 -36 87 -112q0 -8 -1 -18
l-9 -84q-14 -141 -217 -141l-19 -46h39q30 0 51 -17t21 -51z" />
    <glyph glyph-name="scedilla" unicode="&#x15f;" horiz-adv-x="470" 
d="M299 -122q0 -47 -27 -68t-65 -21h-117q-12 0 -10 12l1 11q1 12 13 12h111q54 0 54 50q0 37 -43 37h-59q-20 0 -14 15l27 67q-68 4 -102.5 30t-34.5 62q0 8 1 18l3 25q1 11 13 11h27q9 0 8 -11l-2 -22q-1 -11 -1 -16q0 -26 30.5 -42t87.5 -16q130 0 138 69l5 43q1 10 1 15
q0 32 -55 50l-148 48q-30 9 -50 32t-20 52q0 7 1 15l5 39q13 106 180 106q79 0 118.5 -27.5t39.5 -68.5q0 -6 -1 -18l-3 -26q-1 -11 -13 -11h-26q-12 0 -10 11l3 23q1 9 1 19q0 25 -28 42t-84 17q-118 0 -128 -68l-4 -30q-1 -7 -1 -12q0 -39 48 -54l152 -47q34 -10 53 -31
t19 -48q0 -9 -1 -19l-6 -56q-5 -46 -49.5 -75t-129.5 -30l-19 -46h39q30 0 51 -17t21 -51z" />
    <glyph glyph-name="Scaron" unicode="&#x160;" horiz-adv-x="548" 
d="M271 866l49 -92l72 92q9 12 18 12h24q14 0 5 -12l-93 -115q-8 -11 -19 -11h-19q-11 0 -18 12l-65 114q-3 4 -0.5 8t8.5 4h24q8 0 14 -12zM448 498l5 43q1 10 1 18q0 84 -138 84q-152 0 -162 -101l-4 -40q-1 -10 -1 -14q0 -46 54 -68l181 -73q87 -36 87 -112q0 -8 -1 -18
l-9 -84q-14 -141 -224 -141q-193 0 -193 121q0 13 1 22l6 50q1 13 13 13h29q12 0 11 -13l-6 -44q-1 -9 -1 -19q0 -85 143 -85q155 0 168 102l9 73q1 9 1 13q0 48 -72 78l-169 68q-36 14 -58.5 42t-22.5 65q0 9 1 18l6 51q8 66 56 103.5t161 37.5q186 0 186 -120
q0 -11 -1 -21l-5 -49q-2 -12 -13 -12h-29q-11 0 -10 12z" />
    <glyph glyph-name="scaron" unicode="&#x161;" horiz-adv-x="470" 
d="M205 696l49 -92l71 92q10 12 19 12h24q14 0 4 -12l-92 -115q-8 -11 -20 -11h-19q-10 0 -17 12l-65 114q-7 12 8 12h23q9 0 15 -12zM362 361l3 23q1 9 1 19q0 25 -28 42t-84 17q-118 0 -128 -68l-4 -30q-1 -7 -1 -12q0 -39 48 -54l152 -47q34 -10 53 -31t19 -48
q0 -9 -1 -19l-6 -56q-5 -47 -51.5 -76t-137.5 -29q-81 0 -122.5 26.5t-41.5 66.5q0 8 1 18l3 25q1 11 13 11h27q9 0 8 -11l-2 -22q-1 -11 -1 -16q0 -26 30.5 -42t87.5 -16q130 0 138 69l5 43q1 10 1 15q0 32 -55 50l-148 48q-30 9 -50 32t-20 52q0 7 1 15l5 39
q13 106 180 106q79 0 118.5 -27.5t39.5 -68.5q0 -6 -1 -18l-3 -26q-1 -11 -13 -11h-26q-12 0 -10 11z" />
    <glyph glyph-name="uni0162" unicode="&#x162;" horiz-adv-x="486" 
d="M301 -122q0 -47 -27 -68t-65 -21h-118q-11 0 -9 12l1 11q0 12 13 12h111q54 0 54 50q0 37 -43 37h-59q-20 0 -14 15l37 93l76 615h-181q-12 0 -11 12l3 22q0 12 13 12h415q12 0 11 -12l-2 -22q-1 -12 -13 -12h-182l-77 -622q-1 -12 -11 -12h-12l-21 -54h38q30 0 51.5 -17
t21.5 -51z" />
    <glyph glyph-name="uni0163" unicode="&#x163;" horiz-adv-x="320" 
d="M242 -122q0 -47 -27 -68t-65 -21h-117q-10 0 -10 12l1 11q2 12 13 12h111q54 0 54 50q0 37 -43 37h-59q-18 0 -14 15l37 95q-45 23 -45 80q0 12 1 22l40 325h-63q-12 0 -10 12l1 16q1 12 14 12l62 3h1l14 108q1 13 13 13h29q12 0 10 -13l-14 -108h119q12 0 10 -11l-2 -21
q0 -11 -14 -11h-118l-39 -318q-1 -8 -1 -16q0 -34 26.5 -51.5t90.5 -17.5h15q11 0 11 -12l-2 -21q0 -12 -14 -12h-22q-48 0 -80 9l-25 -63h39q30 0 51 -17t21 -51z" />
    <glyph glyph-name="Tcaron" unicode="&#x164;" horiz-adv-x="486" 
d="M247 866l49 -92l72 92q9 12 18 12h24q14 0 5 -12l-93 -115q-8 -11 -19 -11h-19q-11 0 -18 12l-65 114q-3 4 -0.5 8t8.5 4h24q8 0 14 -12zM82 680h415q12 0 11 -12l-2 -22q-1 -12 -13 -12h-182l-77 -622q-2 -12 -12 -12h-30q-12 0 -11 12l77 622h-181q-12 0 -11 12l3 22
q1 12 13 12z" />
    <glyph glyph-name="tcaron" unicode="&#x165;" horiz-adv-x="320" 
d="M283 674l4 27q1 12 13 12h22q12 0 10 -12l-3 -29q-5 -48 -51 -114q-6 -9 -16 -6l-17 5q-10 3 -3 15q35 58 41 102zM171 448l-39 -318q-1 -9 -1 -18q0 -34 26.5 -50.5t90.5 -16.5h15q13 0 11 -12l-2 -21q-1 -12 -14 -12h-22q-85 0 -121.5 26t-36.5 75q0 11 1 22l40 325
h-63q-12 0 -10 12l1 16q1 12 14 12l62 3h1l14 108q1 13 13 13h29q12 0 10 -13l-14 -108h119q12 0 10 -11l-2 -21q-1 -11 -14 -11h-118z" />
    <glyph glyph-name="Tbar" unicode="&#x166;" horiz-adv-x="521" 
d="M250 12q-2 -12 -12 -12h-30q-12 0 -11 12l50 403h-152q-13 0 -11 12l2 15q1 12 12 12h154l22 180h-181q-12 0 -11 12l3 22q1 12 13 12h415q12 0 11 -12l-2 -22q-1 -12 -13 -12h-182l-22 -180h155q12 0 11 -12l-2 -15q-1 -12 -12 -12h-157z" />
    <glyph glyph-name="tbar" unicode="&#x167;" horiz-adv-x="325" 
d="M276 12q-1 -12 -14 -12h-22q-85 0 -121.5 26t-36.5 75q0 11 1 22l21 172h-61q-13 0 -12 12l2 15q1 12 13 12h63l14 114h-63q-12 0 -10 12l1 16q1 12 14 12l62 3h1l14 108q1 13 13 13h29q12 0 10 -13l-14 -108h119q12 0 10 -11l-2 -21q-1 -11 -14 -11h-118l-14 -114h119
q12 0 11 -12l-2 -15q-1 -12 -12 -12h-121l-20 -165q-1 -9 -1 -18q0 -34 26.5 -50.5t90.5 -16.5h15q13 0 11 -12z" />
    <glyph glyph-name="Utilde" unicode="&#x168;" horiz-adv-x="603" 
d="M298 828q-18 0 -25 -10.5t-11 -38.5l-2 -14q-1 -11 -14 -11h-16q-11 0 -9 14l4 22q8 43 26 61t48 18q28 0 52 -21l40 -36q18 -16 32 -16q18 0 25.5 11t11.5 43l1 9q1 11 14 11h16q11 0 9 -13l-3 -21q-12 -81 -75 -81q-27 0 -52 22l-41 36q-19 15 -31 15zM192 668
l-64 -521q-2 -20 -2 -22q0 -87 144 -87q155 0 169 103l65 527q2 12 12 12h30q12 0 11 -12l-66 -535q-18 -141 -225 -141q-194 0 -194 122q0 9 2 23l65 531q1 12 13 12h30q11 0 10 -12z" />
    <glyph glyph-name="utilde" unicode="&#x169;" horiz-adv-x="520" 
d="M233 654q-17 0 -24 -10.5t-12 -39.5l-2 -13q-1 -11 -14 -11h-16q-12 0 -9 13l4 21q8 43 26 62t48 19q27 0 52 -22l40 -36q18 -16 32 -16q18 0 25.5 11t11.5 43l1 9q1 11 14 11h16q11 0 9 -13l-3 -21q-12 -80 -74 -80q-30 0 -53 21l-41 36q-20 16 -31 16zM353 12l3 40
q-78 -60 -173 -60q-61 0 -93.5 28t-32.5 74q0 8 1 17l46 369q1 13 13 13h29q11 0 10 -13l-45 -358q-1 -8 -1 -15q0 -68 90 -68q83 0 161 59l47 382q1 13 13 13h29q11 0 10 -13l-58 -468q-2 -12 -12 -12h-26q-12 0 -11 12z" />
    <glyph glyph-name="Umacron" unicode="&#x16a;" horiz-adv-x="603" 
d="M234 820h256q6 0 9 -2.5t2 -7.5l-2 -19q-1 -12 -13 -12h-257q-13 0 -11 12l2 18q1 11 14 11zM192 668l-64 -521q-2 -20 -2 -22q0 -87 144 -87q155 0 169 103l65 527q2 12 12 12h30q12 0 11 -12l-66 -535q-18 -141 -225 -141q-194 0 -194 122q0 9 2 23l65 531q1 12 13 12
h30q11 0 10 -12z" />
    <glyph glyph-name="umacron" unicode="&#x16b;" horiz-adv-x="520" 
d="M166 645h256q6 0 9 -2.5t2 -7.5l-2 -19q-1 -12 -14 -12h-256q-13 0 -11 12l2 18q1 11 14 11zM353 12l3 40q-78 -60 -173 -60q-61 0 -93.5 28t-32.5 74q0 8 1 17l46 369q1 13 13 13h29q11 0 10 -13l-45 -358q-1 -8 -1 -15q0 -68 90 -68q83 0 161 59l47 382q1 13 13 13h29
q11 0 10 -13l-58 -468q-2 -12 -12 -12h-26q-12 0 -11 12z" />
    <glyph glyph-name="Ubreve" unicode="&#x16c;" horiz-adv-x="603" 
d="M294 872l-2 -24q-1 -9 -1 -15q0 -28 15 -40.5t53 -12.5q45 0 61.5 19.5t19.5 58.5l1 14q1 10 12 10h19q11 0 9 -10l-1 -12q-5 -57 -32 -86t-92 -29q-105 0 -105 85q0 8 1 19l2 23q1 10 13 10h18q10 0 9 -10zM192 668l-64 -521q-2 -20 -2 -22q0 -87 144 -87q155 0 169 103
l65 527q2 12 12 12h30q12 0 11 -12l-66 -535q-18 -141 -225 -141q-194 0 -194 122q0 9 2 23l65 531q1 12 13 12h30q11 0 10 -12z" />
    <glyph glyph-name="ubreve" unicode="&#x16d;" horiz-adv-x="520" 
d="M228 683l-2 -23q-1 -10 -1 -16q0 -27 15 -40t52 -13q44 0 61 20t20 59l1 13q1 10 13 10h18q11 0 10 -10l-2 -12q-10 -59 -35 -87t-89 -28q-104 0 -104 86q0 8 1 18l2 23q1 10 12 10h18q11 0 10 -10zM353 12l3 40q-78 -60 -173 -60q-61 0 -93.5 28t-32.5 74q0 8 1 17
l46 369q1 13 13 13h29q11 0 10 -13l-45 -358q-1 -8 -1 -15q0 -68 90 -68q83 0 161 59l47 382q1 13 13 13h29q11 0 10 -13l-58 -468q-2 -12 -12 -12h-26q-12 0 -11 12z" />
    <glyph glyph-name="Uring" unicode="&#x16e;" horiz-adv-x="603" 
d="M452 809l-2 -22q-5 -64 -96 -64q-47 0 -66.5 19.5t-16.5 54.5l2 22q5 65 97 65q45 0 65 -21t17 -54zM418 792l1 14q2 24 -9 36t-43 12q-59 0 -62 -40l-1 -13q-2 -25 9 -36.5t42 -11.5q60 0 63 39zM192 668l-64 -521q-2 -20 -2 -22q0 -87 144 -87q155 0 169 103l65 527
q2 12 12 12h30q12 0 11 -12l-66 -535q-18 -141 -225 -141q-194 0 -194 122q0 9 2 23l65 531q1 12 13 12h30q11 0 10 -12z" />
    <glyph glyph-name="uring" unicode="&#x16f;" horiz-adv-x="520" 
d="M386 641l-2 -21q-7 -64 -96 -64q-46 0 -66 19t-17 54l2 23q5 65 97 65q46 0 65.5 -20.5t16.5 -55.5zM352 625l1 13q2 24 -9 36.5t-43 12.5q-59 0 -62 -40l-1 -13q-2 -25 9 -36.5t42 -11.5q60 0 63 39zM353 12l3 40q-78 -60 -173 -60q-61 0 -93.5 28t-32.5 74q0 8 1 17
l46 369q1 13 13 13h29q11 0 10 -13l-45 -358q-1 -8 -1 -15q0 -68 90 -68q83 0 161 59l47 382q1 13 13 13h29q11 0 10 -13l-58 -468q-2 -12 -12 -12h-26q-12 0 -11 12z" />
    <glyph glyph-name="Uhungarumlaut" unicode="&#x170;" horiz-adv-x="603" 
d="M515 866l-92 -116q-8 -10 -18 -10h-23q-13 0 -4 11l87 115q10 12 19 12h27q14 0 4 -12zM412 866l-78 -115q-8 -11 -17 -11h-22q-13 0 -6 11l73 115q7 12 18 12h26q15 0 6 -12zM192 668l-64 -521q-2 -20 -2 -22q0 -87 144 -87q155 0 169 103l65 527q2 12 12 12h30
q12 0 11 -12l-66 -535q-18 -141 -225 -141q-194 0 -194 122q0 9 2 23l65 531q1 12 13 12h30q11 0 10 -12z" />
    <glyph glyph-name="uhungarumlaut" unicode="&#x171;" horiz-adv-x="520" 
d="M444 696l-94 -116q-8 -10 -18 -10h-21q-12 0 -5 11l87 115q9 12 20 12h27q13 0 4 -12zM342 696l-79 -115q-8 -11 -18 -11h-21q-13 0 -6 11l72 115q9 12 18 12h27q16 0 7 -12zM353 12l3 40q-78 -60 -173 -60q-61 0 -93.5 28t-32.5 74q0 8 1 17l46 369q1 13 13 13h29
q11 0 10 -13l-45 -358q-1 -8 -1 -15q0 -68 90 -68q83 0 161 59l47 382q1 13 13 13h29q11 0 10 -13l-58 -468q-2 -12 -12 -12h-26q-12 0 -11 12z" />
    <glyph glyph-name="Uogonek" unicode="&#x172;" horiz-adv-x="604" 
d="M192 668l-64 -521q-2 -22 -2 -23q0 -86 144 -86q155 0 169 103l65 527q2 12 12 12h30q12 0 11 -12l-66 -535q-8 -58 -43 -90q-3 -2 -18 -14.5t-22 -19.5t-18 -19.5t-15.5 -26.5t-4.5 -30q0 -44 59 -44h35q14 0 12 -12l-2 -14q-1 -12 -14 -12h-43q-89 0 -89 72q0 42 30 78
q-45 -9 -92 -9q-194 0 -194 122q0 9 2 23l65 531q1 12 13 12h30q11 0 10 -12z" />
    <glyph glyph-name="uogonek" unicode="&#x173;" horiz-adv-x="520" 
d="M387 -149h-23q-87 0 -87 70q0 28 20.5 55t56.5 43l2 33q-78 -60 -173 -60q-61 0 -93.5 28t-32.5 74q0 8 1 17l46 369q1 13 13 13h29q11 0 10 -13l-45 -358q-1 -8 -1 -15q0 -68 90 -68q83 0 161 59l47 382q1 13 13 13h29q11 0 10 -13l-58 -468q-2 -12 -12 -12h-3
q-32 -7 -50 -28t-18 -43q0 -40 57 -40h15q13 0 12 -12l-1 -14q-1 -12 -15 -12z" />
    <glyph glyph-name="Wcircumflex" unicode="&#x174;" horiz-adv-x="809" 
d="M465 844l-72 -93q-7 -11 -17 -11h-24q-13 0 -5 11l91 115q10 12 20 12h20q12 0 17 -11l64 -116q5 -11 -7 -11h-22q-10 0 -16 11zM480 668l67 -506q4 -35 6 -74q9 29 25 74l191 506q5 12 16 12h27q12 0 8 -12l-247 -656q-5 -12 -16 -12h-30q-13 0 -14 12l-66 514
q-5 43 -6 65q-9 -35 -21 -66l-194 -513q-4 -12 -16 -12h-30q-12 0 -14 12l-86 656q-1 12 12 12h30q10 0 12 -12l67 -506q3 -18 6 -71q17 48 26 71l191 506q4 12 15 12h28q11 0 13 -12z" />
    <glyph glyph-name="wcircumflex" unicode="&#x175;" horiz-adv-x="661" 
d="M371 674l-72 -93q-7 -11 -17 -11h-25q-14 0 -5 11l92 115q9 12 20 12h20q11 0 17 -11l64 -116q5 -11 -7 -11h-22q-10 0 -16 11zM620 493h25q6 0 8.5 -4t0.5 -9l-192 -469q-4 -11 -14 -11h-33q-10 0 -11 11l-51 366q-2 17 -5 47q-7 -24 -17 -48l-149 -365q-4 -11 -15 -11
h-34q-10 0 -11 11l-65 469q-2 13 11 13h29q10 0 12 -13l52 -371q4 -23 5 -40q5 20 12 40l148 371q5 13 16 13h33q10 0 12 -13l52 -374q2 -10 4 -36q7 23 12 36l149 374q5 13 16 13z" />
    <glyph glyph-name="Ycircumflex" unicode="&#x176;" horiz-adv-x="515" 
d="M321 844l-72 -93q-7 -11 -17 -11h-24q-13 0 -5 11l91 115q10 12 20 12h20q12 0 17 -11l64 -116q5 -11 -7 -11h-22q-10 0 -16 11zM129 668l123 -308q8 -21 10 -34q9 20 18 34l201 308q9 12 16 12h32q15 0 7 -12l-252 -386l-34 -270q-1 -12 -13 -12h-29q-12 0 -11 12
l32 264l-157 392q-4 12 10 12h33q9 0 14 -12z" />
    <glyph glyph-name="ycircumflex" unicode="&#x177;" horiz-adv-x="438" 
d="M258 674l-72 -93q-7 -11 -17 -11h-25q-14 0 -5 11l92 115q9 12 20 12h20q11 0 17 -11l64 -116q6 -11 -7 -11h-22q-10 0 -16 11zM431 480l-314 -676q-5 -12 -14 -12h-24q-15 0 -9 12l89 194l-107 482q-3 13 11 13h30q9 0 12 -13l79 -361q4 -19 8 -52q7 23 20 51l167 362
q7 13 16 13h27q16 0 9 -13z" />
    <glyph glyph-name="Ydieresis" unicode="&#x178;" horiz-adv-x="515" 
d="M289 857l-12 -98q-1 -12 -13 -12h-18q-12 0 -10 12l11 98q1 12 14 12h18q11 0 10 -12zM387 857l-12 -98q-1 -12 -13 -12h-18q-12 0 -10 12l11 98q1 12 14 12h18q11 0 10 -12zM129 668l123 -308q8 -21 10 -34q9 20 18 34l201 308q9 12 16 12h32q15 0 7 -12l-252 -386
l-34 -270q-1 -12 -13 -12h-29q-12 0 -11 12l32 264l-157 392q-4 12 10 12h33q9 0 14 -12z" />
    <glyph glyph-name="Zacute" unicode="&#x179;" horiz-adv-x="473" 
d="M398 866l-94 -119q-7 -7 -15 -7h-26q-12 0 -4 11l86 117q8 10 16 10h33q14 0 4 -12zM112 680h347q11 0 10 -12l-2 -22q0 -4 -5 -12l-392 -588h326q12 0 11 -12l-3 -22q-1 -12 -12 -12h-381q-12 0 -11 11l2 21q1 8 8 17l389 585h-293q-12 0 -11 12l3 22q1 12 14 12z" />
    <glyph glyph-name="zacute" unicode="&#x17a;" horiz-adv-x="423" 
d="M353 696l-94 -119q-7 -7 -16 -7h-25q-13 0 -5 11l87 117q8 10 16 10h33q13 0 4 -12zM87 493h299q12 0 10 -11l-2 -20q0 -1 -6 -13l-317 -405h272q12 0 11 -12l-2 -20q-1 -12 -14 -12h-324q-12 0 -11 12l3 20q2 8 5 12l317 405h-247q-11 0 -10 12l2 20q1 12 14 12z" />
    <glyph glyph-name="Zdotaccent" unicode="&#x17b;" horiz-adv-x="473" 
d="M322 838l-9 -77q-1 -11 -13 -11h-29q-12 0 -11 11l9 77q1 12 13 12h30q11 0 10 -12zM112 680h347q11 0 10 -12l-2 -22q0 -4 -5 -12l-392 -588h326q12 0 11 -12l-3 -22q-1 -12 -12 -12h-381q-12 0 -11 11l2 21q1 8 8 17l389 585h-293q-12 0 -11 12l3 22q1 12 14 12z" />
    <glyph glyph-name="zdotaccent" unicode="&#x17c;" horiz-adv-x="423" 
d="M272 675l-9 -77q-1 -12 -13 -12h-29q-12 0 -11 12l9 77q2 12 13 12h30q12 0 10 -12zM87 493h299q12 0 10 -11l-2 -20q0 -1 -6 -13l-317 -405h272q12 0 11 -12l-2 -20q-1 -12 -14 -12h-324q-12 0 -11 12l3 20q2 8 5 12l317 405h-247q-11 0 -10 12l2 20q1 12 14 12z" />
    <glyph glyph-name="Zcaron" unicode="&#x17d;" horiz-adv-x="473" 
d="M238 866l49 -92l72 92q9 12 18 12h24q14 0 5 -12l-93 -115q-8 -11 -19 -11h-19q-11 0 -18 12l-65 114q-3 4 -0.5 8t8.5 4h24q8 0 14 -12zM112 680h347q11 0 10 -12l-2 -22q0 -4 -5 -12l-392 -588h326q12 0 11 -12l-3 -22q-1 -12 -12 -12h-381q-12 0 -11 11l2 21q1 8 8 17
l389 585h-293q-12 0 -11 12l3 22q1 12 14 12z" />
    <glyph glyph-name="zcaron" unicode="&#x17e;" horiz-adv-x="423" 
d="M187 696l49 -92l71 92q10 12 19 12h24q14 0 4 -12l-92 -115q-8 -11 -20 -11h-19q-10 0 -17 12l-65 114q-7 12 8 12h23q9 0 15 -12zM87 493h299q12 0 10 -11l-2 -20q0 -1 -6 -13l-317 -405h272q12 0 11 -12l-2 -20q-1 -12 -14 -12h-324q-12 0 -11 12l3 20q2 8 5 12
l317 405h-247q-11 0 -10 12l2 20q1 12 14 12z" />
    <glyph glyph-name="longs" unicode="&#x17f;" horiz-adv-x="258" 
d="M190 576l-95 -772q-1 -12 -13 -12h-28q-12 0 -11 12l80 645h-65q-12 0 -11 11l2 16q1 12 13 12l56 3h9l12 89q8 59 52 91t141 32h6q12 0 11 -12l-3 -20q-1 -12 -14 -12h-4q-128 0 -138 -83z" />
    <glyph glyph-name="florin" unicode="&#x192;" horiz-adv-x="413" 
d="M66 -88l112 455h-98q-10 0 -10 12l1 20q0 12 14 12h103l42 174q14 59 60.5 91t141.5 32h10q12 0 11 -12l-3 -21q-2 -12 -13 -12h-9q-127 0 -147 -83l-42 -169h103q12 0 10 -12l-2 -20q-2 -12 -13 -12h-108l-111 -459q-15 -59 -62 -91.5t-141 -32.5h-10q-11 0 -9 12l2 20
q1 13 13 13h8q127 0 147 83z" />
    <glyph glyph-name="Aringacute" unicode="&#x1fa;" horiz-adv-x="525" 
d="M309 723q-47 0 -66.5 19.5t-16.5 54.5l2 22q5 58 81 64l54 71q7 10 16 10h33q14 0 4 -12l-60 -71q57 -14 51 -73l-2 -21q-7 -64 -96 -64zM373 792l1 11q2 25 -9 38t-43 13q-59 0 -62 -40l-1 -12q-2 -26 9 -37.5t42 -11.5q60 0 63 39zM295 680h31q12 0 13 -12l122 -656
q3 -12 -9 -12h-31q-10 0 -13 12l-37 194h-241l-83 -194q-6 -12 -15 -12h-29q-13 0 -8 12l283 656q6 12 17 12zM365 249l-51 268q-7 35 -12 107q-22 -74 -35 -105l-118 -270h216z" />
    <glyph glyph-name="aringacute" unicode="&#x1fb;" horiz-adv-x="520" 
d="M289 556q-45 0 -65.5 20t-17.5 54l2 22q5 60 82 64l75 101q7 10 16 10h33q14 0 4 -12l-80 -102q55 -13 49 -72l-2 -21q-7 -64 -96 -64zM353 625l1 11q3 26 -7 38t-45 13q-58 3 -62 -40l-1 -12q-2 -26 9 -37.5t42 -11.5q60 0 63 39zM355 53q-85 -61 -180 -61q-62 0 -93 27
t-31 76q0 10 1 20l33 263q15 123 151 123q97 0 167 -62l7 41q3 13 14 13h25q11 0 10 -13l-58 -468q-1 -12 -13 -12h-26q-11 0 -10 12zM136 371l-32 -250q-1 -8 -1 -14q0 -68 90 -68q85 0 167 59l37 296q-70 60 -153 60q-49 0 -76 -23t-32 -60z" />
    <glyph glyph-name="AEacute" unicode="&#x1fc;" horiz-adv-x="828" 
d="M633 866l-94 -119q-7 -7 -15 -7h-26q-12 0 -4 11l86 117q8 10 16 10h33q14 0 4 -12zM-8 0q-17 0 -8 12l461 656q7 12 21 12h337q11 0 10 -11l-2 -22q-1 -12 -14 -12h-299l-32 -256h282q11 0 10 -11l-2 -20q-2 -12 -14 -12h-281l-36 -291h312q11 0 10 -12l-2 -21
q-1 -12 -13 -12h-348q-7 0 -11 2.5t-3 10.5l24 193h-221l-135 -194q-8 -12 -17 -12h-29zM401 530l-197 -281h195l42 341q-6 -10 -13 -20.5t-15 -22t-12 -17.5z" />
    <glyph glyph-name="aeacute" unicode="&#x1fd;" horiz-adv-x="786" 
d="M548 696l-94 -119q-7 -7 -16 -7h-25q-13 0 -5 11l87 117q8 10 16 10h33q13 0 4 -12zM730 377l-16 -124q-2 -11 -12 -11h-292l-15 -119q-1 -10 -1 -20q0 -69 117 -69q127 0 137 82l3 23q1 12 14 12h24q11 0 10 -12l-3 -25q-7 -59 -49.5 -90.5t-139.5 -31.5q-137 0 -158 72
q-89 -72 -185 -72q-58 0 -93.5 26t-35.5 73q0 9 1 17l6 47q6 50 42 81.5t97 31.5h181l12 101q2 20 2 21q0 70 -114 70q-69 0 -98 -21t-36 -61l-3 -18q-1 -12 -13 -12h-25q-12 0 -11 12l2 18q7 59 49.5 91t138.5 32q115 0 142 -59q40 59 160 59q163 0 163 -105q0 -10 -1 -19z
M426 376l-12 -94h254l12 90q1 9 1 17q0 70 -118 70q-127 0 -137 -83zM175 35q74 0 167 68l15 124h-174q-40 0 -63 -22t-28 -57l-4 -30q-1 -9 -1 -14q0 -69 88 -69z" />
    <glyph glyph-name="Oslashacute" unicode="&#x1fe;" horiz-adv-x="587" 
d="M470 866l-94 -119q-7 -7 -15 -7h-26q-12 0 -4 11l86 117q7 10 16 10h33q14 0 4 -12zM110 -11q-11 -18 -23 -18h-20q-15 0 -4 18l29 49q-29 29 -29 74q0 7 2 23l50 412q16 141 225 141q80 0 131 -23l16 27q9 17 22 17h20q7 0 8 -5.5t-3 -11.5l-30 -50q30 -30 30 -76
q0 -10 -1 -21l-50 -412q-16 -141 -226 -141q-85 0 -131 23zM119 143q-3 -33 6 -52l319 530q-37 21 -109 21q-153 0 -167 -103zM262 38q154 0 168 103l49 396q4 34 -6 53l-320 -530q36 -22 109 -22z" />
    <glyph glyph-name="oslashacute" unicode="&#x1ff;" horiz-adv-x="507" 
d="M401 696l-94 -119q-7 -7 -16 -7h-25q-13 0 -5 11l87 117q8 10 16 10h33q13 0 4 -12zM94 -13q-11 -17 -24 -17h-17q-7 0 -7.5 6t3.5 11l29 43q-28 27 -28 68q0 10 1 17l32 262q15 124 196 124q68 0 107 -18l17 25q11 17 23 17h19q14 0 3 -17l-30 -45q28 -25 28 -68
q0 -8 -1 -18l-32 -262q-15 -123 -195 -123q-69 0 -108 18zM103 119q-3 -28 6 -44l249 367q-28 15 -84 15q-129 0 -139 -83zM222 36q129 0 139 83l32 251q3 32 -7 47l-249 -367q30 -14 85 -14z" />
    <glyph glyph-name="uni0218" unicode="&#x218;" horiz-adv-x="548" 
d="M448 498l5 43q1 10 1 18q0 84 -138 84q-152 0 -162 -101l-4 -40q-1 -10 -1 -14q0 -46 54 -68l181 -73q87 -36 87 -112q0 -8 -1 -18l-9 -84q-14 -141 -224 -141q-193 0 -193 121q0 13 1 22l6 50q1 13 13 13h29q12 0 11 -13l-6 -44q-1 -9 -1 -19q0 -85 143 -85
q155 0 168 102l9 73q1 9 1 13q0 48 -72 78l-169 68q-36 14 -58.5 42t-22.5 65q0 9 1 18l6 51q8 66 56 103.5t161 37.5q186 0 186 -120q0 -11 -1 -21l-5 -49q-2 -12 -13 -12h-29q-11 0 -10 12zM213 -89l4 27q1 12 13 12h22q12 0 10 -12l-3 -29q-5 -48 -51 -114q-6 -9 -16 -6
l-17 5q-10 3 -3 15q35 58 41 102z" />
    <glyph glyph-name="uni0219" unicode="&#x219;" horiz-adv-x="470" 
d="M362 361l3 23q1 9 1 19q0 25 -28 42t-84 17q-118 0 -128 -68l-4 -30q-1 -7 -1 -12q0 -39 48 -54l152 -47q34 -10 53 -31t19 -48q0 -9 -1 -19l-6 -56q-5 -47 -51.5 -76t-137.5 -29q-81 0 -122.5 26.5t-41.5 66.5q0 8 1 18l3 25q1 11 13 11h27q9 0 8 -11l-2 -22
q-1 -11 -1 -16q0 -26 30.5 -42t87.5 -16q130 0 138 69l5 43q1 10 1 15q0 32 -55 50l-148 48q-30 9 -50 32t-20 52q0 7 1 15l5 39q13 106 180 106q79 0 118.5 -27.5t39.5 -68.5q0 -6 -1 -18l-3 -26q-1 -11 -13 -11h-26q-12 0 -10 11zM175 -88l4 27q1 12 13 12h22q12 0 10 -12
l-3 -29q-5 -48 -51 -114q-6 -9 -16 -6l-17 5q-10 3 -3 15q35 58 41 102z" />
    <glyph glyph-name="uni021A" unicode="&#x21a;" horiz-adv-x="486" 
d="M82 680h415q12 0 11 -12l-2 -22q-1 -12 -13 -12h-182l-77 -622q-2 -12 -12 -12h-30q-12 0 -11 12l77 622h-181q-12 0 -11 12l3 22q1 12 13 12zM171 -89l4 27q1 12 13 12h22q12 0 10 -12l-3 -29q-5 -48 -51 -114q-6 -9 -16 -6l-17 5q-10 3 -3 15q35 58 41 102z" />
    <glyph glyph-name="uni021B" unicode="&#x21b;" horiz-adv-x="320" 
d="M171 448l-39 -318q-1 -9 -1 -18q0 -34 26.5 -50.5t90.5 -16.5h15q13 0 11 -12l-2 -21q-1 -12 -14 -12h-22q-85 0 -121.5 26t-36.5 75q0 11 1 22l40 325h-63q-12 0 -10 12l1 16q1 12 14 12l62 3h1l14 108q1 13 13 13h29q12 0 10 -13l-14 -108h119q12 0 10 -11l-2 -21
q-1 -11 -14 -11h-118zM66 -89l4 27q2 12 13 12h22q11 0 10 -12l-3 -29q-5 -48 -51 -114q-6 -9 -16 -6l-17 5q-10 3 -3 15q35 58 41 102z" />
    <glyph glyph-name="dotlessj" unicode="&#x237;" horiz-adv-x="219" 
d="M159 480l-70 -565q-7 -60 -51 -91.5t-140 -31.5h-7q-11 0 -10 12l2 20q1 12 13 12h5q126 0 136 84l70 560q2 13 13 13h29q12 0 10 -13z" />
    <glyph glyph-name="circumflex" unicode="&#x2c6;" horiz-adv-x="345" 
d="M254 674l-72 -93q-7 -11 -17 -11h-25q-14 0 -5 11l92 115q9 12 20 12h20q11 0 17 -11l64 -116q6 -11 -7 -11h-22q-10 0 -16 11z" />
    <glyph glyph-name="caron" unicode="&#x2c7;" horiz-adv-x="345" 
d="M196 696l49 -92l71 92q10 12 19 12h24q14 0 4 -12l-92 -115q-8 -11 -20 -11h-19q-10 0 -17 12l-65 114q-7 12 8 12h23q9 0 15 -12z" />
    <glyph glyph-name="breve" unicode="&#x2d8;" horiz-adv-x="394" 
d="M189 683l-2 -23q-1 -10 -1 -16q0 -27 15 -40t52 -13q44 0 61 20t20 59l1 13q1 10 13 10h18q11 0 10 -10l-2 -12q-10 -59 -35 -87t-89 -28q-104 0 -104 86q0 8 1 18l2 23q1 10 12 10h18q11 0 10 -10z" />
    <glyph glyph-name="dotaccent" unicode="&#x2d9;" horiz-adv-x="237" 
d="M228 675l-9 -77q-1 -12 -13 -12h-29q-12 0 -11 12l9 77q2 12 13 12h30q12 0 10 -12z" />
    <glyph glyph-name="ring" unicode="&#x2da;" horiz-adv-x="326" 
d="M314 641l-2 -21q-7 -64 -96 -64q-46 0 -66 19t-17 54l2 23q5 65 97 65q46 0 65.5 -20.5t16.5 -55.5zM280 625l1 13q2 24 -9 36.5t-43 12.5q-59 0 -62 -40l-1 -13q-2 -25 9 -36.5t42 -11.5q60 0 63 39z" />
    <glyph glyph-name="ogonek" unicode="&#x2db;" horiz-adv-x="225" 
d="M158 -156h-41q-37 0 -59.5 17t-22.5 49q0 64 77 111q10 7 17 3l16 -9q11 -7 1 -14q-64 -37 -64 -81q0 -35 49 -35h31q15 0 12 -12l-3 -17q-1 -12 -13 -12z" />
    <glyph glyph-name="tilde" unicode="&#x2dc;" horiz-adv-x="426" 
d="M226 654q-17 0 -24 -10.5t-12 -39.5l-2 -13q-1 -11 -14 -11h-16q-12 0 -9 13l4 21q8 43 26 62t48 19q27 0 52 -22l40 -36q18 -16 32 -16q18 0 25.5 11t11.5 43l1 9q1 11 14 11h16q11 0 9 -13l-3 -21q-12 -80 -74 -80q-31 0 -53 21l-41 36q-20 16 -31 16z" />
    <glyph glyph-name="hungarumlaut" unicode="&#x2dd;" horiz-adv-x="356" 
d="M368 696l-94 -116q-8 -10 -18 -10h-21q-12 0 -5 11l87 115q9 12 20 12h27q13 0 4 -12zM266 696l-79 -115q-8 -11 -18 -11h-21q-13 0 -6 11l72 115q9 12 18 12h27q16 0 7 -12z" />
    <glyph glyph-name="Delta" unicode="&#x394;" horiz-adv-x="373" 
d="M108 413h157q21 0 21 -21v-157q0 -22 -21 -22h-157q-22 0 -22 22v157q0 21 22 21z" />
    <glyph glyph-name="mu" unicode="&#x3bc;" horiz-adv-x="519" 
d="M354 12l3 41q-76 -61 -168 -61q-73 0 -92 38l-24 -226q-1 -12 -12 -12h-29q-12 0 -11 12l84 676q1 13 13 13h28q12 0 11 -13l-43 -345q-2 -14 -2 -28q0 -70 89 -70q82 0 161 60l47 383q1 13 13 13h29q11 0 10 -13l-58 -468q-1 -12 -13 -12h-25q-12 0 -11 12z" />
    <glyph glyph-name="pi" unicode="&#x3c0;" horiz-adv-x="359" 
d="M70 426h237q11 0 13 -10t-5 -20l-111 -179q-5 -9 -14.5 -9t-15.5 9l-111 179q-4 7 -5 13.5t2 11.5t10 5z" />
    <glyph glyph-name="Wgrave" unicode="&#x1e80;" horiz-adv-x="809" 
d="M427 747l-65 119q-6 12 7 12h31q10 0 15 -10l56 -117q5 -11 -6 -11h-23q-12 0 -15 7zM480 668l67 -506q4 -35 6 -74q9 29 25 74l191 506q5 12 16 12h27q12 0 8 -12l-247 -656q-5 -12 -16 -12h-30q-13 0 -14 12l-66 514q-5 43 -6 65q-9 -35 -21 -66l-194 -513
q-4 -12 -16 -12h-30q-12 0 -14 12l-86 656q-1 12 12 12h30q10 0 12 -12l67 -506q3 -18 6 -71q17 48 26 71l191 506q4 12 15 12h28q11 0 13 -12z" />
    <glyph glyph-name="wgrave" unicode="&#x1e81;" horiz-adv-x="661" 
d="M333 577l-66 119q-6 12 8 12h30q10 0 15 -10l56 -117q6 -11 -6 -11h-23q-11 0 -14 7zM620 493h25q6 0 8.5 -4t0.5 -9l-192 -469q-4 -11 -14 -11h-33q-10 0 -11 11l-51 366q-2 17 -5 47q-7 -24 -17 -48l-149 -365q-4 -11 -15 -11h-34q-10 0 -11 11l-65 469q-2 13 11 13h29
q10 0 12 -13l52 -371q4 -23 5 -40q5 20 12 40l148 371q5 13 16 13h33q10 0 12 -13l52 -374q2 -10 4 -36q7 23 12 36l149 374q5 13 16 13z" />
    <glyph glyph-name="Wacute" unicode="&#x1e82;" horiz-adv-x="809" 
d="M579 866l-94 -119q-7 -7 -15 -7h-26q-12 0 -4 11l86 117q8 10 16 10h33q14 0 4 -12zM480 668l67 -506q4 -35 6 -74q9 29 25 74l191 506q5 12 16 12h27q12 0 8 -12l-247 -656q-5 -12 -16 -12h-30q-13 0 -14 12l-66 514q-5 43 -6 65q-9 -35 -21 -66l-194 -513
q-4 -12 -16 -12h-30q-12 0 -14 12l-86 656q-1 12 12 12h30q10 0 12 -12l67 -506q3 -18 6 -71q17 48 26 71l191 506q4 12 15 12h28q11 0 13 -12z" />
    <glyph glyph-name="wacute" unicode="&#x1e83;" horiz-adv-x="661" 
d="M484 696l-94 -119q-7 -7 -16 -7h-25q-13 0 -5 11l87 117q8 10 16 10h33q13 0 4 -12zM620 493h25q6 0 8.5 -4t0.5 -9l-192 -469q-4 -11 -14 -11h-33q-10 0 -11 11l-51 366q-2 17 -5 47q-7 -24 -17 -48l-149 -365q-4 -11 -15 -11h-34q-10 0 -11 11l-65 469q-2 13 11 13h29
q10 0 12 -13l52 -371q4 -23 5 -40q5 20 12 40l148 371q5 13 16 13h33q10 0 12 -13l52 -374q2 -10 4 -36q7 23 12 36l149 374q5 13 16 13z" />
    <glyph glyph-name="Wdieresis" unicode="&#x1e84;" horiz-adv-x="809" 
d="M438 857l-12 -98q-2 -12 -13 -12h-18q-11 0 -10 12l11 98q2 12 14 12h18q12 0 10 -12zM536 857l-12 -98q-2 -12 -13 -12h-18q-11 0 -10 12l11 98q2 12 14 12h18q12 0 10 -12zM480 668l67 -506q4 -35 6 -74q9 29 25 74l191 506q5 12 16 12h27q12 0 8 -12l-247 -656
q-5 -12 -16 -12h-30q-13 0 -14 12l-66 514q-5 43 -6 65q-9 -35 -21 -66l-194 -513q-4 -12 -16 -12h-30q-12 0 -14 12l-86 656q-1 12 12 12h30q10 0 12 -12l67 -506q3 -18 6 -71q17 48 26 71l191 506q4 12 15 12h28q11 0 13 -12z" />
    <glyph glyph-name="wdieresis" unicode="&#x1e85;" horiz-adv-x="661" 
d="M345 690l-12 -98q-1 -12 -13 -12h-18q-12 0 -10 12l12 98q2 12 13 12h18q11 0 10 -12zM443 690l-12 -98q-1 -12 -13 -12h-18q-12 0 -10 12l12 98q2 12 13 12h18q11 0 10 -12zM620 493h25q6 0 8.5 -4t0.5 -9l-192 -469q-4 -11 -14 -11h-33q-10 0 -11 11l-51 366
q-2 17 -5 47q-7 -24 -17 -48l-149 -365q-4 -11 -15 -11h-34q-10 0 -11 11l-65 469q-2 13 11 13h29q10 0 12 -13l52 -371q4 -23 5 -40q5 20 12 40l148 371q5 13 16 13h33q10 0 12 -13l52 -374q2 -10 4 -36q7 23 12 36l149 374q5 13 16 13z" />
    <glyph glyph-name="Ygrave" unicode="&#x1ef2;" horiz-adv-x="515" 
d="M280 747l-65 119q-6 12 7 12h31q10 0 15 -10l56 -117q6 -11 -6 -11h-23q-11 0 -15 7zM129 668l123 -308q8 -21 10 -34q9 20 18 34l201 308q9 12 16 12h32q15 0 7 -12l-252 -386l-34 -270q-1 -12 -13 -12h-29q-12 0 -11 12l32 264l-157 392q-4 12 10 12h33q9 0 14 -12z
" />
    <glyph glyph-name="ygrave" unicode="&#x1ef3;" horiz-adv-x="438" 
d="M215 577l-66 119q-6 12 8 12h30q10 0 15 -10l56 -117q6 -11 -6 -11h-23q-11 0 -14 7zM431 480l-314 -676q-5 -12 -14 -12h-24q-15 0 -9 12l89 194l-107 482q-3 13 11 13h30q9 0 12 -13l79 -361q4 -19 8 -52q7 23 20 51l167 362q7 13 16 13h27q16 0 9 -13z" />
    <glyph glyph-name="endash" unicode="&#x2013;" horiz-adv-x="525" 
d="M84 311h356q12 0 12 -11v-21q0 -12 -12 -12h-356q-12 0 -12 12v21q0 11 12 11z" />
    <glyph glyph-name="emdash" unicode="&#x2014;" horiz-adv-x="834" 
d="M84 311h665q12 0 12 -11v-21q0 -12 -12 -12h-665q-12 0 -12 12v21q0 11 12 11z" />
    <glyph glyph-name="quoteleft" unicode="&#x2018;" horiz-adv-x="216" 
d="M155 606l-8 -59q-1 -12 -13 -12h-30q-12 0 -10 12l8 61q11 86 102 114q12 3 14 -7l5 -21q2 -10 -9 -15q-53 -21 -59 -73z" />
    <glyph glyph-name="quoteright" unicode="&#x2019;" horiz-adv-x="219" 
d="M152 651l8 59q2 12 13 12h30q11 0 10 -12l-8 -61q-11 -86 -102 -114q-12 -3 -14 7l-5 21q-2 10 9 15q53 21 59 73z" />
    <glyph glyph-name="quotesinglbase" unicode="&#x201a;" horiz-adv-x="159" 
d="M22 30l8 59q2 12 13 12h30q11 0 10 -12l-8 -61q-11 -86 -102 -114q-12 -3 -14 7l-5 21q-2 10 9 15q53 21 59 73z" />
    <glyph glyph-name="quotedblleft" unicode="&#x201c;" horiz-adv-x="357" 
d="M155 606l-8 -59q-1 -12 -13 -12h-30q-12 0 -10 12l8 61q11 86 102 114q12 3 14 -7l5 -21q2 -10 -9 -15q-53 -21 -59 -73zM296 606l-8 -59q-2 -12 -13 -12h-30q-11 0 -10 12l8 61q11 86 102 114q12 3 14 -7l5 -21q2 -10 -9 -15q-53 -21 -59 -73z" />
    <glyph glyph-name="quotedblright" unicode="&#x201d;" horiz-adv-x="360" 
d="M152 651l8 59q2 12 13 12h30q11 0 10 -12l-8 -61q-11 -86 -102 -114q-12 -3 -14 7l-5 21q-2 10 9 15q53 21 59 73zM293 651l8 59q1 12 13 12h30q12 0 10 -12l-8 -61q-11 -86 -102 -114q-12 -3 -14 7l-5 21q-2 10 9 15q53 21 59 73z" />
    <glyph glyph-name="quotedblbase" unicode="&#x201e;" horiz-adv-x="300" 
d="M22 30l8 59q2 12 13 12h30q11 0 10 -12l-8 -61q-11 -86 -102 -114q-12 -3 -14 7l-5 21q-2 10 9 15q53 21 59 73zM163 30l8 59q1 12 13 12h30q12 0 10 -12l-8 -61q-11 -86 -102 -114q-12 -3 -14 7l-5 21q-2 10 9 15q53 21 59 73z" />
    <glyph glyph-name="dagger" unicode="&#x2020;" horiz-adv-x="434" 
d="M292 687l-83 -675q-1 -12 -13 -12h-29q-11 0 -10 12l83 675q2 12 13 12h29q12 0 10 -12zM73 498h111q12 0 11 -12l-2 -21q-1 -12 -13 -12h-111q-13 0 -11 12l2 21q2 12 13 12zM299 498h111q12 0 11 -12l-2 -21q-1 -12 -13 -12h-111q-13 0 -11 12l2 21q2 12 13 12z" />
    <glyph glyph-name="daggerdbl" unicode="&#x2021;" horiz-adv-x="434" 
d="M293 687l-83 -675q-2 -12 -13 -12h-29q-12 0 -10 12l82 675q2 12 14 12h29q11 0 10 -12zM61 486q1 12 13 12h110q11 0 11 -12l-1 -21q0 -12 -13 -12h-112q-13 0 -11 12zM422 486l-3 -21q-1 -12 -12 -12h-111q-12 0 -11 12l2 21q1 12 12 12h112q13 0 11 -12zM29 235
q1 11 13 11h111q12 0 11 -11l-2 -21q-1 -13 -13 -13h-111q-12 0 -11 13zM390 235l-2 -21q-1 -13 -13 -13h-111q-12 0 -11 13l2 21q1 11 13 11h111q12 0 11 -11z" />
    <glyph glyph-name="bullet" unicode="&#x2022;" horiz-adv-x="256" 
d="M158 322l-16 -125q-1 -11 -13 -11h-30q-11 0 -10 11l16 125q1 12 13 12h30q12 0 10 -12z" />
    <glyph glyph-name="ellipsis" unicode="&#x2026;" horiz-adv-x="693" 
d="M102 89l-10 -77q-1 -12 -12 -12h-30q-11 0 -10 12l9 77q1 12 13 12h30q12 0 10 -12zM597 89l-10 -77q-1 -12 -12 -12h-30q-11 0 -10 12l9 77q2 12 13 12h30q11 0 10 -12zM350 89l-10 -77q-1 -12 -12 -12h-30q-11 0 -10 12l9 77q1 12 13 12h30q12 0 10 -12z" />
    <glyph glyph-name="perthousand" unicode="&#x2030;" horiz-adv-x="1013" 
d="M582 676l-391 -672q-7 -12 -18 -12h-23q-5 0 -6.5 4t1.5 8l391 672q7 12 18 12h23q12 0 5 -12zM71 411l24 190q5 39 32.5 61t92.5 22q109 0 109 -72q0 -4 -1 -13l-24 -188q-5 -38 -32 -60t-92 -22q-56 0 -83 19.5t-27 51.5q0 4 1 11zM262 417l23 178l1 10q0 43 -69 43
q-42 0 -59.5 -13t-20.5 -40l-22 -178q-1 -7 -1 -9q0 -22 15.5 -32.5t53.5 -10.5q73 0 79 52zM402 79l24 190q11 82 125 82q56 0 82.5 -19.5t26.5 -51.5q0 -6 -1 -15l-24 -186q-5 -39 -32 -61t-92 -22q-110 0 -110 72q0 4 1 11zM699 79l24 190q11 82 125 82q56 0 82 -19.5
t26 -51.5q0 -7 -1 -15l-23 -186q-5 -39 -32 -61t-92 -22q-110 0 -110 72q0 3 1 11zM592 85l24 178l1 8q0 44 -69 44q-43 0 -60 -12.5t-20 -39.5l-23 -178q-1 -6 -1 -10q0 -22 15.5 -32.5t54.5 -10.5t56.5 13t21.5 40zM890 85l22 178l1 8q0 44 -68 44q-43 0 -60 -12.5
t-20 -39.5l-23 -178q-1 -6 -1 -10q0 -22 15.5 -32.5t54.5 -10.5q73 0 79 53z" />
    <glyph glyph-name="guilsinglleft" unicode="&#x2039;" horiz-adv-x="325" 
d="M82 245l140 -115q10 -8 9 -17l-4 -32q-2 -14 -12 -6l-169 141q-9 9 -8 20l2 20q1 11 14 20l203 140q11 7 11 -4v-2l-4 -32q-1 -9 -14 -18z" />
    <glyph glyph-name="guilsinglright" unicode="&#x203a;" horiz-adv-x="327" 
d="M233 246l-140 115q-10 8 -9 17l4 32q2 14 12 6l169 -141q9 -9 8 -20l-2 -20q-1 -11 -14 -20l-203 -140q-11 -7 -11 4v2l4 32q1 9 14 18z" />
    <glyph glyph-name="fraction" unicode="&#x2044;" horiz-adv-x="74" 
d="M261 676l-391 -672q-8 -12 -18 -12h-23q-5 0 -6.5 4t1.5 8l391 672q7 12 18 12h23q12 0 5 -12z" />
    <glyph glyph-name="zero.superior" unicode="&#x2070;" 
d="M67 535l27 216q5 39 32.5 61t92.5 22q108 0 108 -72q0 -4 -1 -13l-26 -214q-5 -39 -32 -61t-92 -22q-110 0 -110 72q0 5 1 11zM258 541l25 204q1 5 1 10q0 43 -68 43q-42 0 -59.5 -13t-20.5 -40l-26 -204q-1 -7 -1 -10q0 -22 16 -32.5t54 -10.5q73 0 79 53z" />
    <glyph glyph-name="four.superior" unicode="&#x2074;" 
d="M210 822l-100 -213h144l27 212q1 9 9 9h25q9 0 8 -8l-44 -358q-1 -8 -9 -8h-26q-9 0 -8 8l14 110h-182q-8 0 -8 7l1 11q1 10 5 16l101 214q4 8 11 8h27q8 0 5 -8z" />
    <glyph glyph-name="five.superior" unicode="&#x2075;" 
d="M126 830h186q8 0 8 -8l-1 -18q0 -8 -10 -8h-154l-15 -111h65q49 0 74.5 -17.5t25.5 -47.5q0 -6 -1 -15l-9 -73q-5 -39 -30.5 -59.5t-89.5 -20.5q-105 0 -105 69q0 3 1 12l1 9q1 8 9 8h26q7 0 6 -7l-1 -7q-1 -8 -1 -11q0 -41 66 -41q39 0 55 13t20 39l9 64q1 8 1 11
q0 41 -66 41h-92q-9 0 -8 8l20 162q1 8 10 8z" />
    <glyph glyph-name="six.superior" unicode="&#x2076;" 
d="M71 522q0 5 1 14l27 220q10 78 123 78q58 0 81 -22.5t20 -51.5l-1 -12q-2 -9 -8 -9h-27q-8 0 -7 8l1 9q2 18 -11.5 31.5t-51.5 13.5q-71 0 -77 -50l-12 -99q22 27 79 27q101 0 101 -66q0 -6 -1 -15l-8 -64q-5 -40 -31.5 -61t-92.5 -21q-105 0 -105 70zM259 537l6 55
q1 8 1 11q0 43 -67 43q-71 0 -77 -49l-7 -60q-1 -9 -1 -11q0 -41 65 -41q75 0 80 52z" />
    <glyph glyph-name="seven.superior" unicode="&#x2077;" 
d="M105 830h228q7 0 7 -8v-12q0 -5 -4 -13l-180 -333q-5 -8 -11 -8h-32q-10 0 -4 10l180 328h-187q-10 0 -9 9l2 19q1 8 10 8z" />
    <glyph glyph-name="eight.superior" unicode="&#x2078;" 
d="M94 704q0 4 1 14l4 35q4 39 29 60t92 21q102 0 102 -67q0 -5 -1 -14l-5 -35q-4 -26 -17 -41t-42 -23q49 -11 49 -52q0 -3 -1 -11l-7 -58q-4 -39 -31 -60t-94 -21q-106 0 -106 69q0 3 1 12l7 58q7 52 63 63q-44 12 -44 50zM275 722l3 28q1 8 1 10q0 21 -14.5 31.5
t-49.5 10.5q-40 0 -56.5 -13t-18.5 -39l-3 -28q-1 -9 -1 -11q0 -21 14 -31t50 -10q39 0 56 13.5t19 38.5zM256 537l6 49q1 8 1 10q0 42 -67 42q-75 0 -80 -52l-5 -48q-1 -9 -1 -12q0 -42 67 -42q40 0 58 13.5t21 39.5z" />
    <glyph glyph-name="nine.superior" unicode="&#x2079;" 
d="M321 750l-27 -220q-10 -78 -122 -78q-58 0 -82 22.5t-20 55.5l1 8q1 9 9 9h25q9 0 8 -8l-1 -6q-7 -48 63 -48q72 0 78 50l11 99q-22 -27 -79 -27q-101 0 -101 66q0 6 1 15l8 64q5 40 31.5 61t93.5 21q104 0 104 -70q0 -5 -1 -14zM135 749l-7 -56q-1 -7 -1 -10
q0 -43 66 -43q72 0 78 49l7 60q1 8 1 11q0 41 -66 41q-40 0 -57.5 -13t-20.5 -39z" />
    <glyph glyph-name="parenleft.superior" unicode="&#x207d;" horiz-adv-x="202" 
d="M73 467l46 359q5 37 29.5 54.5t80.5 17.5h8q9 0 8 -9l-2 -17q-1 -9 -9 -9h-4q-64 0 -69 -41l-43 -339q-2 -16 -2 -25q0 -35 58 -35h4q7 0 7 -9l-1 -16q0 -9 -10 -9h-3q-99 0 -99 67q0 7 1 11z" />
    <glyph glyph-name="parenright.superior" unicode="&#x207e;" horiz-adv-x="203" 
d="M215 820l-45 -359q-5 -37 -29.5 -54.5t-81.5 -17.5h-8q-7 0 -7 9l1 17q0 9 10 9h4q63 0 68 41l44 348q2 14 2 16q0 35 -59 35h-3q-9 0 -8 9l2 16q1 9 10 9h3q98 0 98 -63q0 -6 -1 -15z" />
    <glyph glyph-name="zero.inferior" unicode="&#x2080;" 
d="M-8 -71l27 216q5 39 32.5 61t92.5 22q108 0 108 -72q0 -4 -1 -13l-26 -214q-5 -39 -32 -61t-92 -22q-110 0 -110 72q0 5 1 11zM183 -65l25 204q1 5 1 10q0 43 -68 43q-42 0 -59.5 -13t-20.5 -40l-26 -204q-1 -7 -1 -10q0 -22 16 -32.5t54 -10.5q73 0 79 53z" />
    <glyph glyph-name="one.inferior" unicode="&#x2081;" 
d="M44 198l123 26q4 1 7 -0.5t2 -6.5l-41 -331h86q10 0 8 -8l-3 -20q-1 -8 -9 -8h-215q-5 0 -7.5 1.5t-1.5 6.5l3 20q1 8 9 8h86l37 295l-89 -20q-3 -1 -5.5 1t-1.5 6l2 19q1 10 10 11z" />
    <glyph glyph-name="two.inferior" unicode="&#x2082;" 
d="M36 -114h176q9 0 7 -8l-3 -20q-1 -8 -10 -8h-208q-5 0 -7.5 2t-1.5 6l13 100q6 46 59 61l100 29q36 12 39 37l7 57q1 8 1 10q0 42 -68 42q-42 0 -58.5 -13t-20.5 -39l-3 -25q-2 -9 -8 -9h-26q-8 0 -7 9l3 29q4 38 31.5 60t93.5 22q107 0 107 -72q0 -3 -1 -10l-8 -62
q-7 -50 -61 -66l-99 -29q-33 -9 -37 -33z" />
    <glyph glyph-name="three.inferior" unicode="&#x2083;" 
d="M76 63h45q41 0 57.5 13t19.5 40l3 28q1 9 1 11q0 40 -64 40q-40 0 -56.5 -12.5t-20.5 -38.5l-1 -6q-1 -8 -8 -8h-26q-7 0 -7 8l1 10q4 39 31 59.5t92 20.5q102 0 102 -66q0 -4 -1 -12l-5 -40q-4 -28 -15.5 -41.5t-40.5 -20.5q46 -11 46 -51q0 -4 -1 -12l-7 -61
q-9 -78 -124 -78q-108 0 -108 69q0 5 1 14l1 8q1 8 9 8h26q8 0 7 -8l-1 -6q-1 -7 -1 -11q0 -41 69 -41q41 0 58.5 12.5t20.5 38.5l6 51q1 8 1 10q0 41 -66 41h-48q-5 0 -7 1.5t-1 5.5l2 17q1 7 10 7z" />
    <glyph glyph-name="four.inferior" unicode="&#x2084;" 
d="M135 216l-100 -213h144l27 212q1 9 9 9h25q9 0 8 -8l-44 -358q-1 -8 -9 -8h-26q-9 0 -8 8l14 110h-182q-8 0 -8 7l1 11q1 10 5 16l101 214q4 8 11 8h27q8 0 5 -8z" />
    <glyph glyph-name="five.inferior" unicode="&#x2085;" 
d="M52 224h186q8 0 8 -8l-1 -18q0 -8 -10 -8h-154l-15 -111h65q49 0 74.5 -17.5t25.5 -47.5q0 -6 -1 -15l-9 -73q-5 -39 -30.5 -59.5t-89.5 -20.5q-105 0 -105 69q0 3 1 12l1 9q1 8 9 8h26q7 0 6 -7l-1 -7q-1 -8 -1 -11q0 -41 66 -41q39 0 55 13t20 39l9 64q1 8 1 11
q0 41 -66 41h-92q-9 0 -8 8l20 162q1 8 10 8z" />
    <glyph glyph-name="six.inferior" unicode="&#x2086;" 
d="M-4 -84q0 5 1 14l27 220q10 78 123 78q59 0 81.5 -22.5t19.5 -51.5l-1 -12q-1 -9 -8 -9h-27q-8 0 -7 8l1 9q2 18 -11.5 31.5t-51.5 13.5q-71 0 -77 -50l-12 -99q22 27 79 27q101 0 101 -66q0 -6 -1 -15l-8 -64q-5 -40 -31.5 -61t-92.5 -21q-105 0 -105 70zM184 -69l6 55
q1 8 1 11q0 43 -67 43q-71 0 -77 -49l-7 -60q-1 -9 -1 -11q0 -41 65 -41q75 0 80 52z" />
    <glyph glyph-name="seven.inferior" unicode="&#x2087;" 
d="M30 224h228q7 0 7 -8v-12q0 -5 -4 -13l-180 -333q-5 -8 -11 -8h-32q-10 0 -4 10l180 328h-187q-11 0 -9 9l2 19q1 8 10 8z" />
    <glyph glyph-name="eight.inferior" unicode="&#x2088;" 
d="M20 98q0 4 1 14l4 35q4 39 29 60t92 21q102 0 102 -67q0 -5 -1 -14l-5 -35q-4 -26 -17 -41t-42 -23q49 -11 49 -52q0 -3 -1 -11l-7 -58q-4 -39 -31 -60t-94 -21q-106 0 -106 69q0 3 1 12l7 58q7 52 63 63q-44 12 -44 50zM201 116l3 28q1 8 1 10q0 21 -14.5 31.5
t-49.5 10.5q-40 0 -56.5 -13t-18.5 -39l-3 -28q-1 -9 -1 -11q0 -21 14 -31t50 -10q39 0 56 13.5t19 38.5zM182 -69l6 49q1 8 1 10q0 42 -67 42q-75 0 -80 -52l-5 -48q-1 -9 -1 -12q0 -42 67 -42q40 0 58 13.5t21 39.5z" />
    <glyph glyph-name="nine.inferior" unicode="&#x2089;" 
d="M247 144l-27 -220q-10 -78 -122 -78q-58 0 -82 22.5t-20 55.5l1 8q1 9 9 9h25q9 0 8 -8l-1 -6q-7 -48 63 -48q72 0 78 50l11 99q-22 -27 -79 -27q-101 0 -101 66q0 6 1 15l8 64q5 40 31.5 61t93.5 21q104 0 104 -70q0 -5 -1 -14zM61 143l-7 -56q-1 -7 -1 -10
q0 -43 66 -43q72 0 78 49l7 60q1 8 1 11q0 41 -66 41q-40 0 -57.5 -13t-20.5 -39z" />
    <glyph glyph-name="parenleft.inferior" unicode="&#x208d;" horiz-adv-x="202" 
d="M-2 -139l46 359q5 37 29.5 54.5t80.5 17.5h8q9 0 8 -9l-2 -17q-2 -9 -9 -9h-4q-64 0 -69 -41l-43 -339q-2 -16 -2 -25q0 -35 58 -35h4q7 0 7 -9l-1 -16q0 -9 -10 -9h-3q-99 0 -99 67q0 7 1 11z" />
    <glyph glyph-name="parenright.inferior" unicode="&#x208e;" horiz-adv-x="202" 
d="M140 214l-45 -359q-5 -37 -29.5 -54.5t-81.5 -17.5h-8q-7 0 -7 9l1 17q0 9 10 9h4q63 0 68 41l44 348q2 14 2 16q0 35 -59 35h-3q-9 0 -8 9l2 16q1 9 10 9h3q98 0 98 -63q0 -6 -1 -15z" />
    <glyph glyph-name="Euro" unicode="&#x20ac;" horiz-adv-x="617" 
d="M528 133q-14 -141 -221 -141q-190 0 -190 119q0 8 2 24l16 128h-75q-12 0 -11 11l2 13q1 12 13 12h75l10 83h-75q-10 0 -10 12v13q0 11 14 11h75l16 129q8 66 57 103.5t163 37.5q190 0 190 -120q0 -13 -1 -23l-7 -50q-1 -13 -12 -13h-29q-12 0 -10 13l5 42q1 6 1 19
q0 86 -140 86q-83 0 -120 -26.5t-44 -76.5l-15 -121h146q12 0 11 -11l-1 -13q-1 -12 -14 -12h-146l-11 -83h147q11 0 10 -12l-2 -13q-1 -11 -12 -11h-147l-15 -120q-1 -8 -1 -20q0 -85 139 -85q156 0 166 103l6 57q1 11 13 11h29q12 0 10 -11z" />
    <glyph glyph-name="afii61289" unicode="&#x2113;" horiz-adv-x="502" 
d="M148 121l14 119q-29 -14 -59 -26.5t-45 -17.5l-16 -6q-10 -4 -14 5l-8 22q-3 10 7 16q74 26 141 59l31 249q8 66 45.5 103.5t118.5 37.5q72 0 104.5 -31t32.5 -82q0 -19 -1 -30q-18 -145 -282 -273l-16 -131q-1 -7 -1 -18q0 -73 115 -73h92q12 0 11 -12l-2 -20
q-1 -12 -13 -12h-93q-163 0 -163 106q0 10 1 15zM251 535l-28 -217q213 112 226 220q1 8 1 25q0 75 -90 75q-55 0 -78.5 -26t-30.5 -77z" />
    <glyph glyph-name="trademark" unicode="&#x2122;" horiz-adv-x="817" 
d="M776 670l-47 -388q-1 -10 -11 -10h-25q-9 0 -8 10l37 310q-5 -14 -12 -27l-128 -221q-5 -10 -15 -10h-19q-9 0 -12 10l-76 223q-3 8 -5 25l-39 -310q-1 -10 -10 -10h-24q-9 0 -8 10l48 388q1 10 10 10h23q7 0 9 -7l92 -264q3 -6 7 -26q2 4 14 25l154 266q5 6 11 6h26
q9 0 8 -10zM93 680h271q10 0 9 -10l-2 -19q-1 -9 -12 -9h-113l-44 -360q-1 -10 -10 -10h-27q-9 0 -8 10l43 360h-110q-6 0 -8.5 2t-1.5 7l2 19q1 10 11 10z" />
    <glyph glyph-name="estimated" unicode="&#x212e;" horiz-adv-x="803" 
d="M766 340q0 -16 -16 -16h-587v-180q43 -60 110 -95.5t146 -35.5q143 0 247 113q5 5 9 5q9 0 9 -9q0 -6 -7 -15q-46 -53 -114 -84t-144 -31q-145 0 -246.5 101t-101.5 247q0 144 102 246t246 102q142 0 244.5 -102t102.5 -246zM419 666q-78 0 -145 -35.5t-111 -95.5v-191
h513v188q-45 61 -112.5 97.5t-144.5 36.5z" />
    <glyph glyph-name="uni2153" unicode="&#x2153;" horiz-adv-x="736" 
d="M601 676l-391 -672q-8 -12 -18 -12h-23q-5 0 -6.5 4t1.5 8l391 672q7 12 18 12h23q12 0 5 -12zM108 654l123 26q4 1 7 -0.5t2 -6.5l-41 -331h86q10 0 8 -8l-3 -20q-1 -8 -9 -8h-215q-5 0 -7.5 1.5t-1.5 6.5l3 20q1 8 9 8h86l37 295l-89 -20q-3 -1 -5.5 1t-1.5 6l2 19
q1 10 10 11zM508 213h45q41 0 57.5 13t19.5 40l3 28q1 9 1 11q0 40 -64 40q-40 0 -56.5 -12.5t-20.5 -38.5l-1 -6q-1 -8 -8 -8h-26q-7 0 -7 8l1 10q4 39 31 59.5t92 20.5q102 0 102 -66q0 -4 -1 -12l-5 -40q-4 -28 -15.5 -41.5t-40.5 -20.5q46 -11 46 -51q0 -4 -1 -12
l-7 -61q-9 -78 -124 -78q-108 0 -108 69q0 5 1 14l1 8q1 8 9 8h26q8 0 7 -8l-1 -6q-1 -7 -1 -11q0 -41 69 -41q41 0 58.5 12.5t20.5 38.5l6 51q1 8 1 10q0 41 -66 41h-48q-5 0 -7 1.5t-1 5.5l2 17q1 7 10 7z" />
    <glyph glyph-name="uni2154" unicode="&#x2154;" horiz-adv-x="728" 
d="M599 676l-391 -672q-8 -12 -18 -12h-23q-5 0 -6.5 4t1.5 8l391 672q7 12 18 12h23q12 0 5 -12zM112 342h176q9 0 7 -8l-3 -20q-1 -8 -10 -8h-208q-5 0 -7.5 2t-1.5 6l13 100q6 46 59 61l100 29q36 12 39 37l7 57q1 8 1 10q0 42 -68 42q-42 0 -58.5 -13t-20.5 -39l-3 -25
q-2 -9 -8 -9h-26q-8 0 -7 9l3 29q4 38 31.5 60t93.5 22q107 0 107 -72q0 -3 -1 -10l-8 -62q-7 -50 -61 -66l-99 -29q-33 -9 -37 -33zM500 213h45q41 0 57.5 13t19.5 40l3 28q1 9 1 11q0 40 -64 40q-40 0 -56.5 -12.5t-20.5 -38.5l-1 -6q-1 -8 -8 -8h-26q-7 0 -7 8l1 10
q4 39 31 59.5t92 20.5q102 0 102 -66q0 -4 -1 -12l-5 -40q-4 -28 -15.5 -41.5t-40.5 -20.5q46 -11 46 -51q0 -4 -1 -12l-7 -61q-9 -78 -124 -78q-108 0 -108 69q0 5 1 14l1 8q1 8 9 8h26q8 0 7 -8l-1 -6q-1 -7 -1 -11q0 -41 69 -41q41 0 58.5 12.5t20.5 38.5l6 51q1 8 1 10
q0 41 -66 41h-48q-5 0 -7 1.5t-1 5.5l2 17q1 7 10 7z" />
    <glyph glyph-name="uni2155" unicode="&#x2155;" horiz-adv-x="741" 
d="M601 676l-391 -672q-8 -12 -18 -12h-23q-5 0 -6.5 4t1.5 8l391 672q7 12 18 12h23q12 0 5 -12zM108 654l123 26q4 1 7 -0.5t2 -6.5l-41 -331h86q10 0 8 -8l-3 -20q-1 -8 -9 -8h-215q-5 0 -7.5 1.5t-1.5 6.5l3 20q1 8 9 8h86l37 295l-89 -20q-3 -1 -5.5 1t-1.5 6l2 19
q1 10 10 11zM489 374h186q8 0 8 -8l-1 -18q0 -8 -10 -8h-154l-15 -111h65q49 0 74.5 -17.5t25.5 -47.5q0 -6 -1 -15l-9 -73q-5 -39 -30.5 -59.5t-89.5 -20.5q-105 0 -105 69q0 3 1 12l1 9q1 8 9 8h26q7 0 6 -7l-1 -7q-1 -8 -1 -11q0 -41 66 -41q39 0 55 13t20 39l9 64
q1 8 1 11q0 41 -66 41h-92q-9 0 -8 8l20 162q1 8 10 8z" />
    <glyph glyph-name="uni2156" unicode="&#x2156;" horiz-adv-x="742" 
d="M606 676l-391 -672q-7 -12 -18 -12h-23q-5 0 -6.5 4t1.5 8l391 672q7 12 18 12h23q12 0 5 -12zM112 342h176q9 0 7 -8l-3 -20q-1 -8 -10 -8h-208q-5 0 -7.5 2t-1.5 6l13 100q6 46 59 61l100 29q36 12 39 37l7 57q1 8 1 10q0 42 -68 42q-42 0 -58.5 -13t-20.5 -39l-3 -25
q-2 -9 -8 -9h-26q-8 0 -7 9l3 29q4 38 31.5 60t93.5 22q107 0 107 -72q0 -3 -1 -10l-8 -62q-7 -50 -61 -66l-99 -29q-33 -9 -37 -33zM489 374h186q8 0 8 -8l-1 -18q0 -8 -10 -8h-154l-15 -111h65q49 0 74.5 -17.5t25.5 -47.5q0 -6 -1 -15l-9 -73q-5 -39 -30.5 -59.5
t-89.5 -20.5q-105 0 -105 69q0 3 1 12l1 9q1 8 9 8h26q7 0 6 -7l-1 -7q-1 -8 -1 -11q0 -41 66 -41q39 0 55 13t20 39l9 64q1 8 1 11q0 41 -66 41h-92q-9 0 -8 8l20 162q1 8 10 8z" />
    <glyph glyph-name="uni2157" unicode="&#x2157;" horiz-adv-x="734" 
d="M593 676l-391 -672q-7 -12 -18 -12h-23q-5 0 -6.5 4t1.5 8l391 672q7 12 18 12h23q12 0 5 -12zM151 519h45q41 0 57.5 13t19.5 40l3 28q1 9 1 11q0 40 -64 40q-40 0 -56.5 -12.5t-20.5 -38.5l-1 -6q-1 -8 -8 -8h-26q-7 0 -7 8l1 10q4 39 31 59.5t92 20.5q102 0 102 -66
q0 -4 -1 -12l-5 -40q-4 -28 -15.5 -41.5t-40.5 -20.5q46 -11 46 -51q0 -4 -1 -12l-7 -61q-9 -78 -124 -78q-108 0 -108 69q0 5 1 14l1 8q1 8 9 8h26q8 0 7 -8l-1 -6q-1 -7 -1 -11q0 -41 69 -41q41 0 58.5 12.5t20.5 38.5l6 51q1 8 1 10q0 41 -66 41h-48q-5 0 -7 1.5t-1 5.5
l2 17q1 7 10 7zM481 374h186q8 0 8 -8l-1 -18q0 -8 -10 -8h-154l-15 -111h65q49 0 74.5 -17.5t25.5 -47.5q0 -6 -1 -15l-9 -73q-5 -39 -30.5 -59.5t-89.5 -20.5q-105 0 -105 69q0 3 1 12l1 9q1 8 9 8h26q7 0 6 -7l-1 -7q-1 -8 -1 -11q0 -41 66 -41q39 0 55 13t20 39l9 64
q1 8 1 11q0 41 -66 41h-92q-9 0 -8 8l20 162q1 8 10 8z" />
    <glyph glyph-name="uni2158" unicode="&#x2158;" horiz-adv-x="730" 
d="M592 676l-391 -672q-7 -12 -18 -12h-23q-5 0 -6.5 4t1.5 8l391 672q7 12 18 12h23q12 0 5 -12zM205 672l-100 -213h144l27 212q1 9 9 9h25q9 0 8 -8l-44 -358q-1 -8 -9 -8h-26q-9 0 -8 8l14 110h-182q-8 0 -8 7l1 11q1 10 5 16l101 214q4 8 11 8h27q8 0 5 -8zM476 374
h186q8 0 8 -8l-1 -18q0 -8 -10 -8h-154l-15 -111h65q49 0 74.5 -17.5t25.5 -47.5q0 -6 -1 -15l-9 -73q-5 -39 -30.5 -59.5t-89.5 -20.5q-105 0 -105 69q0 3 1 12l1 9q1 8 9 8h26q7 0 6 -7l-1 -7q-1 -8 -1 -11q0 -41 66 -41q39 0 55 13t20 39l9 64q1 8 1 11q0 41 -66 41h-92
q-9 0 -8 8l20 162q1 8 10 8z" />
    <glyph glyph-name="uni2159" unicode="&#x2159;" horiz-adv-x="733" 
d="M601 676l-391 -672q-8 -12 -18 -12h-23q-5 0 -6.5 4t1.5 8l391 672q7 12 18 12h23q12 0 5 -12zM108 654l123 26q4 1 7 -0.5t2 -6.5l-41 -331h86q10 0 8 -8l-3 -20q-1 -8 -9 -8h-215q-5 0 -7.5 1.5t-1.5 6.5l3 20q1 8 9 8h86l37 295l-89 -20q-3 -1 -5.5 1t-1.5 6l2 19
q1 10 10 11zM422 66q0 5 1 14l27 220q10 78 123 78q59 0 81.5 -22.5t19.5 -51.5l-1 -12q-1 -9 -8 -9h-27q-8 0 -7 8l1 9q2 18 -11.5 31.5t-51.5 13.5q-71 0 -77 -50l-12 -99q22 27 79 27q101 0 101 -66q0 -6 -1 -15l-8 -64q-5 -40 -31.5 -61t-92.5 -21q-105 0 -105 70z
M610 81l6 55q1 8 1 11q0 43 -67 43q-71 0 -77 -49l-7 -60q-1 -9 -1 -11q0 -41 65 -41q75 0 80 52z" />
    <glyph glyph-name="uni215A" unicode="&#x215a;" horiz-adv-x="727" 
d="M584 676l-391 -672q-7 -12 -18 -12h-23q-5 0 -6.5 4t1.5 8l391 672q7 12 18 12h23q12 0 5 -12zM121 680h186q8 0 8 -8l-1 -18q0 -8 -10 -8h-154l-15 -111h65q49 0 74.5 -17.5t25.5 -47.5q0 -6 -1 -15l-9 -73q-5 -39 -30.5 -59.5t-89.5 -20.5q-105 0 -105 69q0 3 1 12l1 9
q1 8 9 8h26q7 0 6 -7l-1 -7q-1 -8 -1 -11q0 -41 66 -41q39 0 55 13t20 39l9 64q1 8 1 11q0 41 -66 41h-92q-9 0 -8 8l20 162q1 8 10 8zM416 66q0 5 1 14l27 220q10 78 123 78q59 0 81.5 -22.5t19.5 -51.5l-1 -12q-1 -9 -8 -9h-27q-8 0 -7 8l1 9q2 18 -11.5 31.5t-51.5 13.5
q-71 0 -77 -50l-12 -99q22 27 79 27q101 0 101 -66q0 -6 -1 -15l-8 -64q-5 -40 -31.5 -61t-92.5 -21q-105 0 -105 70zM604 81l6 55q1 8 1 11q0 43 -67 43q-71 0 -77 -49l-7 -60q-1 -9 -1 -11q0 -41 65 -41q75 0 80 52z" />
    <glyph glyph-name="uni215B" unicode="&#x215b;" horiz-adv-x="734" 
d="M602 676l-391 -672q-7 -12 -18 -12h-23q-5 0 -6.5 4t1.5 8l391 672q7 12 18 12h23q12 0 5 -12zM108 654l123 26q4 1 7 -0.5t2 -6.5l-41 -331h86q10 0 8 -8l-3 -20q-1 -8 -9 -8h-215q-5 0 -7.5 1.5t-1.5 6.5l3 20q1 8 9 8h86l37 295l-89 -20q-3 -1 -5.5 1t-1.5 6l2 19
q1 10 10 11zM447 248q0 4 1 14l4 35q4 39 29 60t92 21q102 0 102 -67q0 -5 -1 -14l-5 -35q-4 -26 -17 -41t-42 -23q49 -11 49 -52q0 -3 -1 -11l-7 -58q-4 -39 -31 -60t-94 -21q-106 0 -106 69q0 3 1 12l7 58q7 52 63 63q-44 12 -44 50zM628 266l3 28q1 8 1 10
q0 21 -14.5 31.5t-49.5 10.5q-40 0 -56.5 -13t-18.5 -39l-3 -28q-1 -9 -1 -11q0 -21 14 -31t50 -10q39 0 56 13.5t19 38.5zM609 81l6 49q1 8 1 10q0 42 -67 42q-75 0 -80 -52l-5 -48q-1 -9 -1 -12q0 -42 67 -42q40 0 58 13.5t21 39.5z" />
    <glyph glyph-name="uni215C" unicode="&#x215c;" horiz-adv-x="734" 
d="M590 676l-391 -672q-7 -12 -18 -12h-23q-5 0 -6.5 4t1.5 8l391 672q7 12 18 12h23q12 0 5 -12zM151 519h45q41 0 57.5 13t19.5 40l3 28q1 9 1 11q0 40 -64 40q-40 0 -56.5 -12.5t-20.5 -38.5l-1 -6q-1 -8 -8 -8h-26q-7 0 -7 8l1 10q4 39 31 59.5t92 20.5q102 0 102 -66
q0 -4 -1 -12l-5 -40q-4 -28 -15.5 -41.5t-40.5 -20.5q46 -11 46 -51q0 -4 -1 -12l-7 -61q-9 -78 -124 -78q-108 0 -108 69q0 5 1 14l1 8q1 8 9 8h26q8 0 7 -8l-1 -6q-1 -7 -1 -11q0 -41 69 -41q41 0 58.5 12.5t20.5 38.5l6 51q1 8 1 10q0 41 -66 41h-48q-5 0 -7 1.5t-1 5.5
l2 17q1 7 10 7zM448 248q0 4 1 14l4 35q4 39 29 60t92 21q102 0 102 -67q0 -5 -1 -14l-5 -35q-4 -26 -17 -41t-42 -23q49 -11 49 -52q0 -3 -1 -11l-7 -58q-4 -39 -31 -60t-94 -21q-106 0 -106 69q0 3 1 12l7 58q7 52 63 63q-44 12 -44 50zM629 266l3 28q1 8 1 10
q0 21 -14.5 31.5t-49.5 10.5q-40 0 -56.5 -13t-18.5 -39l-3 -28q-1 -9 -1 -11q0 -21 14 -31t50 -10q39 0 56 13.5t19 38.5zM610 81l6 49q1 8 1 10q0 42 -67 42q-75 0 -80 -52l-5 -48q-1 -9 -1 -12q0 -42 67 -42q40 0 58 13.5t21 39.5z" />
    <glyph glyph-name="uni215D" unicode="&#x215d;" horiz-adv-x="728" 
d="M587 676l-391 -672q-8 -12 -18 -12h-23q-5 0 -6.5 4t1.5 8l391 672q7 12 18 12h23q12 0 5 -12zM121 680h186q8 0 8 -8l-1 -18q0 -8 -10 -8h-154l-15 -111h65q49 0 74.5 -17.5t25.5 -47.5q0 -6 -1 -15l-9 -73q-5 -39 -30.5 -59.5t-89.5 -20.5q-105 0 -105 69q0 3 1 12l1 9
q1 8 9 8h26q7 0 6 -7l-1 -7q-1 -8 -1 -11q0 -41 66 -41q39 0 55 13t20 39l9 64q1 8 1 11q0 41 -66 41h-92q-9 0 -8 8l20 162q1 8 10 8zM442 248q0 4 1 14l4 35q4 39 29 60t92 21q102 0 102 -67q0 -5 -1 -14l-5 -35q-4 -26 -17 -41t-42 -23q49 -11 49 -52q0 -3 -1 -11l-7 -58
q-4 -39 -31 -60t-94 -21q-106 0 -106 69q0 3 1 12l7 58q7 52 63 63q-44 12 -44 50zM623 266l3 28q1 8 1 10q0 21 -14.5 31.5t-49.5 10.5q-40 0 -56.5 -13t-18.5 -39l-3 -28q-1 -9 -1 -11q0 -21 14 -31t50 -10q39 0 56 13.5t19 38.5zM604 81l6 49q1 8 1 10q0 42 -67 42
q-75 0 -80 -52l-5 -48q-1 -9 -1 -12q0 -42 67 -42q40 0 58 13.5t21 39.5z" />
    <glyph glyph-name="uni215E" unicode="&#x215e;" horiz-adv-x="677" 
d="M528 676l-391 -672q-7 -12 -18 -12h-23q-5 0 -6.5 4t1.5 8l391 672q7 12 18 12h23q12 0 5 -12zM91 680h228q7 0 7 -8v-12q0 -5 -4 -13l-180 -333q-5 -8 -11 -8h-32q-10 0 -4 10l180 328h-187q-10 0 -9 9l2 19q1 8 10 8zM391 248q0 4 1 14l4 35q4 39 29 60t92 21
q102 0 102 -67q0 -5 -1 -14l-5 -35q-4 -26 -17 -41t-42 -23q49 -11 49 -52q0 -3 -1 -11l-7 -58q-4 -39 -31 -60t-94 -21q-106 0 -106 69q0 3 1 12l7 58q7 52 63 63q-44 12 -44 50zM572 266l3 28q1 8 1 10q0 21 -14.5 31.5t-49.5 10.5q-40 0 -56.5 -13t-18.5 -39l-3 -28
q-1 -9 -1 -11q0 -21 14 -31t50 -10q39 0 56 13.5t19 38.5zM553 81l6 49q1 8 1 10q0 42 -67 42q-75 0 -80 -52l-5 -48q-1 -9 -1 -12q0 -42 67 -42q40 0 58 13.5t21 39.5z" />
    <glyph glyph-name="uni215F" unicode="&#x215f;" horiz-adv-x="402" 
d="M596 676l-391 -672q-7 -12 -18 -12h-23q-5 0 -6.5 4t1.5 8l391 672q7 12 18 12h23q12 0 5 -12zM98 654l123 26q4 1 7 -0.5t2 -6.5l-41 -331h86q10 0 8 -8l-3 -20q-1 -8 -9 -8h-215q-5 0 -7.5 1.5t-1.5 6.5l3 20q1 8 9 8h86l37 295l-89 -20q-3 -1 -5.5 1t-1.5 6l2 19
q1 10 10 11z" />
    <glyph glyph-name="partialdiff" unicode="&#x2202;" horiz-adv-x="373" 
d="M87 196v238q0 11 10 13t20 -5l180 -111q9 -6 9 -15.5t-9 -14.5l-180 -111q-7 -4 -13.5 -5.5t-11.5 1.5t-5 10z" />
    <glyph glyph-name="product" unicode="&#x220f;" horiz-adv-x="373" 
d="M306 205h-238q-7 0 -10 5t-2 11.5t5 13.5l110 179q6 9 15.5 9t14.5 -9l111 -179q4 -7 5.5 -13.5t-1.5 -11.5t-10 -5z" />
    <glyph glyph-name="summation" unicode="&#x2211;" horiz-adv-x="373" 
d="M285 434v-238q0 -7 -5 -10t-11.5 -1.5t-13.5 5.5l-179 111q-9 5 -9 14.5t9 15.5l179 111q7 4 13.5 5t11.5 -2.5t5 -10.5z" />
    <glyph glyph-name="minus" unicode="&#x2212;" horiz-adv-x="590" 
d="M136 358h397q11 0 11 -12v-21q0 -12 -11 -12h-397q-12 0 -12 12v21q0 12 12 12z" />
    <glyph glyph-name="radical" unicode="&#x221a;" horiz-adv-x="373" 
d="M108 422h157q30 0 30 -30v-157q0 -30 -30 -30h-157q-16 0 -23 6.5t-7 23.5v157q0 30 30 30zM265 405h-157q-13 0 -13 -13v-157q0 -13 13 -13h157q13 0 13 13v157q0 13 -13 13z" />
    <glyph glyph-name="infinity" unicode="&#x221e;" horiz-adv-x="373" 
d="M54 335l111 111q11 11 21 11q11 0 22 -11l110 -111q11 -11 11 -21q0 -11 -11 -22l-110 -111q-11 -11 -22 -11q-10 0 -21 11l-111 111q-12 12 -12 22q0 9 12 21zM177 434l-111 -112q-4 -4 -4 -9q0 -4 4 -8l111 -112q4 -4 9 -4t9 4l112 112q4 4 4 8q0 5 -4 9l-112 112
q-4 4 -9 4t-9 -4z" />
    <glyph glyph-name="integral" unicode="&#x222b;" horiz-adv-x="373" 
d="M30 313q0 65 45.5 110.5t109.5 45.5q65 0 111 -46t46 -110q0 -65 -46 -110t-111 -45t-110 45t-45 110z" />
    <glyph glyph-name="approxequal" unicode="&#x2248;" horiz-adv-x="477" 
d="M193 395q-22 12 -36 12q-19 0 -25.5 -9t-6.5 -34v-20q0 -11 -13 -11h-16q-10 0 -10 14v21q0 84 67 84q21 0 49 -15l84 -46q24 -14 41 -14q19 0 25 9t6 35v19q0 11 12 11h17q10 0 10 -13v-22q0 -84 -65 -84q-26 0 -55 16zM193 244q-22 12 -36 12q-19 0 -25.5 -9t-6.5 -34
v-20q0 -11 -13 -11h-16q-10 0 -10 14v21q0 84 67 84q21 0 49 -15l84 -46q24 -14 41 -14q19 0 25 9t6 35v19q0 11 12 11h17q10 0 10 -13v-22q0 -84 -65 -84q-26 0 -55 16z" />
    <glyph glyph-name="notequal" unicode="&#x2260;" horiz-adv-x="610" 
d="M263 154q-5 -12 -16 -12h-27q-12 0 -7 12l28 72h-130q-12 0 -12 12v21q0 12 12 12h148l49 126h-197q-12 0 -12 12v21q0 12 12 12h215l28 72q4 12 15 12h27q12 0 8 -12l-28 -72h132q11 0 11 -12v-21q0 -12 -11 -12h-150l-49 -126h199q11 0 11 -12v-21q0 -12 -11 -12h-217z
" />
    <glyph glyph-name="lessequal" unicode="&#x2264;" horiz-adv-x="547" 
d="M444 519l-310 -118l310 -117q12 -4 12 -14v-29q0 -14 -12 -9l-351 140q-11 5 -11 13v32q0 8 11 13l351 141q12 5 12 -9v-29q0 -9 -12 -14zM95 167h349q12 0 12 -11v-21q0 -12 -12 -12h-349q-12 0 -12 12v21q0 11 12 11z" />
    <glyph glyph-name="greaterequal" unicode="&#x2265;" horiz-adv-x="557" 
d="M417 401l-310 118q-12 5 -12 14v29q0 14 12 10l351 -140q11 -5 11 -14v-33q0 -8 -11 -13l-351 -141q-12 -5 -12 10v30q0 9 12 13zM107 168h349q12 0 12 -12v-22q0 -11 -12 -11h-349q-12 0 -12 11v22q0 12 12 12z" />
    <glyph glyph-name="lozenge" unicode="&#x25ca;" horiz-adv-x="373" 
d="M60 329l111 111q7 7 15 7t15 -7l111 -111q8 -8 8 -15t-8 -15l-111 -111q-9 -9 -15 -9t-15 9l-111 111q-8 8 -8 15t8 15z" />
    <glyph glyph-name="Omega" unicode="&#xa7b6;" horiz-adv-x="373" 
d="M68 313q0 48 34.5 83t82.5 35q49 0 84 -35t35 -83q0 -49 -35 -83.5t-84 -34.5q-48 0 -82.5 34.5t-34.5 83.5zM85 313q0 -42 29 -71.5t71 -29.5t71.5 29.5t29.5 71.5q0 41 -29.5 70.5t-71.5 29.5t-71 -29.5t-29 -70.5z" />
    <glyph glyph-name="cent.denominator" unicode="&#xf629;" horiz-adv-x="294" 
d="M136 9q-1 -9 -9 -9h-24q-9 0 -8 9l5 39q-77 6 -77 59q0 3 1 11l18 138q9 65 93 70l5 39q2 9 10 9h24q8 0 7 -9l-4 -39q73 -7 73 -60q0 -4 -1 -13l-1 -8q-1 -8 -10 -8h-23q-8 0 -7 8l1 6q1 8 1 10q0 32 -59 32q-63 0 -68 -41l-16 -127q-1 -7 -1 -11q0 -34 58 -34
q65 0 68 41l1 12q1 8 10 8h23q9 0 7 -8l-2 -15q-8 -64 -90 -70z" />
    <glyph glyph-name="dollar.denominator" unicode="&#xf62a;" horiz-adv-x="288" 
d="M120 0h-23q-9 0 -8 9l4 39q-40 4 -59 20t-17 42l1 13q0 8 9 8h24q6 0 6 -7l-1 -12q-3 -36 60 -36q64 0 69 34l3 25q1 10 -6 16.5t-22 10.5l-83 27q-42 15 -38 49l3 27q6 56 86 61l5 39q1 9 10 9h24q9 0 7 -9l-4 -39q36 -4 54.5 -20.5t15.5 -40.5l-2 -17q-1 -7 -9 -7h-24
q-9 0 -7 7l2 14q2 16 -10.5 25.5t-44.5 9.5q-62 0 -65 -32l-2 -21q-1 -19 24 -26l83 -26q47 -15 43 -50l-4 -35q-5 -52 -89 -59l-5 -39q-2 -9 -10 -9z" />
    <glyph glyph-name="hyphen.denominator" unicode="&#xf62b;" horiz-adv-x="259" 
d="M38 176h151q9 0 9 -9v-17q0 -8 -9 -8h-151q-9 0 -9 8v17q0 9 9 9z" />
    <glyph glyph-name="parenleft.denominator" unicode="&#xf62c;" horiz-adv-x="202" 
d="M17 11l46 359q5 37 29.5 54.5t80.5 17.5h8q9 0 8 -9l-2 -17q-1 -9 -9 -9h-4q-64 0 -69 -41l-43 -339q-2 -16 -2 -25q0 -35 58 -35h4q7 0 7 -9l-1 -16q0 -9 -10 -9h-3q-99 0 -99 67q0 7 1 11z" />
    <glyph glyph-name="parenright.denominator" unicode="&#xf62d;" horiz-adv-x="203" 
d="M159 364l-45 -359q-5 -37 -29.5 -54.5t-81.5 -17.5h-8q-7 0 -7 9l1 17q0 9 10 9h4q63 0 68 41l44 348q2 14 2 16q0 35 -59 35h-3q-9 0 -8 9l2 16q1 9 10 9h3q98 0 98 -63q0 -6 -1 -15z" />
    <glyph glyph-name="cent.numerator" unicode="&#xf62e;" horiz-adv-x="294" 
d="M174 315q-1 -9 -9 -9h-24q-9 0 -8 9l5 39q-77 6 -77 59q0 3 1 11l18 138q9 65 93 70l5 39q2 9 10 9h24q8 0 7 -9l-4 -39q73 -7 73 -60q0 -4 -1 -13l-1 -8q-1 -8 -10 -8h-23q-8 0 -7 8l1 6q1 8 1 10q0 32 -59 32q-63 0 -68 -41l-16 -127q-1 -7 -1 -11q0 -34 58 -34
q65 0 68 41l1 12q1 8 10 8h23q9 0 7 -8l-2 -15q-8 -64 -90 -70z" />
    <glyph glyph-name="dollar.numerator" unicode="&#xf62f;" horiz-adv-x="288" 
d="M157 306h-23q-9 0 -8 9l4 39q-40 4 -59 20t-17 42l1 13q0 8 9 8h24q6 0 6 -7l-1 -12q-3 -36 60 -36q64 0 69 34l3 25q1 10 -6 16.5t-22 10.5l-83 27q-42 15 -38 49l3 27q6 56 86 61l5 39q2 9 10 9h24q8 0 7 -9l-4 -39q36 -4 54.5 -20.5t15.5 -40.5l-2 -17q-1 -7 -9 -7
h-24q-9 0 -7 7l2 14q2 16 -10.5 25.5t-44.5 9.5q-62 0 -65 -32l-2 -21q-1 -19 24 -26l83 -26q47 -15 43 -50l-4 -35q-5 -52 -89 -59l-5 -39q-1 -9 -10 -9z" />
    <glyph glyph-name="hyphen.numerator" unicode="&#xf630;" horiz-adv-x="271" 
d="M81 482h151q9 0 9 -9v-17q0 -8 -9 -8h-151q-9 0 -9 8v17q0 9 9 9z" />
    <glyph glyph-name="parenleft.numerator" unicode="&#xf631;" horiz-adv-x="200" 
d="M54 317l46 359q5 37 29.5 54.5t80.5 17.5h8q9 0 8 -9l-2 -17q-2 -9 -9 -9h-4q-64 0 -69 -41l-43 -339q-2 -16 -2 -25q0 -35 58 -35h4q7 0 7 -9l-1 -16q0 -9 -10 -9h-3q-99 0 -99 67q0 7 1 11z" />
    <glyph glyph-name="parenright.numerator" unicode="&#xf632;" horiz-adv-x="200" 
d="M195 670l-45 -359q-5 -37 -29.5 -54.5t-81.5 -17.5h-8q-7 0 -7 9l1 17q0 9 10 9h4q63 0 68 41l44 348q2 14 2 16q0 35 -59 35h-3q-9 0 -8 9l2 16q1 9 10 9h3q98 0 98 -63q0 -6 -1 -15z" />
    <glyph glyph-name="zero.denominator" unicode="&#xf655;" 
d="M11 79l27 216q5 39 32.5 61t92.5 22q108 0 108 -72q0 -4 -1 -13l-26 -214q-5 -39 -32 -61t-92 -22q-110 0 -110 72q0 5 1 11zM202 85l25 204q1 5 1 10q0 43 -68 43q-42 0 -59.5 -13t-20.5 -40l-26 -204q-1 -7 -1 -10q0 -22 16 -32.5t54 -10.5q73 0 79 53z" />
    <glyph glyph-name="one.denominator" unicode="&#xf656;" 
d="M62 348l123 26q4 1 7 -0.5t2 -6.5l-41 -331h86q10 0 8 -8l-3 -20q-1 -8 -9 -8h-215q-5 0 -7.5 1.5t-1.5 6.5l3 20q1 8 9 8h86l37 295l-89 -20q-3 -1 -5.5 1t-1.5 6l2 19q1 10 10 11z" />
    <glyph glyph-name="two.denominator" unicode="&#xf657;" 
d="M55 36h176q9 0 7 -8l-3 -20q-1 -8 -10 -8h-208q-5 0 -7.5 2t-1.5 6l13 100q6 46 59 61l100 29q36 12 39 37l7 57q1 8 1 10q0 42 -68 42q-42 0 -58.5 -13t-20.5 -39l-3 -25q-1 -9 -8 -9h-26q-9 0 -7 9l3 29q4 38 31.5 60t93.5 22q107 0 107 -72q0 -3 -1 -10l-8 -62
q-7 -50 -61 -66l-99 -29q-33 -9 -37 -33z" />
    <glyph glyph-name="three.denominator" unicode="&#xf658;" 
d="M94 213h45q41 0 57.5 13t19.5 40l3 28q1 9 1 11q0 40 -64 40q-40 0 -56.5 -12.5t-20.5 -38.5l-1 -6q-1 -8 -8 -8h-26q-7 0 -7 8l1 10q4 39 31 59.5t92 20.5q102 0 102 -66q0 -4 -1 -12l-5 -40q-4 -28 -15.5 -41.5t-40.5 -20.5q46 -11 46 -51q0 -4 -1 -12l-7 -61
q-9 -78 -124 -78q-108 0 -108 69q0 5 1 14l1 8q1 8 9 8h26q8 0 7 -8l-1 -6q-1 -7 -1 -11q0 -41 69 -41q41 0 58.5 12.5t20.5 38.5l6 51q1 8 1 10q0 41 -66 41h-48q-5 0 -7 1.5t-1 5.5l2 17q1 7 10 7z" />
    <glyph glyph-name="four.denominator" unicode="&#xf659;" 
d="M154 366l-100 -213h144l27 212q1 9 9 9h25q9 0 8 -8l-44 -358q-1 -8 -9 -8h-26q-9 0 -8 8l14 110h-182q-8 0 -8 7l1 11q1 10 5 16l101 214q4 8 11 8h27q8 0 5 -8z" />
    <glyph glyph-name="five.denominator" unicode="&#xf65a;" 
d="M70 374h186q8 0 8 -8l-1 -18q0 -8 -10 -8h-154l-15 -111h65q49 0 74.5 -17.5t25.5 -47.5q0 -6 -1 -15l-9 -73q-5 -39 -30.5 -59.5t-89.5 -20.5q-105 0 -105 69q0 3 1 12l1 9q1 8 9 8h26q7 0 6 -7l-1 -7q-1 -8 -1 -11q0 -41 66 -41q39 0 55 13t20 39l9 64q1 8 1 11
q0 41 -66 41h-92q-9 0 -8 8l20 162q1 8 10 8z" />
    <glyph glyph-name="six.denominator" unicode="&#xf65b;" 
d="M15 66q0 5 1 14l27 220q10 78 123 78q58 0 81 -22.5t20 -51.5l-1 -12q-2 -9 -8 -9h-27q-8 0 -7 8l1 9q2 18 -11.5 31.5t-51.5 13.5q-71 0 -77 -50l-12 -99q22 27 79 27q101 0 101 -66q0 -6 -1 -15l-8 -64q-5 -40 -31.5 -61t-92.5 -21q-105 0 -105 70zM203 81l6 55
q1 8 1 11q0 43 -67 43q-71 0 -77 -49l-7 -60q-1 -9 -1 -11q0 -41 65 -41q75 0 80 52z" />
    <glyph glyph-name="seven.denominator" unicode="&#xf65c;" 
d="M49 374h228q7 0 7 -8v-12q0 -5 -4 -13l-180 -333q-5 -8 -11 -8h-32q-10 0 -4 10l180 328h-187q-10 0 -9 9l2 19q1 8 10 8z" />
    <glyph glyph-name="eight.denominator" unicode="&#xf65d;" 
d="M38 248q0 4 1 14l4 35q4 39 29 60t92 21q102 0 102 -67q0 -5 -1 -14l-5 -35q-4 -26 -17 -41t-42 -23q49 -11 49 -52q0 -3 -1 -11l-7 -58q-4 -39 -31 -60t-94 -21q-106 0 -106 69q0 3 1 12l7 58q7 52 63 63q-44 12 -44 50zM219 266l3 28q1 8 1 10q0 21 -14.5 31.5
t-49.5 10.5q-40 0 -56.5 -13t-18.5 -39l-3 -28q-1 -9 -1 -11q0 -21 14 -31t50 -10q39 0 56 13.5t19 38.5zM200 81l6 49q1 8 1 10q0 42 -67 42q-75 0 -80 -52l-5 -48q-1 -9 -1 -12q0 -42 67 -42q40 0 58 13.5t21 39.5z" />
    <glyph glyph-name="nine.denominator" unicode="&#xf65e;" 
d="M265 294l-27 -220q-10 -78 -122 -78q-58 0 -82 22.5t-20 55.5l1 8q1 9 9 9h25q9 0 8 -8l-1 -6q-7 -48 63 -48q72 0 78 50l11 99q-22 -27 -79 -27q-101 0 -101 66q0 6 1 15l8 64q5 40 31.5 61t93.5 21q104 0 104 -70q0 -5 -1 -14zM79 293l-7 -56q-1 -7 -1 -10
q0 -43 66 -43q72 0 78 49l7 60q1 8 1 11q0 41 -66 41q-40 0 -57.5 -13t-20.5 -39z" />
    <glyph glyph-name="comma.denominator" unicode="&#xf65f;" horiz-adv-x="149" 
d="M21 18l5 33q1 9 10 9h25q8 0 7 -9l-5 -35q-7 -51 -67 -67q-8 -2 -10 5l-4 16q-3 8 7 11q27 10 32 37z" />
    <glyph glyph-name="period.denominator" unicode="&#xf660;" horiz-adv-x="143" 
d="M64 52l-6 -43q-1 -9 -9 -9h-26q-8 0 -7 9l5 42q1 9 10 9h25q9 0 8 -8z" />
    <glyph glyph-name="zero.numerator" unicode="&#xf661;" 
d="M48 385l27 216q5 39 32.5 61t92.5 22q108 0 108 -72q0 -4 -1 -13l-26 -214q-5 -39 -32 -61t-92 -22q-110 0 -110 72q0 5 1 11zM239 391l25 204q1 5 1 10q0 43 -68 43q-42 0 -59.5 -13t-20.5 -40l-26 -204q-1 -7 -1 -10q0 -22 16 -32.5t54 -10.5q73 0 79 53z" />
    <glyph glyph-name="one.numerator" unicode="&#xf662;" 
d="M100 654l123 26q4 1 7 -0.5t2 -6.5l-41 -331h86q10 0 8 -8l-3 -20q-1 -8 -9 -8h-215q-5 0 -7.5 1.5t-1.5 6.5l3 20q1 8 9 8h86l37 295l-89 -20q-3 -1 -5.5 1t-1.5 6l2 19q1 10 10 11z" />
    <glyph glyph-name="two.numerator" unicode="&#xf663;" 
d="M92 342h176q9 0 7 -8l-3 -20q-1 -8 -10 -8h-208q-5 0 -7.5 2t-1.5 6l13 100q6 46 59 61l100 29q36 12 39 37l7 57q1 8 1 10q0 42 -68 42q-42 0 -58.5 -13t-20.5 -39l-3 -25q-2 -9 -8 -9h-26q-8 0 -7 9l3 29q4 38 31.5 60t93.5 22q107 0 107 -72q0 -3 -1 -10l-8 -62
q-7 -50 -61 -66l-99 -29q-33 -9 -37 -33z" />
    <glyph glyph-name="three.numerator" unicode="&#xf664;" 
d="M132 519h45q41 0 57.5 13t19.5 40l3 28q1 9 1 11q0 40 -64 40q-40 0 -56.5 -12.5t-20.5 -38.5l-1 -6q-1 -8 -8 -8h-26q-7 0 -7 8l1 10q4 39 31 59.5t92 20.5q102 0 102 -66q0 -4 -1 -12l-5 -40q-4 -28 -15.5 -41.5t-40.5 -20.5q46 -11 46 -51q0 -4 -1 -12l-7 -61
q-9 -78 -124 -78q-108 0 -108 69q0 5 1 14l1 8q1 8 9 8h26q8 0 7 -8l-1 -6q-1 -7 -1 -11q0 -41 69 -41q41 0 58.5 12.5t20.5 38.5l6 51q1 8 1 10q0 41 -66 41h-48q-5 0 -7 1.5t-1 5.5l2 17q1 7 10 7z" />
    <glyph glyph-name="four.numerator" unicode="&#xf665;" 
d="M191 672l-100 -213h144l27 212q1 9 9 9h25q9 0 8 -8l-44 -358q-1 -8 -9 -8h-26q-9 0 -8 8l14 110h-182q-8 0 -8 7l1 11q1 10 5 16l101 214q4 8 11 8h27q8 0 5 -8z" />
    <glyph glyph-name="five.numerator" unicode="&#xf666;" 
d="M108 680h186q8 0 8 -8l-1 -18q0 -8 -10 -8h-154l-15 -111h65q49 0 74.5 -17.5t25.5 -47.5q0 -6 -1 -15l-9 -73q-5 -39 -30.5 -59.5t-89.5 -20.5q-105 0 -105 69q0 3 1 12l1 9q1 8 9 8h26q7 0 6 -7l-1 -7q-1 -8 -1 -11q0 -41 66 -41q39 0 55 13t20 39l9 64q1 8 1 11
q0 41 -66 41h-92q-9 0 -8 8l20 162q1 8 10 8z" />
    <glyph glyph-name="six.numerator" unicode="&#xf667;" 
d="M52 372q0 5 1 14l27 220q10 78 123 78q59 0 81.5 -22.5t19.5 -51.5l-1 -12q-1 -9 -8 -9h-27q-8 0 -7 8l1 9q2 18 -11.5 31.5t-51.5 13.5q-71 0 -77 -50l-12 -99q22 27 79 27q101 0 101 -66q0 -6 -1 -15l-8 -64q-5 -40 -31.5 -61t-92.5 -21q-105 0 -105 70zM240 387l6 55
q1 8 1 11q0 43 -67 43q-71 0 -77 -49l-7 -60q-1 -9 -1 -11q0 -41 65 -41q75 0 80 52z" />
    <glyph glyph-name="seven.numerator" unicode="&#xf668;" 
d="M86 680h228q7 0 7 -8v-12q0 -5 -4 -13l-180 -333q-5 -8 -11 -8h-32q-10 0 -4 10l180 328h-187q-11 0 -9 9l2 19q1 8 10 8z" />
    <glyph glyph-name="eight.numerator" unicode="&#xf669;" 
d="M76 554q0 4 1 14l4 35q4 39 29 60t92 21q102 0 102 -67q0 -5 -1 -14l-5 -35q-4 -26 -17 -41t-42 -23q49 -11 49 -52q0 -3 -1 -11l-7 -58q-4 -39 -31 -60t-94 -21q-106 0 -106 69q0 3 1 12l7 58q7 52 63 63q-44 12 -44 50zM257 572l3 28q1 8 1 10q0 21 -14.5 31.5
t-49.5 10.5q-40 0 -56.5 -13t-18.5 -39l-3 -28q-1 -9 -1 -11q0 -21 14 -31t50 -10q39 0 56 13.5t19 38.5zM238 387l6 49q1 8 1 10q0 42 -67 42q-75 0 -80 -52l-5 -48q-1 -9 -1 -12q0 -42 67 -42q40 0 58 13.5t21 39.5z" />
    <glyph glyph-name="nine.numerator" unicode="&#xf66a;" 
d="M303 600l-27 -220q-10 -78 -122 -78q-58 0 -82 22.5t-20 55.5l1 8q1 9 9 9h25q9 0 8 -8l-1 -6q-7 -48 63 -48q72 0 78 50l11 99q-22 -27 -79 -27q-101 0 -101 66q0 6 1 15l8 64q5 40 31.5 61t93.5 21q104 0 104 -70q0 -5 -1 -14zM117 599l-7 -56q-1 -7 -1 -10
q0 -43 66 -43q72 0 78 49l7 60q1 8 1 11q0 41 -66 41q-40 0 -57.5 -13t-20.5 -39z" />
    <glyph glyph-name="comma.numerator" unicode="&#xf66b;" horiz-adv-x="159" 
d="M65 324l5 33q1 9 10 9h25q8 0 7 -9l-5 -35q-7 -51 -67 -67q-8 -2 -10 5l-4 16q-3 8 7 11q27 10 32 37z" />
    <glyph glyph-name="period.numerator" unicode="&#xf66c;" horiz-adv-x="142" 
d="M101 358l-6 -43q-1 -9 -9 -9h-26q-8 0 -7 9l5 42q1 9 10 9h25q9 0 8 -8z" />
    <glyph glyph-name="commaaccent" unicode="&#xf6c3;" horiz-adv-x="235" 
d="M99 62l4 27q1 12 13 12h22q12 0 10 -12l-3 -29q-5 -48 -51 -114q-6 -9 -16 -6l-17 5q-10 3 -3 15q35 58 41 102z" />
    <glyph glyph-name="ff" unicode="&#xfb00;" horiz-adv-x="595" 
d="M48 460l1 16q1 12 14 12l55 3h10l11 89q15 123 193 123h7q11 0 10 -12l-2 -20q-1 -12 -14 -12h-5q-127 0 -137 -83l-11 -85h238l11 89q15 123 194 123h6q11 0 10 -12l-2 -20q-1 -12 -14 -12h-5q-127 0 -137 -83l-11 -85h116q12 0 11 -11l-2 -20q-1 -11 -13 -11h-116
l-80 -645q-2 -12 -13 -12h-29q-12 0 -10 12l80 645h-238l-80 -645q-2 -12 -13 -12h-29q-12 0 -10 12l80 645h-65q-12 0 -11 11z" />
    <glyph glyph-name="ffi" unicode="&#xfb03;" horiz-adv-x="820" 
d="M48 460l1 16q1 12 14 12l55 3h10l11 89q15 123 193 123h7q11 0 10 -12l-2 -20q-1 -12 -14 -12h-5q-127 0 -137 -83l-11 -85h239l10 85q14 123 191 123h131q12 0 11 -12l-3 -20q-1 -12 -13 -12h-128q-127 0 -137 -83l-10 -81h278q12 0 11 -12l-58 -467q-2 -12 -12 -12h-29
q-13 0 -11 12l54 437h-238l-80 -645q-2 -12 -12 -12h-29q-13 0 -11 12l80 645h-238l-80 -645q-2 -12 -13 -12h-29q-12 0 -10 12l80 645h-65q-12 0 -11 11z" />
    <glyph glyph-name="ffl" unicode="&#xfb04;" horiz-adv-x="820" 
d="M785 687l-83 -675q-2 -12 -12 -12h-29q-13 0 -11 12l80 643h-112q-127 0 -137 -83l-10 -81h115q12 0 11 -11l-2 -20q-1 -11 -13 -11h-116l-80 -645q-2 -12 -12 -12h-29q-13 0 -11 12l80 645h-239l-79 -645q-2 -12 -14 -12h-28q-12 0 -11 12l80 645h-65q-12 0 -11 11l2 16
q1 12 13 12l56 3h10l11 89q15 123 193 123h6q12 0 11 -12l-2 -20q-1 -12 -14 -12h-5q-128 0 -138 -83l-10 -85h239l10 85q14 123 191 123h154q12 0 11 -12z" />
    <glyph glyph-name="zero.tab" unicode="&#xff10;" horiz-adv-x="536" 
d="M50 135l50 412q8 66 55 103.5t159 37.5q185 0 185 -119q0 -14 -1 -24l-50 -412q-8 -66 -55.5 -103.5t-159.5 -37.5q-185 0 -185 117q0 10 2 26zM395 141l49 396q1 9 1 21q0 41 -30.5 62.5t-104.5 21.5q-81 0 -115.5 -26.5t-41.5 -76.5l-49 -394q-2 -16 -2 -24
q0 -40 30.5 -61.5t104.5 -21.5q82 0 116.5 26.5t41.5 76.5z" />
    <glyph glyph-name="one.tab" unicode="&#xff11;" horiz-adv-x="536" 
d="M135 628l213 54q5 1 8.5 -1.5t2.5 -8.5l-78 -626h166q11 0 10 -12l-2 -22q-1 -12 -13 -12h-385q-11 0 -10 12l2 22q1 12 13 12h166l72 582l-171 -47q-12 -3 -10 11l2 22q1 11 14 14z" />
    <glyph glyph-name="two.tab" unicode="&#xff12;" horiz-adv-x="536" 
d="M104 46h321q13 0 11 -12l-3 -22q-1 -12 -13 -12h-363q-11 0 -10 12l23 185q10 77 102 103l185 54q66 21 72 73l14 111q0 4 0.5 9t1 7.5t0.5 5.5q0 83 -134 83q-81 0 -115 -26.5t-40 -76.5l-6 -49q-1 -13 -13 -13h-29q-12 0 -10 13l7 56q4 32 15 55.5t33.5 44t63 31
t99.5 10.5q182 0 182 -117q0 -10 -2 -26l-14 -118q-6 -51 -36.5 -78.5t-65.5 -36.5l-177 -50q-20 -6 -32.5 -11t-28.5 -20.5t-19 -37.5z" />
    <glyph glyph-name="three.tab" unicode="&#xff13;" horiz-adv-x="536" 
d="M183 385h87q82 0 113 23.5t38 74.5l8 60q1 11 1 19q0 40 -29 60.5t-99 20.5q-78 0 -112 -26t-38 -74l-1 -13q-1 -12 -13 -12h-29q-10 0 -10 12l1 19q7 139 208 139q176 0 176 -115q0 -6 -2 -26l-9 -72q-6 -47 -27.5 -73.5t-74.5 -38.5q82 -20 82 -92q0 -9 -2 -27
l-14 -114q-8 -66 -54.5 -102t-156.5 -36q-183 0 -183 118q0 11 1 20l3 20q1 12 13 12h29q12 0 10 -12l-2 -14q-1 -8 -1 -18q0 -81 133 -81q80 0 115 25.5t41 74.5l13 104q2 20 2 23q0 38 -28.5 57t-100.5 19h-93q-13 0 -11 11l2 22q1 12 14 12z" />
    <glyph glyph-name="four.tab" unicode="&#xff14;" horiz-adv-x="536" 
d="M294 668l-195 -398h286l49 398q2 12 14 12h29q11 0 10 -12l-80 -656q-1 -12 -13 -12h-29q-13 0 -11 12l26 212h-332q-11 0 -10 11l2 20q1 10 5 16l195 397q6 12 17 12h31q13 0 6 -12z" />
    <glyph glyph-name="five.tab" unicode="&#xff15;" horiz-adv-x="536" 
d="M152 680h324q12 0 11 -12l-3 -22q-1 -12 -12 -12h-283l-29 -225h119q85 0 131.5 -29.5t46.5 -82.5q0 -4 -2 -24l-17 -142q-5 -44 -22 -72t-62.5 -47.5t-120.5 -19.5q-97 0 -135.5 30.5t-38.5 86.5q0 13 1 22l2 19q2 12 12 12h29q11 0 10 -12l-1 -12q-1 -9 -1 -22
q0 -39 27 -59t99 -20q80 0 110.5 24.5t37.5 75.5l16 129q2 20 2 21q0 77 -129 77h-160q-12 0 -11 12l36 292q1 12 13 12z" />
    <glyph glyph-name="six.tab" unicode="&#xff16;" horiz-adv-x="536" 
d="M58 133l51 420q7 60 52.5 97.5t155.5 37.5q177 0 177 -115q0 -8 -1 -20l-2 -16q-1 -12 -13 -12h-29q-11 0 -10 12l1 10q1 11 1 15q0 81 -129 81q-140 0 -151 -96l-25 -200q38 55 155 55q175 0 175 -117q0 -10 -2 -26l-14 -126q-4 -32 -15 -55.5t-34 -44t-64.5 -31
t-99.5 -10.5q-181 0 -181 116q0 9 2 25zM397 139l14 116q2 16 2 20q0 40 -30.5 61t-103.5 21q-142 0 -153 -93l-14 -122q-2 -18 -2 -23q0 -40 29 -61t102 -21q82 0 116 26t40 76z" />
    <glyph glyph-name="seven.tab" unicode="&#xff17;" horiz-adv-x="536" 
d="M109 680h403q12 0 11 -12l-2 -20q-1 -6 -5 -14l-336 -622q-7 -12 -16 -12h-36q-13 0 -7 12l336 622h-352q-13 0 -12 12l3 22q1 12 13 12z" />
    <glyph glyph-name="eight.tab" unicode="&#xff18;" horiz-adv-x="536" 
d="M103 484l8 63q4 33 13.5 55.5t30.5 43.5t60.5 31.5t97.5 10.5q176 0 176 -115q0 -8 -2 -26l-8 -65q-7 -50 -30 -78t-80 -40q89 -20 89 -97q0 -7 -2 -23l-13 -111q-8 -67 -53.5 -104t-157.5 -37q-180 0 -180 117q0 14 1 24l14 113q6 49 31.5 77.5t83.5 40.5q-81 18 -81 93
q0 7 2 27zM428 489l6 52q2 20 2 22q0 40 -27.5 60t-98.5 20q-80 0 -110.5 -25.5t-37.5 -76.5l-7 -52q-1 -10 -1 -23q0 -40 27 -60t98 -20q80 0 111.5 26t37.5 77zM391 139l12 98q1 11 1 22q0 41 -29 62t-102 21q-81 0 -114.5 -26t-39.5 -77l-12 -100q-2 -18 -2 -24
q0 -78 131 -78q82 0 115.5 26t39.5 76z" />
    <glyph glyph-name="nine.tab" unicode="&#xff19;" horiz-adv-x="536" 
d="M489 547l-51 -420q-7 -61 -51.5 -98t-154.5 -37q-179 0 -179 115q0 10 1 20l2 16q2 12 13 12h29q12 0 10 -12l-1 -10q0 -2 -0.5 -7.5t-0.5 -7.5q0 -81 130 -81q79 0 112 26t38 70l25 200q-40 -55 -155 -55q-176 0 -176 117q0 10 2 26l16 126q9 67 54.5 104t156.5 37
q182 0 182 -116q0 -9 -2 -25zM150 541l-14 -116q-2 -16 -2 -20q0 -40 30 -61t103 -21q143 0 154 93l14 122q2 18 2 23q0 40 -29 61t-102 21q-82 0 -116 -26t-40 -76z" />
    <glyph glyph-name="CR" horiz-adv-x="0" 
 />
    <glyph glyph-name="apple" horiz-adv-x="1482" 
d="M69 529v8h1338v-8h-1338zM1213 332l-29 -2v4q0 20 12 20h17l-3 30q24 8 32 8q11 0 11 -8v-29h47v-3q0 -21 -12 -21h-35v-90q0 -15 16 -15q11 0 38.5 5.5t46.5 5.5q17 0 39.5 -6t22.5 -18q0 -14 -9.5 -21t-17.5 -7q-2 0 -26.5 12t-44.5 12q-7 0 -32 -4t-44 -4t-23 12.5
t-5 65.5q0 32 -1 53zM711 320q17 0 28.5 -13.5t11.5 -37.5q0 -68 -87 -68v-40l3 -32q-24 -8 -32 -8q-11 0 -11 8v75l-25 -3v-3q0 -79 -68 -79q-21 0 -31 10.5t-10 23.5q0 36 70 53v42q-17 -48 -46 -48q-28 0 -28 31v3q-19 -33 -53 -33q-29 0 -29 30v101l-29 -2v4q0 20 12 20
h17l-3 30q24 8 32 8q11 0 11 -8v-29h47v-3q0 -21 -12 -21h-35v-86q0 -16 13 -16q9 0 19 8t10 18v25l-3 33q24 8 32 8q11 0 11 -9v-66q0 -15 7 -15q8 0 17.5 17.5t8.5 30.5l-2 34q24 8 31 8q11 0 11 -9v-99l25 3v61l-3 36q24 8 32 8q11 0 11 -9v-40q17 48 47 48zM1172 258
q-16 -6 -44 -6q2 -22 26 -22q17 0 32 9q8 -5 8 -16q0 -4 -2.5 -8.5t-14 -9.5t-30.5 -5q-28 0 -44 14.5t-16 38.5q0 27 18.5 47.5t50.5 20.5q19 0 30 -9.5t11 -21.5q0 -24 -25 -32zM849 258q-16 -6 -44 -6q2 -22 26 -22q17 0 32 9q8 -5 8 -16q0 -4 -2.5 -8.5t-14 -9.5
t-30.5 -5q-28 0 -44 14.5t-16 38.5q0 27 18.5 47.5t50.5 20.5q19 0 30 -9.5t11 -21.5q0 -24 -25 -32zM150 258q-16 -6 -44 -6q2 -22 26 -22q17 0 32 9q8 -5 8 -16q0 -4 -2.5 -8.5t-14 -9.5t-30.5 -5q-28 0 -44 14.5t-16 38.5q0 27 18.5 47.5t50.5 20.5q19 0 30 -9.5
t11 -21.5q0 -24 -25 -32zM380 289v-49l3 -32q-24 -8 -31 -8q-11 0 -11 8v66q0 16 -8 16q-6 0 -16 -17.5t-10 -30.5l2 -34q-24 -8 -31 -8q-11 0 -11 8v66q0 16 -8 16q-7 0 -16.5 -17.5t-9.5 -30.5l3 -34q-24 -8 -32 -8q-11 0 -11 8v69l-3 36q24 8 32 8q11 0 11 -9v-40
q3 9 7.5 19t15 20t22.5 10q29 0 29 -32v-17q14 49 45 49q28 0 28 -32zM1071 289v-49l2 -32q-24 -8 -31 -8q-11 0 -11 8v67q0 15 -8 15q-7 0 -16.5 -17.5t-9.5 -30.5l3 -34q-24 -8 -32 -8q-11 0 -11 8v69l-3 36q24 8 32 8q11 0 11 -9v-40q17 49 45 49q29 0 29 -32zM105 264
q37 0 37 21q0 13 -13 13q-20 0 -24 -34zM1127 264q37 0 37 21q0 13 -13 13q-20 0 -24 -34zM804 264q37 0 37 21q0 13 -13 13q-20 0 -24 -34zM664 219q45 6 45 51q0 20 -13 20t-22.5 -18.5t-9.5 -29.5v-23zM914 250q11 0 18.5 -7t7.5 -17t-7.5 -16.5t-18.5 -6.5t-18 6.5
t-7 16.5t7 17t18 7zM559 194q-41 -9 -41 -32q0 -14 14 -14q25 0 27 46zM69 0v8h1338v-8h-1338z" />
    <glyph glyph-name="Lgeminada" horiz-adv-x="952" 
d="M196 668l-77 -622h296q11 0 10 -12l-2 -22q-1 -12 -13 -12h-339q-11 0 -9 12l80 656q2 12 14 12h30q12 0 10 -12zM672 668l-77 -622h296q11 0 10 -12l-2 -22q-1 -12 -13 -12h-339q-11 0 -9 12l80 656q2 12 14 12h30q12 0 10 -12zM400 393l-10 -77q-1 -12 -12 -12h-30
q-11 0 -10 12l9 77q1 12 13 12h30q12 0 10 -12z" />
    <glyph glyph-name="lgeminada" horiz-adv-x="480" 
d="M183 687l-82 -675q-1 -12 -13 -12h-29q-11 0 -10 12l82 675q1 12 14 12h29q10 0 9 -12zM444 687l-82 -675q-2 -12 -13 -12h-29q-12 0 -10 12l82 675q2 12 14 12h29q11 0 9 -12zM278 393l-10 -77q-1 -12 -12 -12h-30q-11 0 -10 12l9 77q1 12 13 12h30q12 0 10 -12z" />
    <glyph glyph-name="acute.case" horiz-adv-x="233" 
d="M185 866l-94 -119q-7 -7 -15 -7h-26q-12 0 -4 11l86 117q8 10 16 10h33q14 0 4 -12z" />
    <glyph glyph-name="grave.case" horiz-adv-x="233" 
d="M127 747l-65 119q-6 12 7 12h31q10 0 15 -10l56 -117q5 -11 -6 -11h-23q-12 0 -15 7z" />
    <glyph glyph-name="hungarumlaut.case" horiz-adv-x="233" 
d="M228 866l-92 -116q-8 -10 -18 -10h-23q-13 0 -4 11l87 115q10 12 19 12h27q14 0 4 -12zM125 866l-78 -115q-8 -11 -17 -11h-22q-13 0 -6 11l73 115q7 12 18 12h26q15 0 6 -12z" />
    <glyph glyph-name="circumflex.case" horiz-adv-x="233" 
d="M128 844l-72 -93q-7 -11 -17 -11h-24q-13 0 -5 11l91 115q10 12 20 12h20q11 0 17 -11l64 -116q6 -11 -7 -11h-22q-10 0 -16 11z" />
    <glyph glyph-name="caron.case" horiz-adv-x="233" 
d="M54 866l49 -92l72 92q9 12 18 12h24q14 0 5 -12l-93 -115q-8 -11 -19 -11h-19q-11 0 -18 12l-65 114q-3 4 -0.5 8t8.5 4h24q8 0 14 -12z" />
    <glyph glyph-name="breve.case" horiz-adv-x="233" 
d="M43 872l-2 -24q-1 -9 -1 -15q0 -28 15 -40.5t53 -12.5q45 0 61.5 19.5t19.5 58.5l1 14q1 10 12 10h19q11 0 9 -10l-1 -12q-5 -57 -32 -86t-92 -29q-105 0 -105 85q0 8 1 19l2 23q1 10 13 10h18q10 0 9 -10z" />
    <glyph glyph-name="tilde.case" horiz-adv-x="233" 
d="M54 828q-18 0 -25 -10.5t-11 -38.5l-2 -14q-1 -11 -14 -11h-16q-11 0 -9 14l4 22q8 43 26 61t48 18q28 0 52 -21l40 -36q18 -16 32 -16q18 0 25.5 11t11.5 43l1 9q1 11 14 11h16q11 0 9 -13l-3 -21q-12 -81 -75 -81q-27 0 -52 22l-41 36q-19 15 -31 15z" />
    <glyph glyph-name="macron.case" horiz-adv-x="233" 
d="M-9 820h256q6 0 9 -2.5t2 -7.5l-2 -19q-2 -12 -13 -12h-257q-12 0 -11 12l2 18q1 11 14 11z" />
    <glyph glyph-name="dieresis.case" horiz-adv-x="233" 
d="M94 857l-12 -98q-2 -12 -13 -12h-18q-11 0 -10 12l11 98q2 12 14 12h18q12 0 10 -12zM192 857l-12 -98q-2 -12 -13 -12h-18q-11 0 -10 12l11 98q2 12 14 12h18q12 0 10 -12z" />
    <glyph glyph-name="dotaccent.case" horiz-adv-x="233" 
d="M148 838l-9 -77q-1 -11 -13 -11h-29q-12 0 -11 11l9 77q1 12 13 12h30q11 0 10 -12z" />
    <glyph glyph-name="ring.case" horiz-adv-x="233" 
d="M207 809l-2 -22q-5 -64 -96 -64q-47 0 -66.5 19.5t-16.5 54.5l2 22q5 65 97 65q45 0 65 -21t17 -54zM173 792l1 14q2 24 -9 36t-43 12q-59 0 -62 -40l-1 -13q-2 -25 9 -36.5t42 -11.5q60 0 63 39z" />
    </font>
</defs>
</svg>
