<?xml version="1.0" standalone="no"?>
<!DOCTYPE svg PUBLIC "-//W3C//DTD SVG 1.1//EN" "http://www.w3.org/Graphics/SVG/1.1/DTD/svg11.dtd" >
<svg xmlns="http://www.w3.org/2000/svg" xmlns:xlink="http://www.w3.org/1999/xlink" version="1.1">
<metadata>
Created by FontForge 20170731 at Thu Dec 15 23:04:06 2016
 By Aleksey,,,
Copyright (c) 2008-2016 by Eduardo Manso. All rights reserved.
</metadata>
<defs>
<font id="Geogrotesque-SmBd" horiz-adv-x="340" >
  <font-face 
    font-family="Geogrotesque SemiBold"
    font-weight="600"
    font-stretch="normal"
    units-per-em="1000"
    panose-1="0 0 0 0 0 0 0 0 0 0"
    ascent="750"
    descent="-250"
    x-height="498"
    cap-height="680"
    bbox="-153.941 -261.087 1416 964"
    underline-thickness="89"
    underline-position="-301"
    unicode-range="U+000D-FF19"
  />
<missing-glyph horiz-adv-x="847" 
d="M671 94q-104 -102 -249 -102q-144 0 -246 102q-103 101 -103 247q0 144 103 247q102 102 246 102q147 0 249 -102q103 -103 103 -247t-103 -247zM659 106q99 99 99 235t-99 235q-98 98 -237 98q-136 0 -234 -98q-99 -99 -99 -235q0 -137 99 -235q98 -98 234 -98
q139 0 237 98zM523 168l-100 100l-100 -100q-17 -18 -35 0l-41 42q-17 17 0 34l100 100l-100 100q-17 18 -1 34l41 42q17 19 36 0l100 -101l101 101q18 18 34 1l42 -41q18 -18 -1 -36l-100 -100l100 -101q17 -17 0 -35l-42 -41q-17 -17 -34 1z" />
    <glyph glyph-name="fi" unicode="fi" horiz-adv-x="592" 
d="M534 472v-446q0 -26 -23 -26h-83q-25 0 -25 26v366h-175v-366q0 -26 -24 -26h-83q-24 0 -24 26v366h-54q-25 0 -25 25v50q0 12 5.5 17t19.5 7l50 5h4v55q0 70 53.5 109t160.5 39h192q25 0 25 -25v-58q0 -25 -25 -25h-192q-83 0 -83 -54v-41h281q25 0 25 -24z" />
    <glyph glyph-name="fl" unicode="fl" horiz-adv-x="592" 
d="M534 674v-648q0 -26 -23 -26h-83q-25 0 -25 26v565h-92q-83 0 -83 -54v-41h83q25 0 25 -23v-56q0 -25 -25 -25h-83v-366q0 -26 -24 -26h-83q-24 0 -24 26v366h-54q-25 0 -25 25v50q0 12 5.5 17t19.5 7l50 5h4v55q0 70 53.5 109t160.5 39h198q25 0 25 -25z" />
    <glyph glyph-name=".notdef" horiz-adv-x="847" 
d="M671 94q-104 -102 -249 -102q-144 0 -246 102q-103 101 -103 247q0 144 103 247q102 102 246 102q147 0 249 -102q103 -103 103 -247t-103 -247zM659 106q99 99 99 235t-99 235q-98 98 -237 98q-136 0 -234 -98q-99 -99 -99 -235q0 -137 99 -235q98 -98 234 -98
q139 0 237 98zM523 168l-100 100l-100 -100q-17 -18 -35 0l-41 42q-17 17 0 34l100 100l-100 100q-17 18 -1 34l41 42q17 19 36 0l100 -101l101 101q18 18 34 1l42 -41q18 -18 -1 -36l-100 -100l100 -101q17 -17 0 -35l-42 -41q-17 -17 -34 1z" />
    <glyph glyph-name=".null" horiz-adv-x="0" 
 />
    <glyph glyph-name=".null" horiz-adv-x="0" 
 />
    <glyph glyph-name="nonmarkingreturn" horiz-adv-x="333" 
 />
    <glyph glyph-name="CR" unicode="&#xd;" horiz-adv-x="0" 
 />
    <glyph glyph-name="space" unicode=" " horiz-adv-x="194" 
 />
    <glyph glyph-name="exclam" unicode="!" horiz-adv-x="259" 
d="M198 390l-13 -183q-1 -14 -6 -19.5t-18 -5.5h-62q-23 0 -24 25l-13 183v264q0 26 24 26h88q24 0 24 -26v-264zM196 106v-81q0 -25 -23 -25h-87q-25 0 -25 25v81q0 25 25 25h87q23 0 23 -25z" />
    <glyph glyph-name="quotedbl" unicode="&#x22;" horiz-adv-x="401" 
d="M165 491q-1 -25 -24 -25h-59q-13 0 -18 5.5t-6 19.5l-11 163q-1 26 24 26h81q24 0 23 -26zM343 491q-1 -14 -6 -19.5t-18 -5.5h-58q-24 0 -25 25l-10 163q-1 26 24 26h80q25 0 24 -26z" />
    <glyph glyph-name="numbersign" unicode="#" horiz-adv-x="610" 
d="M207 26q-3 -26 -26 -26h-57q-26 0 -23 26l21 159h-65q-25 0 -25 24v44q0 23 25 23h76l17 129h-64q-25 0 -25 24v44q0 23 25 23h76l20 158q3 26 26 26h58q25 0 22 -26l-20 -158h114l20 158q3 26 27 26h57q26 0 23 -26l-21 -158h64q25 0 25 -23v-44q0 -24 -25 -24h-76
l-16 -129h64q25 0 25 -23v-44q0 -24 -25 -24h-76l-21 -159q-3 -26 -25 -26h-58q-26 0 -23 26l21 159h-114zM239 276h114l17 129h-114z" />
    <glyph glyph-name="dollar" unicode="$" horiz-adv-x="485" 
d="M288 0h-84q-24 0 -24 26v61q-71 11 -106 46t-35 79v23q0 23 23 23h74q23 0 23 -23v-17q0 -42 80 -42q81 0 81 42v18q0 13 -10 21t-35 17l-145 49q-30 11 -54.5 41t-24.5 65v35q0 45 31 80.5t98 47.5v62q0 26 24 26h84q23 0 23 -26v-63q64 -13 93.5 -48t29.5 -79v-19
q0 -13 -5 -18t-18 -5h-74q-22 0 -22 23v19q0 41 -73 41q-72 0 -72 -41v-13q0 -25 31 -36l144 -47q96 -31 96 -103v-53q0 -42 -32.5 -76t-97.5 -47v-63q0 -26 -23 -26z" />
    <glyph glyph-name="percent" unicode="%" horiz-adv-x="803" 
d="M618 662l-328 -644q-13 -26 -35 -26h-65q-10 0 -13.5 9t1.5 17l329 644q13 26 36 26h64q10 0 13 -8t-2 -18zM35 422v163q0 41 35 70t109 29q73 0 108 -29t35 -70v-163q0 -41 -35 -70t-108 -29q-74 0 -109 29t-35 70zM222 438v132q0 35 -43 35q-45 0 -45 -35v-132
q0 -36 45 -36q43 0 43 36zM481 95v163q0 41 35 70t109 29q73 0 108 -29t35 -70v-163q0 -41 -35 -70t-108 -29q-74 0 -109 29t-35 70zM668 110v132q0 36 -43 36q-44 0 -44 -36v-132q0 -35 44 -35q43 0 43 35z" />
    <glyph glyph-name="ampersand" unicode="&#x26;" horiz-adv-x="677" 
d="M570 155q0 -72 -60 -117.5t-200 -45.5q-258 0 -258 159v89q0 83 84 114q-75 25 -75 104v71q0 159 223 159q226 0 226 -163v-32q0 -25 -24 -25h-83q-24 0 -24 25v13q0 74 -93 74q-49 0 -70.5 -18t-21.5 -56v-28q0 -74 98 -74h336q25 0 25 -24v-59q0 -25 -25 -25h-58v-141z
M311 100q128 0 128 74v122h-156q-98 0 -98 -73v-49q0 -74 126 -74z" />
    <glyph glyph-name="quotesingle" unicode="'" horiz-adv-x="222" 
d="M175 654l-10 -163q-1 -25 -24 -25h-59q-13 0 -18 5.5t-6 19.5l-11 163q-1 26 24 26h81q24 0 23 -26z" />
    <glyph glyph-name="parenleft" unicode="(" horiz-adv-x="333" 
d="M59 -70v630q0 70 53.5 109t160.5 39h10q25 0 25 -25v-58q0 -25 -25 -25h-10q-79 0 -79 -54v-602q0 -54 79 -54h10q25 0 25 -25v-58q0 -25 -25 -25h-10q-107 0 -160.5 39t-53.5 109z" />
    <glyph glyph-name="parenright" unicode=")" horiz-adv-x="333" 
d="M274 560v-630q0 -70 -53.5 -109t-160.5 -39h-10q-25 0 -25 25v58q0 25 25 25h10q42 0 60 13t18 41v602q0 28 -18 41t-60 13h-10q-25 0 -25 25v58q0 25 25 25h10q107 0 160.5 -39t53.5 -109z" />
    <glyph glyph-name="asterisk" unicode="*" horiz-adv-x="489" 
d="M224 286q-25 0 -24 26l9 121l-107 -69q-22 -14 -33 9l-20 39q-12 23 11 33l104 48l-104 49q-23 11 -11 33l20 38q11 23 33 9l108 -69l-10 130q-1 14 5 19.5t20 5.5h43q13 0 18.5 -5.5t4.5 -19.5l-9 -127l104 66q22 13 33 -8l21 -39q12 -22 -11 -33l-105 -49l105 -48
q23 -11 11 -33l-21 -40q-12 -22 -33 -8l-103 65l8 -117q1 -26 -24 -26h-43z" />
    <glyph glyph-name="plus" unicode="+" horiz-adv-x="506" 
d="M199 143v141h-142q-25 0 -25 25v59q0 24 25 24h142v142q0 26 23 26h59q25 0 25 -26v-142h142q26 0 26 -24v-59q0 -25 -26 -25h-142v-141q0 -25 -25 -25h-59q-23 0 -23 25z" />
    <glyph glyph-name="comma" unicode="," horiz-adv-x="251" 
d="M65 39v67q0 25 24 25h86q23 0 23 -25v-74q0 -114 -144 -148q-24 -6 -32 16l-19 56q-8 23 16 31q26 10 36 21.5t10 30.5z" />
    <glyph glyph-name="hyphen" unicode="-" horiz-adv-x="434" 
d="M83 342h268q25 0 25 -24v-59q0 -24 -25 -24h-268q-25 0 -25 24v59q0 24 25 24z" />
    <glyph glyph-name="period" unicode="." horiz-adv-x="238" 
d="M186 106v-81q0 -25 -24 -25h-85q-25 0 -25 25v81q0 25 25 25h85q24 0 24 -25z" />
    <glyph glyph-name="slash" unicode="/" horiz-adv-x="387" 
d="M363 673l-199 -795q-7 -26 -29 -26h-91q-26 0 -20 26l199 795q6 26 29 26h92q25 0 19 -26z" />
    <glyph glyph-name="zero" unicode="0" horiz-adv-x="581" 
d="M57 155v370q0 71 56 117t177 46q122 0 178 -46.5t56 -116.5v-370q0 -70 -56 -116.5t-178 -46.5q-121 0 -177 46t-56 117zM388 179v322q0 75 -98 75q-97 0 -97 -75v-322q0 -75 97 -75q98 0 98 75z" />
    <glyph glyph-name="one" unicode="1" horiz-adv-x="515" 
d="M69 642l247 45q10 2 17 -3t7 -21v-551h131q25 0 25 -24v-63q0 -25 -25 -25h-402q-25 0 -25 25v63q0 24 25 24h136v441l-136 -25q-25 -5 -25 21v66q0 22 25 27z" />
    <glyph glyph-name="two" unicode="2" horiz-adv-x="560" 
d="M196 112h290q25 0 25 -24v-63q0 -25 -25 -25h-400q-25 0 -25 25v163q0 49 21 74.5t58 40.5l193 81q40 16 40 58v61q0 75 -98 75q-96 0 -96 -75v-39q0 -25 -24 -25h-83q-25 0 -25 25v61q0 71 53.5 117t174.5 46q122 0 177 -46t55 -117v-79q0 -113 -95 -152l-169 -70
q-27 -12 -37 -22t-10 -34v-56z" />
    <glyph glyph-name="three" unicode="3" horiz-adv-x="559" 
d="M199 404h68q98 0 98 74v28q0 38 -21.5 56t-70.5 18q-93 0 -93 -74v-13q0 -25 -24 -25h-83q-24 0 -24 25v32q0 163 226 163q223 0 223 -159v-71q0 -40 -17.5 -65t-58.5 -39q84 -31 84 -114v-89q0 -70 -53 -114.5t-176 -44.5q-124 0 -178 46t-54 117v32q0 25 23 25h84
q24 0 24 -25v-13q0 -74 99 -74t99 74v49q0 73 -98 73h-77q-25 0 -25 25v59q0 24 25 24z" />
    <glyph glyph-name="four" unicode="4" horiz-adv-x="558" 
d="M282 654l-113 -357h190v357q0 26 25 26h87q24 0 24 -26v-628q0 -26 -24 -26h-87q-25 0 -25 26v159h-304q-26 0 -26 24v54q0 15 6 33l111 358q8 26 31 26h87q26 0 18 -26z" />
    <glyph glyph-name="five" unicode="5" horiz-adv-x="551" 
d="M93 680h366q25 0 25 -24v-63q0 -25 -25 -25h-254v-131h67q121 0 177 -44.5t56 -114.5v-124q0 -72 -53.5 -117.5t-177.5 -45.5t-177.5 45.5t-53.5 117.5v32q0 25 24 25h83q24 0 24 -25v-12q0 -75 98 -75q97 0 97 75v85q0 70 -98 70h-178q-24 0 -24 26v299q0 26 24 26z" />
    <glyph glyph-name="six" unicode="6" horiz-adv-x="562" 
d="M58 155v371q0 70 52.5 116t172.5 46q121 0 171.5 -46t50.5 -116v-26q0 -25 -24 -25h-83q-24 0 -24 25v7q0 73 -91 73t-91 -73v-122q43 31 111 31q107 0 158 -47t51 -117v-97q0 -71 -53 -117t-174 -46t-174 46t-53 117zM379 175v58q0 74 -94 74q-93 0 -93 -68v-64
q0 -75 93 -75q94 0 94 75z" />
    <glyph glyph-name="seven" unicode="7" horiz-adv-x="527" 
d="M47 680h435q25 0 25 -24v-62q0 -9 -5 -19l-243 -549q-11 -26 -31 -26h-99q-29 0 -17 26l242 542h-307q-25 0 -25 25v63q0 24 25 24z" />
    <glyph glyph-name="eight" unicode="8" horiz-adv-x="555" 
d="M62 459v66q0 163 215 163q216 0 216 -163v-66q0 -76 -75 -106q86 -31 86 -107v-91q0 -71 -53 -117t-174 -46t-173.5 46t-52.5 117v91q0 76 86 107q-75 30 -75 106zM362 480v25q0 39 -19.5 57t-65.5 18t-64.5 -18t-18.5 -57v-25q0 -39 18.5 -57t64.5 -18t65.5 18t19.5 57z
M371 175v50q0 38 -22.5 55.5t-71.5 17.5q-48 0 -70 -17.5t-22 -55.5v-50q0 -75 92 -75q94 0 94 75z" />
    <glyph glyph-name="nine" unicode="9" horiz-adv-x="562" 
d="M504 525v-371q0 -70 -52.5 -116t-172.5 -46t-171 46t-51 116v26q0 25 25 25h83q23 0 23 -25v-7q0 -73 91 -73t91 73v121q-42 -30 -111 -30q-107 0 -158 47t-51 117v97q0 71 53 117t175 46q121 0 173.5 -46t52.5 -117zM370 506q0 74 -92 74q-95 0 -95 -75v-58
q0 -74 95 -74q92 0 92 73v60z" />
    <glyph glyph-name="colon" unicode=":" horiz-adv-x="250" 
d="M192 473v-82q0 -25 -24 -25h-85q-25 0 -25 25v82q0 25 25 25h85q24 0 24 -25zM192 106v-81q0 -25 -24 -25h-85q-25 0 -25 25v81q0 25 25 25h85q24 0 24 -25z" />
    <glyph glyph-name="semicolon" unicode=";" horiz-adv-x="271" 
d="M208 473v-82q0 -25 -24 -25h-85q-25 0 -25 25v82q0 25 25 25h85q24 0 24 -25zM74 39v67q0 25 25 25h85q24 0 24 -25v-74q0 -113 -145 -148q-23 -6 -31 16l-19 56q-8 23 16 31q26 9 35.5 21t9.5 31z" />
    <glyph glyph-name="less" unicode="&#x3c;" horiz-adv-x="496" 
d="M413 435l-251 -97l251 -95q14 -5 19.5 -10.5t5.5 -17.5v-79q0 -14 -7 -21.5t-18 -2.5l-356 153q-7 3 -9.5 4.5t-6.5 5t-5.5 8t-1.5 10.5v92q0 6 1 10.5t6 8t6.5 4t9.5 4.5l356 154q12 5 18.5 -2t6.5 -22v-79q0 -12 -5.5 -17.5t-19.5 -10.5z" />
    <glyph glyph-name="equal" unicode="=" horiz-adv-x="582" 
d="M85 478h412q25 0 25 -24v-60q0 -24 -25 -24h-412q-25 0 -25 24v60q0 24 25 24zM85 273h412q25 0 25 -23v-60q0 -25 -25 -25h-412q-25 0 -25 25v60q0 23 25 23z" />
    <glyph glyph-name="greater" unicode="&#x3e;" horiz-adv-x="497" 
d="M334 338l-251 96q-25 10 -25 28v80q0 15 6.5 22.5t18.5 2.5l356 -154q7 -3 9.5 -4.5t6.5 -4.5t5.5 -7.5t1.5 -10.5v-94q0 -6 -1 -10.5t-6 -8t-6.5 -4t-9.5 -4.5l-356 -154q-11 -5 -18 2.5t-7 21.5v81q0 9 3.5 14.5t8 7.5l13.5 6z" />
    <glyph glyph-name="question" unicode="?" horiz-adv-x="524" 
d="M166 206v69q0 26 10.5 45t21.5 27t30 18l93 47q38 19 38 61v30q0 75 -99 75t-99 -75v-39q0 -25 -24 -25h-83q-24 0 -24 25v61q0 71 54 117t176 46q121 0 177 -46t56 -117v-47q0 -112 -93 -155l-57 -26q-23 -10 -32.5 -21.5t-9.5 -34.5v-35q0 -13 -5 -18.5t-18 -5.5h-88
q-24 0 -24 24zM301 106v-81q0 -25 -23 -25h-88q-24 0 -24 25v81q0 25 24 25h88q23 0 23 -25z" />
    <glyph glyph-name="at" unicode="@" horiz-adv-x="926" 
d="M638 -150h-175q-102 0 -177.5 13.5t-118.5 34t-69 51.5t-34.5 60.5t-8.5 66.5v351q0 47 15 83t56 70.5t126 53t211 18.5t211 -18.5t126 -53t56 -70.5t15 -83v-234q0 -74 -44.5 -117t-141.5 -43q-110 0 -149 62q-68 -62 -157 -62q-137 0 -124 146l12 133q13 146 142 146
q64 0 134 -49l3 16q4 25 27 25h74q24 0 21 -25l-21 -206q-2 -25 -1 -45.5t12.5 -33t34.5 -12.5q30 0 40 21.5t10 61.5v210q0 42 -21 67.5t-84 41.5t-175 16t-175.5 -16t-84.5 -41.5t-21 -67.5v-339q0 -42 21 -68t84.5 -42t175.5 -16h175q25 0 25 -25v-56q0 -25 -25 -25z
M392 286l-8 -85q-2 -24 8.5 -36t41.5 -12q34 0 82 24v6l13 127q-43 33 -79 33q-52 0 -58 -57z" />
    <glyph glyph-name="A" unicode="A" horiz-adv-x="555" 
d="M234 680h87q25 0 32 -25l186 -630q8 -25 -18 -25h-90q-21 0 -29 25l-36 122h-186l-35 -122q-8 -25 -29 -25h-82q-26 0 -18 25l187 630q7 25 31 25zM337 254l-33 111q-16 55 -29 183q-16 -132 -31 -182l-34 -112h127z" />
    <glyph glyph-name="B" unicode="B" horiz-adv-x="592" 
d="M308 0h-214q-24 0 -24 26v628q0 26 24 26h183q128 0 185 -41t57 -110v-59q0 -77 -75 -112q106 -37 106 -121v-79q0 -70 -57.5 -114t-184.5 -44zM277 572h-72v-174h75q105 0 105 75v35q0 36 -27 50t-81 14zM308 296h-103v-188h103q109 0 109 74v45q0 32 -29.5 50.5
t-79.5 18.5z" />
    <glyph glyph-name="C" unicode="C" horiz-adv-x="568" 
d="M529 217v-62q0 -71 -54.5 -117t-180.5 -46t-180.5 46t-54.5 117v370q0 71 54.5 117t180.5 46t180.5 -46t54.5 -117v-48q0 -25 -23 -25h-83q-25 0 -25 25v24q0 75 -102 75q-101 0 -101 -75v-322q0 -75 101 -75q102 0 102 75v38q0 25 25 25h83q23 0 23 -25z" />
    <glyph glyph-name="D" unicode="D" horiz-adv-x="614" 
d="M312 0h-221q-21 0 -21 26v628q0 26 24 26h218q126 0 185 -46.5t59 -116.5v-354q0 -70 -59 -116.5t-185 -46.5zM312 568h-107v-456h107q109 0 109 75v306q0 75 -109 75z" />
    <glyph glyph-name="E" unicode="E" horiz-adv-x="511" 
d="M446 0h-352q-24 0 -24 26v628q0 26 24 26h342q25 0 25 -24v-63q0 -25 -25 -25h-231v-162h214q26 0 26 -24v-60q0 -24 -26 -24h-214v-186h241q25 0 25 -24v-63q0 -25 -25 -25z" />
    <glyph glyph-name="F" unicode="F" horiz-adv-x="520" 
d="M94 680h366q25 0 25 -24v-63q0 -25 -25 -25h-255v-162h238q25 0 25 -24v-64q0 -25 -25 -25h-238v-267q0 -26 -24 -26h-87q-24 0 -24 26v628q0 26 24 26z" />
    <glyph glyph-name="G" unicode="G" horiz-adv-x="584" 
d="M300 357h204q25 0 25 -24v-178q0 -71 -54.5 -117t-180.5 -46t-180.5 46t-54.5 117v370q0 71 54.5 117t180.5 46t180.5 -46t54.5 -117v-40q0 -25 -23 -25h-83q-25 0 -25 25v16q0 75 -102 75q-101 0 -101 -75v-322q0 -75 101 -75q102 0 102 74v67h-98q-26 0 -26 24v64
q0 24 26 24z" />
    <glyph glyph-name="H" unicode="H" horiz-adv-x="626" 
d="M205 654v-249h216v249q0 26 24 26h87q24 0 24 -26v-628q0 -26 -24 -26h-87q-24 0 -24 26v267h-216v-267q0 -26 -24 -26h-87q-24 0 -24 26v628q0 26 24 26h87q24 0 24 -26z" />
    <glyph glyph-name="I" unicode="I" horiz-adv-x="274" 
d="M205 654v-628q0 -26 -24 -26h-87q-24 0 -24 26v628q0 26 24 26h87q24 0 24 -26z" />
    <glyph glyph-name="J" unicode="J" horiz-adv-x="518" 
d="M150 215v-36q0 -75 86 -75q43 0 61.5 18t18.5 57v475q0 26 24 26h87q24 0 24 -26v-499q0 -163 -215 -163q-117 0 -168 46t-51 117v60q0 25 25 25h84q24 0 24 -25z" />
    <glyph glyph-name="K" unicode="K" horiz-adv-x="579" 
d="M335 346l235 -320q7 -10 3.5 -18t-15.5 -8h-117q-19 0 -36 25l-186 262h-14v-262q0 -25 -24 -25h-87q-24 0 -24 25v630q0 25 24 25h87q24 0 24 -25v-269h13l176 269q15 25 40 25h98q13 0 16 -7.5t-4 -17.5z" />
    <glyph glyph-name="L" unicode="L" horiz-adv-x="465" 
d="M205 654v-542h223q25 0 25 -24v-63q0 -25 -25 -25h-337q-21 0 -21 26v628q0 26 24 26h87q24 0 24 -26z" />
    <glyph glyph-name="M" unicode="M" horiz-adv-x="747" 
d="M677 655v-630q0 -25 -24 -25h-83q-24 0 -24 25v381q-19 -68 -29 -92l-76 -185q-11 -26 -32 -26h-72q-21 0 -32 26l-85 200q-14 35 -23 75v-379q0 -25 -24 -25h-79q-24 0 -24 25v630q0 25 24 25h79q16 0 22 -14l153 -348q2 -6 25 -71q14 42 26 69l148 352q5 12 23 12h83
q24 0 24 -25z" />
    <glyph glyph-name="N" unicode="N" horiz-adv-x="625" 
d="M555 655v-630q0 -25 -23 -25h-79q-16 0 -23 12l-193 331q-23 39 -40 82v-400q0 -25 -24 -25h-79q-24 0 -24 25v630q0 25 24 25h79q14 0 21 -10l201 -345q19 -33 33 -70v400q0 25 25 25h79q23 0 23 -25z" />
    <glyph glyph-name="O" unicode="O" horiz-adv-x="605" 
d="M59 155v370q0 70 58.5 116.5t184.5 46.5t184.5 -46.5t58.5 -116.5v-370q0 -70 -58.5 -116.5t-184.5 -46.5t-184.5 46.5t-58.5 116.5zM410 179v322q0 75 -108 75q-107 0 -107 -75v-322q0 -75 107 -75q108 0 108 75z" />
    <glyph glyph-name="P" unicode="P" horiz-adv-x="580" 
d="M304 241h-99v-215q0 -26 -24 -26h-87q-24 0 -24 26v628q0 26 24 26h210q126 0 184 -46t58 -117v-113q0 -71 -58 -117t-184 -46zM304 568h-99v-215h99q51 0 79.5 19t28.5 55v66q0 75 -108 75z" />
    <glyph glyph-name="Q" unicode="Q" horiz-adv-x="605" 
d="M472 -174q-16 -18 -34 -2l-184 170q-101 9 -148 53.5t-47 107.5v370q0 70 58.5 116.5t184.5 46.5t184.5 -46.5t58.5 -116.5v-370q0 -53 -33.5 -94t-105.5 -58l107 -95q20 -18 3 -35zM410 179v322q0 75 -108 75q-107 0 -107 -75v-322q0 -75 107 -75q108 0 108 75z" />
    <glyph glyph-name="R" unicode="R" horiz-adv-x="594" 
d="M181 0h-87q-24 0 -24 26v628q0 26 24 26h210q126 0 184 -46t58 -117v-95q0 -104 -109 -143l107 -253q5 -12 -2 -19t-21 -7h-94q-17 0 -28 26l-97 233h-97v-233q0 -26 -24 -26zM304 568h-99v-197h99q108 0 108 75v47q0 75 -108 75z" />
    <glyph glyph-name="S" unicode="S" horiz-adv-x="567" 
d="M382 484v23q0 72 -97 72q-98 0 -98 -72v-15q0 -39 41 -54l174 -62q118 -42 118 -144v-77q0 -71 -57 -117t-181 -46t-181.5 46.5t-57.5 116.5v63q0 26 25 26h84q23 0 23 -26v-45q0 -72 106 -72q107 0 107 72v32q0 20 -15 35.5t-29 22t-41 16.5l-155 59q-38 14 -65 50
t-27 79v58q0 72 53 117.5t176 45.5q121 0 175 -46t54 -117v-41q0 -25 -24 -25h-84q-24 0 -24 25z" />
    <glyph glyph-name="T" unicode="T" horiz-adv-x="496" 
d="M38 680h420q25 0 25 -24v-63q0 -25 -25 -25h-142v-542q0 -26 -24 -26h-88q-24 0 -24 26v542h-142q-25 0 -25 25v63q0 24 25 24z" />
    <glyph glyph-name="U" unicode="U" horiz-adv-x="620" 
d="M202 654v-475q0 -37 28 -56t79 -19q109 0 109 75v475q0 26 24 26h87q24 0 24 -26v-499q0 -70 -59 -116.5t-185 -46.5t-184 46.5t-58 116.5v499q0 26 24 26h87q24 0 24 -26z" />
    <glyph glyph-name="V" unicode="V" horiz-adv-x="555" 
d="M321 0h-87q-24 0 -31 25l-187 630q-8 25 18 25h96q21 0 29 -25l97 -340q13 -43 24 -145q11 91 26 144l98 341q8 25 29 25h88q26 0 18 -25l-186 -630q-7 -25 -32 -25z" />
    <glyph glyph-name="W" unicode="W" horiz-adv-x="849" 
d="M501 655l84 -340q9 -35 17 -100q7 56 18 99l86 341q6 25 29 25h76q24 0 18 -25l-158 -630q-6 -25 -31 -25h-85q-23 0 -29 25l-87 349q-9 38 -14 92q-7 -63 -14 -93l-88 -348q-6 -25 -31 -25h-85q-22 0 -28 25l-159 630q-6 25 19 25h88q24 0 30 -25l84 -341q8 -32 16 -84
q4 27 18 84l86 341q6 25 29 25h82q23 0 29 -25z" />
    <glyph glyph-name="X" unicode="X" horiz-adv-x="559" 
d="M352 349l188 -324q13 -25 -13 -25h-100q-23 0 -36 25l-120 206l-110 -206q-13 -25 -35 -25h-94q-12 0 -15 9t4 20l181 322l-174 301q-7 11 -4.5 19.5t15.5 8.5h100q21 0 36 -25l111 -192l105 192q14 25 36 25h93q25 0 11 -25z" />
    <glyph glyph-name="Y" unicode="Y" horiz-adv-x="545" 
d="M162 655l95 -228q7 -16 17 -53q10 35 18 53l106 228q4 9 6.5 13t8.5 8t14 4h86q13 0 18.5 -6.5t-0.5 -18.5l-189 -395v-235q0 -25 -24 -25h-87q-25 0 -25 25v219l-190 411q-5 11 -0.5 18t17.5 7h99q20 0 30 -25z" />
    <glyph glyph-name="Z" unicode="Z" horiz-adv-x="498" 
d="M71 680h356q26 0 26 -24v-61q0 -9 -6 -21l-256 -462h254q25 0 25 -24v-63q0 -25 -25 -25h-391q-25 0 -25 25v63q0 9 4 17l257 463h-219q-25 0 -25 25v63q0 24 25 24z" />
    <glyph glyph-name="bracketleft" unicode="[" horiz-adv-x="365" 
d="M63 -185v858q0 26 24 26h229q25 0 25 -24v-63q0 -25 -25 -25h-118v-686h118q25 0 25 -25v-63q0 -24 -25 -24h-229q-24 0 -24 26z" />
    <glyph glyph-name="backslash" unicode="\" horiz-adv-x="387" 
d="M223 -122l-199 795q-6 26 20 26h91q23 0 29 -26l199 -795q6 -26 -19 -26h-92q-22 0 -29 26z" />
    <glyph glyph-name="bracketright" unicode="]" horiz-adv-x="365" 
d="M302 673v-858q0 -26 -24 -26h-228q-25 0 -25 24v63q0 25 25 25h117v686h-117q-25 0 -25 25v63q0 24 25 24h228q24 0 24 -26z" />
    <glyph glyph-name="asciicircum" unicode="^" horiz-adv-x="519" 
d="M355 301l-97 250l-95 -250q-5 -14 -10 -20t-17 -6h-80q-14 0 -21.5 7t-2.5 19l153 356q3 7 4.5 9.5t5 6.5t8 5.5t10.5 1.5h92q6 0 10.5 -1t8 -6t4 -6.5t4.5 -9.5l154 -356q5 -12 -2.5 -19t-21.5 -7h-79q-12 0 -17.5 6t-10.5 20z" />
    <glyph glyph-name="underscore" unicode="_" horiz-adv-x="415" 
d="M25 -74h364q26 0 26 -23v-60q0 -25 -26 -25h-364q-25 0 -25 25v60q0 23 25 23z" />
    <glyph glyph-name="grave" unicode="`" horiz-adv-x="314" 
d="M132 577l-72 106q-8 11 -4.5 18t16.5 7h87q23 0 35 -25l48 -98q12 -24 -13 -24h-65q-21 0 -32 16z" />
    <glyph glyph-name="a" unicode="a" horiz-adv-x="512" 
d="M53 349v13q0 144 202 144q201 0 201 -144v-336q0 -26 -24 -26h-74q-13 0 -17.5 6t-6.5 20l-2 21q-66 -55 -148 -55q-70 0 -107.5 36t-37.5 89v45q0 53 40 89.5t111 36.5h138v64q0 28 -17 42t-58 14q-42 0 -59.5 -12.5t-17.5 -39.5v-7q0 -25 -25 -25h-73q-25 0 -25 25z
M218 96q52 0 110 43v57h-113q-48 0 -48 -45v-16q0 -39 51 -39z" />
    <glyph glyph-name="b" unicode="b" horiz-adv-x="542" 
d="M159 0h-77q-24 0 -24 26v647q0 26 24 26h83q24 0 24 -26v-221q69 54 156 54q72 0 108.5 -38.5t36.5 -107.5v-222q0 -69 -36.5 -107.5t-108.5 -38.5q-88 0 -159 56l-2 -22q-2 -14 -7 -20t-18 -6zM359 159v181q0 52 -55 52t-115 -46v-194q60 -46 115 -46q32 0 43.5 14.5
t11.5 38.5z" />
    <glyph glyph-name="c" unicode="c" horiz-adv-x="496" 
d="M256 506q205 0 205 -147v-17q0 -24 -24 -24h-77q-25 0 -25 24v7q0 28 -17.5 40.5t-59.5 12.5t-59.5 -12.5t-17.5 -40.5v-199q0 -28 17.5 -41t59.5 -13t59.5 13t17.5 41v15q0 25 25 25h77q24 0 24 -25v-25q0 -148 -206 -148q-205 0 -205 148v219q0 147 206 147z" />
    <glyph glyph-name="d" unicode="d" horiz-adv-x="542" 
d="M358 26l-2 22q-74 -56 -160 -56q-72 0 -108.5 38.5t-36.5 107.5v222q0 69 36.5 107.5t108.5 38.5q83 0 157 -54v221q0 26 23 26h83q25 0 25 -26v-647q0 -26 -25 -26h-77q-13 0 -17.5 6t-6.5 20zM183 340v-181q0 -53 54 -53q53 0 116 46v194q-63 46 -116 46q-54 0 -54 -52
z" />
    <glyph glyph-name="e" unicode="e" horiz-adv-x="503" 
d="M456 359v-116q0 -23 -22 -23h-256v-74q0 -28 17.5 -41.5t60.5 -13.5t60.5 13.5t17.5 41.5v5q0 25 25 25h70q25 0 25 -25v-11q0 -148 -199 -148q-205 0 -205 148v219q0 147 206 147q200 0 200 -147zM178 352v-44h156v44q0 55 -78 55t-78 -55z" />
    <glyph glyph-name="f" unicode="f" horiz-adv-x="351" 
d="M93 496h4v62q0 69 53.5 108t160.5 39h9q25 0 25 -24v-58q0 -26 -25 -26h-9q-83 0 -83 -54v-47h83q25 0 25 -23v-56q0 -25 -25 -25h-83v-366q0 -26 -24 -26h-83q-24 0 -24 26v366h-54q-25 0 -25 25v50q0 12 5.5 17t19.5 7z" />
    <glyph glyph-name="g" unicode="g" horiz-adv-x="542" 
d="M196 -8q-72 0 -108.5 38.5t-36.5 107.5v222q0 69 36.5 107.5t108.5 38.5q89 0 160 -58l2 25q1 14 6 19.5t19 5.5h76q25 0 25 -25v-527q0 -69 -53.5 -108t-160.5 -39h-141q-26 0 -26 24v58q0 26 26 26h141q83 0 83 54v84q-76 -53 -157 -53zM183 340v-181q0 -53 54 -53
q53 0 116 46v194q-63 46 -116 46q-54 0 -54 -52z" />
    <glyph glyph-name="h" unicode="h" horiz-adv-x="545" 
d="M189 673v-219q66 52 157 52q68 0 106 -37t38 -97v-346q0 -26 -24 -26h-82q-25 0 -25 26v313q0 28 -12 40.5t-42 12.5q-57 0 -116 -45v-321q0 -26 -24 -26h-83q-24 0 -24 26v647q0 26 24 26h83q24 0 24 -26z" />
    <glyph glyph-name="i" unicode="i" horiz-adv-x="247" 
d="M189 673v-86q0 -24 -24 -24h-83q-24 0 -24 24v86q0 26 24 26h83q24 0 24 -26zM189 473v-447q0 -26 -24 -26h-83q-24 0 -24 26v447q0 25 24 25h83q24 0 24 -25z" />
    <glyph glyph-name="j" unicode="j" horiz-adv-x="247" 
d="M189 673v-86q0 -24 -24 -24h-83q-24 0 -24 24v86q0 26 24 26h83q24 0 24 -26zM189 473v-527q0 -69 -53.5 -108t-160.5 -39h-10q-25 0 -25 24v58q0 26 25 26h10q83 0 83 54v512q0 25 23 25h83q25 0 25 -25z" />
    <glyph glyph-name="k" unicode="k" horiz-adv-x="502" 
d="M316 285l173 -260q7 -9 4 -17t-16 -8h-103q-21 0 -36 25l-131 204h-18v-204q0 -25 -24 -25h-83q-24 0 -24 25v649q0 25 24 25h83q24 0 24 -25v-346h20l121 145q21 25 40 25h94q13 0 16.5 -8t-4.5 -17z" />
    <glyph glyph-name="l" unicode="l" horiz-adv-x="247" 
d="M189 673v-647q0 -26 -24 -26h-83q-24 0 -24 26v647q0 26 24 26h83q24 0 24 -26z" />
    <glyph glyph-name="m" unicode="m" horiz-adv-x="835" 
d="M82 498h77q24 0 25 -24l1 -24q66 56 155 56q92 0 128 -67q21 19 34 28.5t51.5 24t81.5 14.5q68 0 106.5 -37t38.5 -97v-346q0 -26 -25 -26h-81q-26 0 -26 26v313q0 28 -12 40.5t-42 12.5q-59 0 -110 -45v-321q0 -26 -24 -26h-82q-25 0 -25 26v313q0 28 -12 40.5t-42 12.5
q-60 0 -110 -45v-321q0 -26 -24 -26h-83q-24 0 -24 26v448q0 24 24 24z" />
    <glyph glyph-name="n" unicode="n" horiz-adv-x="545" 
d="M82 498h77q24 0 25 -24l2 -24q68 56 160 56q68 0 106 -37t38 -97v-346q0 -26 -24 -26h-82q-25 0 -25 26v313q0 28 -12 40.5t-42 12.5q-57 0 -116 -45v-321q0 -26 -24 -26h-83q-24 0 -24 26v448q0 24 24 24z" />
    <glyph glyph-name="o" unicode="o" horiz-adv-x="530" 
d="M49 140v219q0 69 54.5 108t161.5 39t161.5 -39t54.5 -108v-219q0 -70 -54.5 -109t-161.5 -39t-161.5 39t-54.5 109zM350 151v197q0 54 -85 54t-85 -54v-197q0 -55 85 -55t85 55z" />
    <glyph glyph-name="p" unicode="p" horiz-adv-x="542" 
d="M82 498h77q13 0 18 -5.5t7 -19.5l2 -24q73 57 159 57q72 0 108.5 -38.5t36.5 -107.5v-222q0 -69 -36.5 -107.5t-108.5 -38.5q-85 0 -156 53v-221q0 -25 -24 -25h-83q-24 0 -24 25v649q0 25 24 25zM359 159v181q0 52 -55 52t-115 -46v-194q60 -46 115 -46q32 0 43.5 14.5
t11.5 38.5z" />
    <glyph glyph-name="q" unicode="q" horiz-adv-x="542" 
d="M356 449l2 24q1 14 6 19.5t18 5.5h77q25 0 25 -25v-649q0 -25 -25 -25h-83q-13 0 -18 5.5t-5 19.5v221q-76 -53 -157 -53q-72 0 -108.5 38.5t-36.5 107.5v222q0 69 36.5 107.5t108.5 38.5q85 0 160 -57zM183 340v-181q0 -53 54 -53q53 0 116 46v194q-63 46 -116 46
q-54 0 -54 -52z" />
    <glyph glyph-name="r" unicode="r" horiz-adv-x="371" 
d="M333 506q25 0 25 -24v-64q0 -25 -25 -26q-87 -7 -144 -59v-307q0 -26 -24 -26h-83q-24 0 -24 26v448q0 24 24 24h77q24 0 25 -24l3 -35q60 67 146 67z" />
    <glyph glyph-name="s" unicode="s" horiz-adv-x="476" 
d="M311 354v19q0 41 -73 41q-72 0 -72 -41v-13q0 -25 31 -36l144 -47q96 -31 96 -103v-53q0 -54 -50.5 -91.5t-151.5 -37.5t-150.5 37.5t-49.5 91.5v23q0 23 23 23h74q23 0 23 -23v-17q0 -42 80 -42q81 0 81 42v18q0 13 -10 21t-35 17l-145 49q-30 11 -54.5 41t-24.5 65v35
q0 55 46 94t146 39q99 0 145 -39t46 -94v-19q0 -13 -5 -18t-18 -5h-74q-22 0 -22 23z" />
    <glyph glyph-name="t" unicode="t" horiz-adv-x="367" 
d="M221 496h91q25 0 25 -23v-56q0 -25 -25 -25h-91v-230q0 -29 19 -41.5t61 -12.5h23q25 0 25 -25v-58q0 -25 -25 -25h-43q-106 0 -148.5 35.5t-42.5 112.5v244h-49q-25 0 -25 25v50q0 12 5.5 17t19.5 7l46 5h3v96q0 25 24 25h84q23 0 23 -25v-96z" />
    <glyph glyph-name="u" unicode="u" horiz-adv-x="539" 
d="M356 25l-2 22q-65 -55 -154 -55q-68 0 -106.5 37t-38.5 97v347q0 25 24 25h82q25 0 25 -25v-314q0 -28 12 -40.5t42 -12.5q58 0 110 44v323q0 25 24 25h83q25 0 25 -25v-448q0 -25 -25 -25h-77q-13 0 -17.5 5.5t-6.5 19.5z" />
    <glyph glyph-name="v" unicode="v" horiz-adv-x="480" 
d="M286 0h-96q-12 0 -16 4.5t-9 18.5l-150 450q-4 12 3 18.5t21 6.5h86q20 0 28 -25l72 -227q12 -36 17 -93q8 58 20 92l79 228q8 25 27 25h77q14 0 21 -6.5t3 -18.5l-158 -450q-5 -14 -9 -18.5t-16 -4.5z" />
    <glyph glyph-name="w" unicode="w" horiz-adv-x="724" 
d="M711 473l-128 -450q-4 -14 -8.5 -18.5t-16.5 -4.5h-99q-13 0 -18 5t-8 18l-56 237q-5 22 -9 54q-4 -22 -13 -54l-69 -237q-3 -13 -8 -18t-17 -5h-97q-13 0 -18 5t-8 18l-122 450q-7 25 24 25h80q21 0 28 -25l69 -262q6 -26 8 -49q5 26 12 49l72 262q7 25 28 25h80
q21 0 28 -25l61 -262q7 -34 9 -48q2 14 11 48l68 262q7 25 27 25h67q30 0 23 -25z" />
    <glyph glyph-name="x" unicode="x" horiz-adv-x="489" 
d="M314 251l152 -226q7 -9 3.5 -17t-16.5 -8h-92q-21 0 -36 25l-89 136l-87 -136q-17 -25 -36 -25h-79q-13 0 -16.5 8t3.5 17l153 229l-146 219q-7 10 -4 17.5t16 7.5h92q20 0 36 -25l85 -129l83 129q16 25 36 25h80q12 0 15.5 -7.5t-3.5 -17.5z" />
    <glyph glyph-name="y" unicode="y" horiz-adv-x="479" 
d="M147 473l75 -229q11 -33 17 -85q17 69 21 81l79 233q4 13 9.5 19t18.5 6h75q14 0 21 -6.5t3 -18.5l-221 -649q-8 -25 -28 -25h-60q-31 0 -24 25l49 163l-169 486q-4 12 3 18.5t20 6.5h83q20 0 28 -25z" />
    <glyph glyph-name="z" unicode="z" horiz-adv-x="447" 
d="M71 498h304q25 0 25 -24v-58q0 -10 -5 -18l-205 -291h203q25 0 25 -24v-58q0 -25 -25 -25h-338q-25 0 -25 25v58q0 11 5 18l203 290h-167q-25 0 -25 24v59q0 24 25 24z" />
    <glyph glyph-name="braceleft" unicode="{" horiz-adv-x="385" 
d="M112 357v203q0 70 53.5 109t160.5 39h10q25 0 25 -25v-58q0 -25 -25 -25h-10q-79 0 -79 -54v-203q0 -70 -61 -94q61 -26 61 -95v-210q0 -54 79 -54h10q25 0 25 -25v-58q0 -25 -25 -25h-10q-107 0 -160.5 39t-53.5 109v211q0 54 -77 54h-1q-25 0 -25 25v57q0 26 25 26h1
q77 0 77 54z" />
    <glyph glyph-name="bar" unicode="|" horiz-adv-x="260" 
d="M198 673v-858q0 -26 -24 -26h-87q-24 0 -24 26v858q0 26 24 26h87q24 0 24 -26z" />
    <glyph glyph-name="braceright" unicode="}" horiz-adv-x="385" 
d="M274 560v-203q0 -28 18 -41t58 -13h1q25 0 25 -26v-57q0 -25 -25 -25h-1q-40 0 -58 -13t-18 -41v-211q0 -70 -54 -109t-161 -39h-9q-25 0 -25 25v58q0 25 25 25h9q42 0 60.5 13t18.5 41v210q0 69 62 95q-62 24 -62 94v203q0 28 -18.5 41t-60.5 13h-9q-25 0 -25 25v58
q0 25 25 25h9q107 0 161 -39t54 -109z" />
    <glyph glyph-name="asciitilde" unicode="~" horiz-adv-x="494" 
d="M440 330l-4 -41q-5 -47 -28.5 -70.5t-54.5 -23.5q-33 0 -61 14l-90 42q-20 10 -33 10q-8 0 -12.5 -5t-6 -10t-3.5 -16l-1 -6q-2 -13 -8 -17.5t-19 -4.5h-42q-24 0 -21 28l5 48q5 45 29 66.5t54 21.5q31 0 55 -11l89 -41q28 -13 41 -13q9 0 12.5 7t7.5 24l1 5q4 22 27 22
h42q24 0 21 -29z" />
    <glyph glyph-name="uni00A0" unicode="&#xa0;" horiz-adv-x="194" 
 />
    <glyph glyph-name="exclamdown" unicode="&#xa1;" horiz-adv-x="251" 
d="M59 392v81q0 25 23 25h87q25 0 25 -25v-81q0 -25 -25 -25h-87q-23 0 -23 25zM57 108l13 183q1 14 6 19.5t18 5.5h62q23 0 24 -25l13 -183v-264q0 -26 -24 -26h-88q-24 0 -24 26v264z" />
    <glyph glyph-name="cent" unicode="&#xa2;" horiz-adv-x="505" 
d="M325 26q0 -26 -23 -26h-83q-25 0 -25 26v61q-142 21 -142 144v219q0 122 142 143v61q0 26 25 26h83q23 0 23 -26v-62q138 -23 138 -142v-17q0 -24 -24 -24h-77q-25 0 -25 24v7q0 28 -17.5 40.5t-59.5 12.5t-59.5 -12.5t-17.5 -40.5v-199q0 -28 17.5 -41t59.5 -13t59.5 13
t17.5 41v15q0 25 25 25h77q24 0 24 -25v-25q0 -120 -138 -143v-62z" />
    <glyph glyph-name="sterling" unicode="&#xa3;" horiz-adv-x="632" 
d="M257 389h109q25 0 25 -24v-60q0 -24 -25 -24h-109v-173h153q56 0 56 81v9q0 25 25 25h79q24 0 24 -25v-9q0 -104 -38.5 -146.5t-110.5 -42.5h-379q-25 0 -25 25v59q0 24 25 24h56v173h-56q-25 0 -25 24v60q0 24 25 24h56v138q0 71 52.5 116t170.5 45q119 0 171.5 -45
t52.5 -116v-34q0 -26 -24 -26h-81q-24 0 -24 26v10q0 73 -94 73q-46 0 -67.5 -17.5t-21.5 -55.5v-114z" />
    <glyph glyph-name="currency" unicode="&#xa4;" horiz-adv-x="618" 
d="M530 86q-17 -17 -35 1l-83 83q-42 -15 -103 -15q-62 0 -104 15l-83 -83q-18 -18 -35 -1l-33 32q-17 16 1 35l75 76q-13 23 -13 56v110q0 32 13 57l-75 76q-17 18 -1 34l33 32q17 17 35 -1l83 -82q42 15 104 15q61 0 103 -15l83 82q19 17 35 1l33 -32q18 -16 0 -34
l-76 -76q13 -25 13 -57v-110q0 -33 -13 -56l75 -76q17 -19 1 -35zM386 295v91q0 50 -77 50t-77 -50v-91q0 -51 77 -51t77 51z" />
    <glyph glyph-name="yen" unicode="&#xa5;" horiz-adv-x="576" 
d="M357 25q0 -25 -24 -25h-87q-25 0 -25 25v205h-137q-26 0 -26 25v35q0 24 26 24h105l-25 54h-80q-26 0 -26 25v35q0 24 26 24h41l-94 203q-5 11 -0.5 18t17.5 7h99q20 0 30 -25l95 -228q6 -16 17 -53q10 35 18 53l106 228q4 9 6.5 13t8.5 8t14 4h86q13 0 18.5 -6.5
t-0.5 -18.5l-97 -203h41q25 0 25 -24v-35q0 -25 -25 -25h-81l-26 -54h107q25 0 25 -24v-35q0 -25 -25 -25h-133v-205z" />
    <glyph glyph-name="brokenbar" unicode="&#xa6;" horiz-adv-x="265" 
d="M198 654v-314q0 -26 -23 -26h-83q-25 0 -25 26v314q0 26 25 26h83q23 0 23 -26zM198 129v-314q0 -26 -23 -26h-83q-25 0 -25 26v314q0 26 25 26h83q23 0 23 -26z" />
    <glyph glyph-name="section" unicode="&#xa7;" horiz-adv-x="511" 
d="M447 281v-78q0 -24 -24 -24h-73q-25 0 -25 24v65q0 31 -37 43l-141 44q-98 31 -98 123v61q0 68 51 108.5t156 40.5q206 0 206 -143v-9q0 -25 -25 -25h-73q-24 0 -24 25v15q0 28 -18.5 39.5t-61.5 11.5t-62 -12t-19 -40v-64q0 -26 47 -41l126 -39q40 -12 67.5 -45.5
t27.5 -79.5zM64 205v77q0 14 5 19t19 5h73q24 0 24 -24v-65q0 -31 38 -43l140 -44q99 -30 99 -123v-60q0 -68 -51 -109t-156 -41q-206 0 -206 144v9q0 24 25 24h72q25 0 25 -24v-16q0 -28 18.5 -39.5t61.5 -11.5t62 12t19 40v65q0 25 -48 40l-126 39q-39 12 -66.5 46
t-27.5 80z" />
    <glyph glyph-name="dieresis" unicode="&#xa8;" horiz-adv-x="381" 
d="M168 681v-93q0 -25 -23 -25h-49q-25 0 -25 25v93q0 25 25 25h49q23 0 23 -25zM308 681v-93q0 -25 -23 -25h-49q-25 0 -25 25v93q0 25 25 25h49q23 0 23 -25z" />
    <glyph glyph-name="copyright" unicode="&#xa9;" horiz-adv-x="747" 
d="M693 456v-231q0 -38 -6 -67.5t-25.5 -62t-53 -54t-93.5 -35.5t-142 -14q-81 0 -141 14t-93.5 35.5t-53 54t-25.5 62t-6 67.5v231q0 38 6 67.5t25.5 62t53 53.5t93.5 35t141 14q82 0 142 -14t93.5 -35t53 -53.5t25.5 -62t6 -67.5zM598 206v269q0 133 -225 133
q-224 0 -224 -134v-267q0 -134 224 -134q225 0 225 133zM375 546q92 0 130.5 -34.5t38.5 -104.5v-9q0 -24 -24 -24h-67q-25 0 -25 24v6q0 28 -12.5 41t-40.5 13t-40.5 -12.5t-12.5 -41.5v-128q0 -28 12.5 -41t40.5 -13q53 0 53 54v13q0 25 25 25h67q24 0 24 -25v-17
q0 -70 -38.5 -104.5t-131.5 -34.5q-92 0 -130.5 34.5t-38.5 104.5v135q0 70 39 104.5t131 34.5z" />
    <glyph glyph-name="ordfeminine" unicode="&#xaa;" horiz-adv-x="367" 
d="M54 593v7q0 88 129 88t129 -92v-195q0 -19 -19 -19h-58q-11 0 -14 4t-5 15l-1 8q-39 -32 -82 -32q-45 0 -67.5 22.5t-22.5 55.5v25q0 32 27 54.5t73 22.5h68v39q0 22 -31 22t-31 -20v-5q0 -17 -18 -17h-59q-10 0 -14 3.5t-4 13.5zM166 449q24 0 45 21v27h-48
q-19 0 -19 -19v-10q0 -19 22 -19z" />
    <glyph glyph-name="guillemotleft" unicode="&#xab;" horiz-adv-x="566" 
d="M248 319l-106 -74l106 -73q25 -17 25 -35v-83q0 -13 -8 -17.5t-17 1.5l-187 133q-23 17 -23 36v77q0 18 23 35l187 134q10 7 17.5 2t7.5 -18v-83q0 -18 -25 -35zM488 319l-106 -74l106 -73q25 -17 25 -35v-83q0 -13 -8 -17.5t-17 1.5l-187 133q-23 17 -23 36v77
q0 18 23 35l187 134q10 7 17.5 2t7.5 -18v-83q0 -18 -25 -35z" />
    <glyph glyph-name="logicalnot" unicode="&#xac;" horiz-adv-x="338" 
d="M44 320q0 53 36.5 89.5t88.5 36.5q53 0 89.5 -37t36.5 -89t-36.5 -88.5t-89.5 -36.5t-89 36.5t-36 88.5z" />
    <glyph glyph-name="uni00AD" unicode="&#xad;" horiz-adv-x="434" 
d="M83 342h268q25 0 25 -24v-59q0 -24 -25 -24h-268q-25 0 -25 24v59q0 24 25 24z" />
    <glyph glyph-name="registered" unicode="&#xae;" horiz-adv-x="618" 
d="M562 523v-185q0 -24 -4.5 -44t-20 -43.5t-41.5 -39.5t-74 -27t-113 -11t-112.5 11t-74 27t-42 39.5t-20 43.5t-4.5 44v185q0 24 4.5 44t20 43.5t42 39.5t74 27t112.5 11t113 -11t74 -27t41.5 -39.5t20 -43.5t4.5 -44zM476 329v202q0 38 -36.5 59.5t-130.5 21.5
q-167 0 -167 -81v-201q0 -82 167 -82t167 81zM265 294h-54q-17 0 -17 18v237q0 17 17 17h114q109 0 109 -83v-17q0 -49 -36 -69l33 -85q3 -8 -1.5 -13t-15.5 -5h-57q-11 0 -18 18l-28 70h-29v-70q0 -18 -17 -18zM315 503h-33v-57h33q11 0 21 6t10 16v12q0 23 -31 23z" />
    <glyph glyph-name="macron" unicode="&#xaf;" horiz-adv-x="406" 
d="M88 671h230q25 0 25 -24v-51q0 -24 -25 -24h-230q-26 0 -26 24v51q0 24 26 24z" />
    <glyph glyph-name="degree" unicode="&#xb0;" horiz-adv-x="416" 
d="M45 481v95q0 54 37 83t126 29t126 -29t37 -83v-95q0 -54 -37 -82.5t-126 -28.5t-126 28.5t-37 82.5zM261 486v86q0 30 -53 30t-53 -30v-86q0 -31 53 -31t53 31z" />
    <glyph glyph-name="plusminus" unicode="&#xb1;" horiz-adv-x="557" 
d="M224 234v94h-141q-25 0 -25 24v60q0 23 25 23h141v94q0 25 24 25h59q24 0 24 -25v-94h143q25 0 25 -23v-60q0 -24 -25 -24h-143v-94q0 -25 -24 -25h-59q-24 0 -24 25zM83 153h391q25 0 25 -24v-59q0 -25 -25 -25h-391q-25 0 -25 25v59q0 24 25 24z" />
    <glyph glyph-name="twosuperior" unicode="&#xb2;" 
d="M134 535h162q10 0 13 -3.5t3 -12.5v-47q0 -16 -16 -16h-245q-17 0 -17 16v91q0 45 46 64l103 42q28 11 28 33v24q0 31 -44 31t-44 -31v-19q0 -15 -16 -15h-65q-15 0 -15 15v29q0 41 35.5 69.5t106.5 28.5q72 0 106.5 -28.5t34.5 -69.5v-39q0 -62 -61 -87l-99 -40
q-16 -6 -16 -19v-16z" />
    <glyph glyph-name="threesuperior" unicode="&#xb3;" 
d="M213 557v19q0 37 -46 37h-39q-16 0 -16 14v39q0 14 16 14h35q44 0 44 38v11q0 32 -40 32q-43 0 -43 -32v-6q0 -16 -16 -16h-64q-16 0 -16 16v16q0 42 33.5 68.5t105.5 26.5t104.5 -25.5t32.5 -65.5v-39q0 -40 -42 -56q49 -18 49 -62v-43q0 -39 -35.5 -65t-106.5 -26
t-107 27t-36 68v17q0 17 14 17h66q16 0 16 -17v-7q0 -32 46 -32q45 0 45 32z" />
    <glyph glyph-name="acute" unicode="&#xb4;" horiz-adv-x="314" 
d="M253 683l-72 -106q-11 -16 -32 -16h-65q-25 0 -13 24l48 98q12 25 35 25h87q13 0 16.5 -7t-4.5 -18z" />
    <glyph glyph-name="paragraph" unicode="&#xb6;" horiz-adv-x="649" 
d="M381 655v-831q0 -25 -24 -25h-87q-24 0 -24 25v458h-24q-107 0 -150 34t-43 97v136q0 63 43 97t150 34h135q24 0 24 -25zM583 654v-830q0 -25 -23 -25h-88q-24 0 -24 25v830q0 26 24 26h88q23 0 23 -26z" />
    <glyph glyph-name="periodcentered" unicode="&#xb7;" horiz-adv-x="250" 
d="M192 317v-81q0 -25 -24 -25h-85q-25 0 -25 25v81q0 25 25 25h85q24 0 24 -25z" />
    <glyph glyph-name="cedilla" unicode="&#xb8;" horiz-adv-x="261" 
d="M131 -45h30q41 0 64.5 -20.5t23.5 -61.5q0 -42 -23.5 -63t-64.5 -21h-119q-25 0 -25 25v20q0 24 25 24h98q19 0 19 15q0 16 -19 16h-75q-41 0 -31 33l26 91q7 23 29 22l37 -3q26 -2 18 -30z" />
    <glyph glyph-name="onesuperior" unicode="&#xb9;" 
d="M61 812l152 22q7 1 11 -2t4 -14v-283h65q18 0 18 -16v-47q0 -16 -18 -16h-231q-16 0 -16 16v47q0 16 16 16h67v207l-68 -9q-15 -2 -15 13v48q0 16 15 18z" />
    <glyph glyph-name="ordmasculine" unicode="&#xba;" horiz-adv-x="374" 
d="M46 472v121q0 44 36.5 69.5t104.5 25.5t104.5 -25.5t36.5 -69.5v-121q0 -44 -36.5 -69.5t-104.5 -25.5t-104.5 25.5t-36.5 69.5zM225 481v104q0 25 -38 25t-38 -25v-104q0 -26 38 -26t38 26z" />
    <glyph glyph-name="guillemotright" unicode="&#xbb;" horiz-adv-x="567" 
d="M79 179l106 74l-106 73q-25 17 -25 35v83q0 13 8 17.5t17 -1.5l187 -133q23 -17 23 -36v-77q0 -18 -23 -35l-187 -134q-10 -7 -17.5 -2t-7.5 18v83q0 18 25 35zM319 179l106 74l-106 73q-25 17 -25 35v83q0 13 8 17.5t17 -1.5l187 -133q23 -17 23 -36v-77q0 -18 -23 -35
l-187 -134q-10 -7 -17.5 -2t-7.5 18v83q0 18 25 35z" />
    <glyph glyph-name="onequarter" unicode="&#xbc;" horiz-adv-x="818" 
d="M636 662l-328 -644q-13 -26 -35 -26h-65q-10 0 -13.5 9t1.5 17l329 644q13 26 36 26h64q10 0 13 -8t-2 -18zM55 662l152 22q7 1 11 -2t4 -14v-283h65q18 0 18 -16v-47q0 -16 -18 -16h-231q-16 0 -16 16v47q0 16 16 16h67v207l-68 -9q-15 -2 -15 13v48q0 16 15 18z
M641 358l-53 -189h87v189q0 16 16 16h66q16 0 16 -16v-342q0 -16 -16 -16h-66q-16 0 -16 16v77h-172q-17 0 -17 17v31q0 13 3 24l55 193q5 16 20 16h64q17 0 13 -16z" />
    <glyph glyph-name="onehalf" unicode="&#xbd;" horiz-adv-x="834" 
d="M639 662l-328 -644q-13 -26 -35 -26h-65q-10 0 -13.5 9t1.5 17l329 644q13 26 36 26h64q10 0 13 -8t-2 -18zM55 662l152 22q7 1 11 -2t4 -14v-283h65q18 0 18 -16v-47q0 -16 -18 -16h-231q-16 0 -16 16v47q0 16 16 16h67v207l-68 -9q-15 -2 -15 13v48q0 16 15 18zM621 79
h162q10 0 13 -3.5t3 -12.5v-47q0 -16 -16 -16h-245q-17 0 -17 16v91q0 45 46 64l103 42q28 11 28 33v24q0 31 -44 31t-44 -31v-19q0 -15 -16 -15h-65q-15 0 -15 15v29q0 41 35.5 69.5t106.5 28.5q72 0 106.5 -28.5t34.5 -69.5v-39q0 -62 -61 -87l-99 -40q-16 -6 -16 -19v-16
z" />
    <glyph glyph-name="threequarters" unicode="&#xbe;" horiz-adv-x="818" 
d="M634 662l-328 -644q-13 -26 -35 -26h-65q-10 0 -13.5 9t1.5 17l329 644q13 26 36 26h64q10 0 13 -8t-2 -18zM221 407v19q0 37 -46 37h-39q-16 0 -16 14v39q0 14 16 14h35q44 0 44 38v11q0 32 -40 32q-43 0 -43 -32v-6q0 -16 -16 -16h-64q-16 0 -16 16v16q0 42 33.5 68.5
t105.5 26.5t104.5 -25.5t32.5 -65.5v-39q0 -40 -42 -56q49 -18 49 -62v-43q0 -39 -35.5 -65t-106.5 -26t-107 27t-36 68v17q0 17 14 17h66q16 0 16 -17v-7q0 -32 46 -32q45 0 45 32zM641 358l-53 -189h87v189q0 16 16 16h66q16 0 16 -16v-342q0 -16 -16 -16h-66
q-16 0 -16 16v77h-172q-17 0 -17 17v31q0 13 3 24l55 193q5 16 20 16h64q17 0 13 -16z" />
    <glyph glyph-name="questiondown" unicode="&#xbf;" horiz-adv-x="518" 
d="M220 392v81q0 25 23 25h88q24 0 24 -25v-81q0 -25 -24 -25h-88q-23 0 -23 25zM355 292v-69q0 -26 -10.5 -45t-21.5 -27t-30 -18l-93 -47q-38 -19 -38 -61v-30q0 -75 99 -75t99 75v39q0 25 24 25h83q24 0 24 -25v-61q0 -71 -54 -117t-176 -46q-121 0 -177 46t-56 117v47
q0 112 93 155l57 26q23 10 32.5 21.5t9.5 34.5v35q0 13 5 18.5t18 5.5h88q24 0 24 -24z" />
    <glyph glyph-name="Agrave" unicode="&#xc0;" horiz-adv-x="555" 
d="M210 747l-72 105q-8 11 -4 18.5t17 7.5h87q22 0 34 -25l48 -98q12 -25 -12 -25h-65q-20 0 -33 17zM234 680h87q25 0 32 -25l186 -630q8 -25 -18 -25h-90q-21 0 -29 25l-36 122h-186l-35 -122q-8 -25 -29 -25h-82q-26 0 -18 25l187 630q7 25 31 25zM337 254l-33 111
q-16 55 -29 183q-16 -132 -31 -182l-34 -112h127z" />
    <glyph glyph-name="Aacute" unicode="&#xc1;" horiz-adv-x="555" 
d="M415 853l-73 -106q-11 -16 -32 -16h-64q-26 0 -14 24l49 98q12 25 34 25h87q13 0 17 -7t-4 -18zM234 680h87q25 0 32 -25l186 -630q8 -25 -18 -25h-90q-21 0 -29 25l-36 122h-186l-35 -122q-8 -25 -29 -25h-82q-26 0 -18 25l187 630q7 25 31 25zM337 254l-33 111
q-16 55 -29 183q-16 -132 -31 -182l-34 -112h127z" />
    <glyph glyph-name="Acircumflex" unicode="&#xc2;" horiz-adv-x="555" 
d="M276 800l-25 -45q-13 -24 -35 -24h-63q-13 0 -16.5 6.5t3.5 17.5l73 98q18 25 39 25h48q21 0 39 -25l73 -98q8 -11 4 -17.5t-17 -6.5h-64q-21 0 -34 24zM234 680h87q25 0 32 -25l186 -630q8 -25 -18 -25h-90q-21 0 -29 25l-36 122h-186l-35 -122q-8 -25 -29 -25h-82
q-26 0 -18 25l187 630q7 25 31 25zM337 254l-33 111q-16 55 -29 183q-16 -132 -31 -182l-34 -112h127z" />
    <glyph glyph-name="Atilde" unicode="&#xc3;" horiz-adv-x="555" 
d="M337 833q20 0 20 24v6q0 22 27 22h43q23 0 21 -29l-3 -39q-3 -38 -26.5 -58t-56.5 -20t-64 13l-43 19q-32 15 -38 15q-19 0 -19 -25v-5q0 -22 -27 -22h-43q-24 0 -21 29l4 41q4 37 28.5 57.5t59.5 20.5q30 0 58 -13l43 -21q30 -15 37 -15zM234 680h87q25 0 32 -25
l186 -630q8 -25 -18 -25h-90q-21 0 -29 25l-36 122h-186l-35 -122q-8 -25 -29 -25h-82q-26 0 -18 25l187 630q7 25 31 25zM337 254l-33 111q-16 55 -29 183q-16 -132 -31 -182l-34 -112h127z" />
    <glyph glyph-name="Adieresis" unicode="&#xc4;" horiz-adv-x="555" 
d="M256 850v-93q0 -14 -5 -19.5t-18 -5.5h-49q-24 0 -24 25v93q0 26 24 26h49q23 0 23 -26zM396 850v-93q0 -25 -23 -25h-49q-24 0 -24 25v93q0 26 24 26h49q23 0 23 -26zM234 680h87q25 0 32 -25l186 -630q8 -25 -18 -25h-90q-21 0 -29 25l-36 122h-186l-35 -122
q-8 -25 -29 -25h-82q-26 0 -18 25l187 630q7 25 31 25zM337 254l-33 111q-16 55 -29 183q-16 -132 -31 -182l-34 -112h127z" />
    <glyph glyph-name="Aring" unicode="&#xc5;" horiz-adv-x="555" 
d="M389 821v-29q0 -33 -28.5 -55.5t-83.5 -22.5t-83.5 22.5t-28.5 55.5v29q0 33 28.5 55.5t83.5 22.5t83.5 -22.5t28.5 -55.5zM317 801v12q0 30 -40 30t-40 -30v-12q0 -31 40 -31t40 31zM234 680h87q25 0 32 -25l186 -630q8 -25 -18 -25h-90q-21 0 -29 25l-36 122h-186
l-35 -122q-8 -25 -29 -25h-82q-26 0 -18 25l187 630q7 25 31 25zM337 254l-33 111q-16 55 -29 183q-16 -132 -31 -182l-34 -112h127z" />
    <glyph glyph-name="AE" unicode="&#xc6;" horiz-adv-x="820" 
d="M413 680h332q25 0 25 -24v-61q0 -24 -25 -24h-231v-166h215q25 0 25 -24v-57q0 -25 -25 -25h-215v-190h242q25 0 25 -23v-61q0 -25 -25 -25h-344q-26 0 -26 25v122h-182l-71 -122q-15 -25 -30 -25h-81q-14 0 -19.5 7t0.5 18l375 630q14 25 35 25zM352 400l-85 -146h119
v211q-19 -39 -34 -65z" />
    <glyph glyph-name="Ccedilla" unicode="&#xc7;" horiz-adv-x="569" 
d="M412 -127q0 -42 -23.5 -63t-64.5 -21h-119q-25 0 -25 25v20q0 24 25 24h98q19 0 19 15q0 16 -19 16h-75q-41 0 -31 33l22 75q-85 14 -122.5 56.5t-37.5 101.5v370q0 71 54.5 117t180.5 46t180.5 -46t54.5 -117v-48q0 -25 -23 -25h-83q-25 0 -25 25v24q0 75 -102 75
q-101 0 -101 -75v-322q0 -75 101 -75q102 0 102 75v38q0 25 25 25h83q23 0 23 -25v-62q0 -70 -52.5 -115.5t-172.5 -47.5l-10 -37h30q41 0 64.5 -20.5t23.5 -61.5z" />
    <glyph glyph-name="Egrave" unicode="&#xc8;" horiz-adv-x="511" 
d="M205 747l-72 105q-8 11 -4 18.5t17 7.5h87q22 0 34 -25l48 -98q13 -25 -12 -25h-65q-20 0 -33 17zM446 0h-352q-24 0 -24 26v628q0 26 24 26h342q25 0 25 -24v-63q0 -25 -25 -25h-231v-162h214q26 0 26 -24v-60q0 -24 -26 -24h-214v-186h241q25 0 25 -24v-63
q0 -25 -25 -25z" />
    <glyph glyph-name="Eacute" unicode="&#xc9;" horiz-adv-x="511" 
d="M388 853l-73 -106q-11 -16 -32 -16h-64q-26 0 -14 24l49 98q12 25 34 25h87q13 0 17 -7t-4 -18zM446 0h-352q-24 0 -24 26v628q0 26 24 26h342q25 0 25 -24v-63q0 -25 -25 -25h-231v-162h214q26 0 26 -24v-60q0 -24 -26 -24h-214v-186h241q25 0 25 -24v-63q0 -25 -25 -25
z" />
    <glyph glyph-name="Ecircumflex" unicode="&#xca;" horiz-adv-x="511" 
d="M256 800l-25 -45q-13 -24 -35 -24h-63q-13 0 -16.5 6.5t3.5 17.5l73 98q18 25 39 25h48q21 0 39 -25l73 -98q8 -11 4 -17.5t-17 -6.5h-64q-21 0 -34 24zM446 0h-352q-24 0 -24 26v628q0 26 24 26h342q25 0 25 -24v-63q0 -25 -25 -25h-231v-162h214q26 0 26 -24v-60
q0 -24 -26 -24h-214v-186h241q25 0 25 -24v-63q0 -25 -25 -25z" />
    <glyph glyph-name="Edieresis" unicode="&#xcb;" horiz-adv-x="511" 
d="M238 850v-93q0 -14 -5 -19.5t-18 -5.5h-49q-24 0 -24 25v93q0 26 24 26h49q23 0 23 -26zM378 850v-93q0 -25 -23 -25h-49q-24 0 -24 25v93q0 26 24 26h49q23 0 23 -26zM446 0h-352q-24 0 -24 26v628q0 26 24 26h342q25 0 25 -24v-63q0 -25 -25 -25h-231v-162h214
q26 0 26 -24v-60q0 -24 -26 -24h-214v-186h241q25 0 25 -24v-63q0 -25 -25 -25z" />
    <glyph glyph-name="Igrave" unicode="&#xcc;" horiz-adv-x="274" 
d="M71 747l-72 105q-8 11 -4 18.5t17 7.5h87q22 0 34 -25l48 -98q13 -25 -12 -25h-65q-20 0 -33 17zM205 654v-628q0 -26 -24 -26h-87q-24 0 -24 26v628q0 26 24 26h87q24 0 24 -26z" />
    <glyph glyph-name="Iacute" unicode="&#xcd;" horiz-adv-x="274" 
d="M269 853l-73 -106q-11 -16 -32 -16h-64q-26 0 -14 24l49 98q12 25 34 25h87q13 0 17 -7t-4 -18zM205 654v-628q0 -26 -24 -26h-87q-24 0 -24 26v628q0 26 24 26h87q24 0 24 -26z" />
    <glyph glyph-name="Icircumflex" unicode="&#xce;" horiz-adv-x="274" 
d="M137 800l-25 -45q-13 -24 -35 -24h-63q-13 0 -16.5 6.5t3.5 17.5l73 98q18 25 39 25h48q21 0 39 -25l73 -98q8 -11 4 -17.5t-17 -6.5h-64q-21 0 -34 24zM205 654v-628q0 -26 -24 -26h-87q-24 0 -24 26v628q0 26 24 26h87q24 0 24 -26z" />
    <glyph glyph-name="Idieresis" unicode="&#xcf;" horiz-adv-x="274" 
d="M115 850v-93q0 -14 -5 -19.5t-18 -5.5h-49q-24 0 -24 25v93q0 26 24 26h49q23 0 23 -26zM255 850v-93q0 -25 -23 -25h-49q-24 0 -24 25v93q0 26 24 26h49q23 0 23 -26zM205 654v-628q0 -26 -24 -26h-87q-24 0 -24 26v628q0 26 24 26h87q24 0 24 -26z" />
    <glyph glyph-name="Eth" unicode="&#xd0;" horiz-adv-x="628" 
d="M570 163q0 -70 -59 -116.5t-185 -46.5h-221q-21 0 -21 26v267h-43q-25 0 -25 24v51q0 23 25 23h43v263q0 26 24 26h218q126 0 185 -46.5t59 -116.5v-354zM219 112h107q109 0 109 75v306q0 75 -109 75h-107v-177h90q25 0 25 -23v-51q0 -24 -25 -24h-90v-181z" />
    <glyph glyph-name="Ntilde" unicode="&#xd1;" horiz-adv-x="625" 
d="M372 833q20 0 20 24v6q0 22 27 22h43q23 0 21 -29l-3 -39q-3 -38 -26.5 -58t-56.5 -20t-64 13l-43 19q-32 15 -38 15q-19 0 -19 -25v-5q0 -22 -27 -22h-43q-24 0 -21 29l4 41q4 37 28.5 57.5t59.5 20.5q30 0 58 -13l43 -21q30 -15 37 -15zM555 655v-630q0 -25 -23 -25
h-79q-16 0 -23 12l-193 331q-23 39 -40 82v-400q0 -25 -24 -25h-79q-24 0 -24 25v630q0 25 24 25h79q14 0 21 -10l201 -345q19 -33 33 -70v400q0 25 25 25h79q23 0 23 -25z" />
    <glyph glyph-name="Ograve" unicode="&#xd2;" horiz-adv-x="605" 
d="M235 747l-72 105q-8 11 -4 18.5t17 7.5h87q22 0 34 -25l48 -98q13 -25 -12 -25h-65q-20 0 -33 17zM59 155v370q0 70 58.5 116.5t184.5 46.5t184.5 -46.5t58.5 -116.5v-370q0 -70 -58.5 -116.5t-184.5 -46.5t-184.5 46.5t-58.5 116.5zM410 179v322q0 75 -108 75
q-107 0 -107 -75v-322q0 -75 107 -75q108 0 108 75z" />
    <glyph glyph-name="Oacute" unicode="&#xd3;" horiz-adv-x="605" 
d="M427 853l-73 -106q-11 -16 -32 -16h-64q-26 0 -14 24l49 98q12 25 34 25h87q13 0 17 -7t-4 -18zM59 155v370q0 70 58.5 116.5t184.5 46.5t184.5 -46.5t58.5 -116.5v-370q0 -70 -58.5 -116.5t-184.5 -46.5t-184.5 46.5t-58.5 116.5zM410 179v322q0 75 -108 75
q-107 0 -107 -75v-322q0 -75 107 -75q108 0 108 75z" />
    <glyph glyph-name="Ocircumflex" unicode="&#xd4;" horiz-adv-x="605" 
d="M302 800l-25 -45q-13 -24 -35 -24h-63q-13 0 -16.5 6.5t3.5 17.5l73 98q18 25 39 25h48q21 0 39 -25l73 -98q8 -11 4 -17.5t-17 -6.5h-64q-21 0 -34 24zM59 155v370q0 70 58.5 116.5t184.5 46.5t184.5 -46.5t58.5 -116.5v-370q0 -70 -58.5 -116.5t-184.5 -46.5
t-184.5 46.5t-58.5 116.5zM410 179v322q0 75 -108 75q-107 0 -107 -75v-322q0 -75 107 -75q108 0 108 75z" />
    <glyph glyph-name="Otilde" unicode="&#xd5;" horiz-adv-x="605" 
d="M362 833q20 0 20 24v6q0 22 27 22h43q23 0 21 -29l-3 -39q-3 -38 -26.5 -58t-56.5 -20t-64 13l-43 19q-32 15 -38 15q-19 0 -19 -25v-5q0 -22 -27 -22h-43q-24 0 -21 29l4 41q4 37 28.5 57.5t59.5 20.5q30 0 58 -13l43 -21q30 -15 37 -15zM59 155v370q0 70 58.5 116.5
t184.5 46.5t184.5 -46.5t58.5 -116.5v-370q0 -70 -58.5 -116.5t-184.5 -46.5t-184.5 46.5t-58.5 116.5zM410 179v322q0 75 -108 75q-107 0 -107 -75v-322q0 -75 107 -75q108 0 108 75z" />
    <glyph glyph-name="Odieresis" unicode="&#xd6;" horiz-adv-x="605" 
d="M280 850v-93q0 -14 -5 -19.5t-18 -5.5h-49q-24 0 -24 25v93q0 26 24 26h49q23 0 23 -26zM420 850v-93q0 -25 -23 -25h-49q-24 0 -24 25v93q0 26 24 26h49q23 0 23 -26zM59 155v370q0 70 58.5 116.5t184.5 46.5t184.5 -46.5t58.5 -116.5v-370q0 -70 -58.5 -116.5
t-184.5 -46.5t-184.5 46.5t-58.5 116.5zM410 179v322q0 75 -108 75q-107 0 -107 -75v-322q0 -75 107 -75q108 0 108 75z" />
    <glyph glyph-name="multiply" unicode="&#xd7;" horiz-adv-x="465" 
d="M333 162l-100 100l-101 -99q-19 -19 -35 -2l-41 43q-18 18 0 35l101 99l-100 100q-17 17 -1 35l41 42q16 18 35 -1l101 -100l100 101q19 19 35 1l42 -43q16 -17 -1 -34l-101 -101l101 -100q17 -16 0 -35l-42 -43q-16 -16 -34 2z" />
    <glyph glyph-name="Oslash" unicode="&#xd8;" horiz-adv-x="605" 
d="M170 -8q-9 -17 -16 -23.5t-22 -6.5h-34q-11 0 -13.5 9t3.5 21l25 49q-54 43 -54 113v370q0 70 58.5 116.5t184.5 46.5q78 0 127 -18l9 18q15 30 36 30h36q25 0 10 -30l-26 -52q51 -43 51 -111v-370q0 -70 -58.5 -116.5t-184.5 -46.5q-73 0 -124 17zM195 501v-297l179 357
q-27 15 -72 15q-51 0 -79 -19.5t-28 -55.5zM410 178v291l-177 -352q26 -14 69 -14q51 0 79.5 19.5t28.5 55.5z" />
    <glyph glyph-name="Ugrave" unicode="&#xd9;" horiz-adv-x="620" 
d="M251 747l-72 105q-8 11 -4 18.5t17 7.5h87q22 0 34 -25l48 -98q13 -25 -12 -25h-65q-20 0 -33 17zM202 654v-475q0 -37 28 -56t79 -19q109 0 109 75v475q0 26 24 26h87q24 0 24 -26v-499q0 -70 -59 -116.5t-185 -46.5t-184 46.5t-58 116.5v499q0 26 24 26h87q24 0 24 -26
z" />
    <glyph glyph-name="Uacute" unicode="&#xda;" horiz-adv-x="620" 
d="M443 853l-73 -106q-11 -16 -32 -16h-64q-26 0 -14 24l49 98q12 25 34 25h87q13 0 17 -7t-4 -18zM202 654v-475q0 -37 28 -56t79 -19q109 0 109 75v475q0 26 24 26h87q24 0 24 -26v-499q0 -70 -59 -116.5t-185 -46.5t-184 46.5t-58 116.5v499q0 26 24 26h87q24 0 24 -26z
" />
    <glyph glyph-name="Ucircumflex" unicode="&#xdb;" horiz-adv-x="620" 
d="M310 800l-25 -45q-13 -24 -35 -24h-63q-13 0 -16.5 6.5t3.5 17.5l73 98q18 25 39 25h48q21 0 39 -25l73 -98q8 -11 4 -17.5t-17 -6.5h-64q-21 0 -34 24zM202 654v-475q0 -37 28 -56t79 -19q109 0 109 75v475q0 26 24 26h87q24 0 24 -26v-499q0 -70 -59 -116.5t-185 -46.5
t-184 46.5t-58 116.5v499q0 26 24 26h87q24 0 24 -26z" />
    <glyph glyph-name="Udieresis" unicode="&#xdc;" horiz-adv-x="620" 
d="M288 850v-93q0 -14 -5 -19.5t-18 -5.5h-49q-24 0 -24 25v93q0 26 24 26h49q23 0 23 -26zM428 850v-93q0 -25 -23 -25h-49q-24 0 -24 25v93q0 26 24 26h49q23 0 23 -26zM202 654v-475q0 -37 28 -56t79 -19q109 0 109 75v475q0 26 24 26h87q24 0 24 -26v-499
q0 -70 -59 -116.5t-185 -46.5t-184 46.5t-58 116.5v499q0 26 24 26h87q24 0 24 -26z" />
    <glyph glyph-name="Yacute" unicode="&#xdd;" horiz-adv-x="545" 
d="M415 853l-73 -106q-11 -16 -32 -16h-64q-26 0 -14 24l49 98q12 25 34 25h87q13 0 17 -7t-4 -18zM162 655l95 -228q7 -16 17 -53q10 35 18 53l106 228q4 9 6.5 13t8.5 8t14 4h86q13 0 18.5 -6.5t-0.5 -18.5l-189 -395v-235q0 -25 -24 -25h-87q-25 0 -25 25v219l-190 411
q-5 11 -0.5 18t17.5 7h99q20 0 30 -25z" />
    <glyph glyph-name="Thorn" unicode="&#xde;" horiz-adv-x="585" 
d="M205 655v-157h99q126 0 184 -46t58 -117v-85q0 -71 -58 -117t-184 -46h-99v-62q0 -25 -24 -25h-87q-24 0 -24 25v630q0 25 24 25h87q24 0 24 -25zM304 387h-99v-189h99q108 0 108 75v39q0 75 -108 75z" />
    <glyph glyph-name="germandbls" unicode="&#xdf;" horiz-adv-x="645" 
d="M228 553v-527q0 -26 -24 -26h-83q-24 0 -24 26v366h-54q-25 0 -25 25v50q0 21 25 24l50 5h4v64q0 69 57 108.5t170 39.5q221 0 221 -148v-35q0 -62 -69 -92l-67 -29q-26 -11 -26 -26v-2q0 -19 31 -32l116 -53q35 -16 62 -44.5t27 -65.5v-45q0 -144 -179 -144
q-95 0 -132 34.5t-37 104.5v5q0 25 25 25h57q24 0 24 -25v-10q0 -51 61 -51q62 0 62 51v32q0 25 -38 40l-107 47q-81 35 -81 115v20q0 61 64 88l47 20q39 17 39 48v17q0 61 -98 61t-98 -61z" />
    <glyph glyph-name="agrave" unicode="&#xe0;" horiz-adv-x="512" 
d="M204 577l-72 106q-8 11 -4.5 18t16.5 7h87q23 0 35 -25l48 -98q12 -24 -13 -24h-65q-21 0 -32 16zM53 349v13q0 144 202 144q201 0 201 -144v-336q0 -26 -24 -26h-74q-13 0 -17.5 6t-6.5 20l-2 21q-66 -55 -148 -55q-70 0 -107.5 36t-37.5 89v45q0 53 40 89.5t111 36.5
h138v64q0 28 -17 42t-58 14q-42 0 -59.5 -12.5t-17.5 -39.5v-7q0 -25 -25 -25h-73q-25 0 -25 25zM218 96q52 0 110 43v57h-113q-48 0 -48 -45v-16q0 -39 51 -39z" />
    <glyph glyph-name="aacute" unicode="&#xe1;" horiz-adv-x="512" 
d="M379 683l-72 -106q-11 -16 -32 -16h-65q-25 0 -13 24l48 98q12 25 35 25h87q13 0 16.5 -7t-4.5 -18zM53 349v13q0 144 202 144q201 0 201 -144v-336q0 -26 -24 -26h-74q-13 0 -17.5 6t-6.5 20l-2 21q-66 -55 -148 -55q-70 0 -107.5 36t-37.5 89v45q0 53 40 89.5t111 36.5
h138v64q0 28 -17 42t-58 14q-42 0 -59.5 -12.5t-17.5 -39.5v-7q0 -25 -25 -25h-73q-25 0 -25 25zM218 96q52 0 110 43v57h-113q-48 0 -48 -45v-16q0 -39 51 -39z" />
    <glyph glyph-name="acircumflex" unicode="&#xe2;" horiz-adv-x="512" 
d="M255 630l-25 -45q-14 -24 -34 -24h-64q-13 0 -16.5 6.5t3.5 17.5l73 98q18 25 39 25h48q21 0 39 -25l73 -98q7 -11 3.5 -17.5t-16.5 -6.5h-64q-21 0 -34 24zM53 349v13q0 144 202 144q201 0 201 -144v-336q0 -26 -24 -26h-74q-13 0 -17.5 6t-6.5 20l-2 21
q-66 -55 -148 -55q-70 0 -107.5 36t-37.5 89v45q0 53 40 89.5t111 36.5h138v64q0 28 -17 42t-58 14q-42 0 -59.5 -12.5t-17.5 -39.5v-7q0 -25 -25 -25h-73q-25 0 -25 25zM218 96q52 0 110 43v57h-113q-48 0 -48 -45v-16q0 -39 51 -39z" />
    <glyph glyph-name="atilde" unicode="&#xe3;" horiz-adv-x="512" 
d="M343 560q-35 0 -64 13l-43 19q-34 15 -38 15q-20 0 -20 -24v-6q0 -22 -26 -22h-44q-23 0 -20 29l4 42q4 37 28 57t59 20q33 0 59 -13l42 -20q30 -15 38 -15q19 0 19 24v5q0 22 27 22h43q23 0 21 -29l-3 -39q-3 -38 -26 -58t-56 -20zM53 349v13q0 144 202 144
q201 0 201 -144v-336q0 -26 -24 -26h-74q-13 0 -17.5 6t-6.5 20l-2 21q-66 -55 -148 -55q-70 0 -107.5 36t-37.5 89v45q0 53 40 89.5t111 36.5h138v64q0 28 -17 42t-58 14q-42 0 -59.5 -12.5t-17.5 -39.5v-7q0 -25 -25 -25h-73q-25 0 -25 25zM218 96q52 0 110 43v57h-113
q-48 0 -48 -45v-16q0 -39 51 -39z" />
    <glyph glyph-name="adieresis" unicode="&#xe4;" horiz-adv-x="512" 
d="M233 681v-93q0 -25 -23 -25h-49q-25 0 -25 25v93q0 25 25 25h49q23 0 23 -25zM373 681v-93q0 -25 -23 -25h-49q-25 0 -25 25v93q0 25 25 25h49q23 0 23 -25zM53 349v13q0 144 202 144q201 0 201 -144v-336q0 -26 -24 -26h-74q-13 0 -17.5 6t-6.5 20l-2 21
q-66 -55 -148 -55q-70 0 -107.5 36t-37.5 89v45q0 53 40 89.5t111 36.5h138v64q0 28 -17 42t-58 14q-42 0 -59.5 -12.5t-17.5 -39.5v-7q0 -25 -25 -25h-73q-25 0 -25 25zM218 96q52 0 110 43v57h-113q-48 0 -48 -45v-16q0 -39 51 -39z" />
    <glyph glyph-name="aring" unicode="&#xe5;" horiz-adv-x="512" 
d="M365 654v-34q0 -33 -28 -54.5t-82 -21.5q-55 0 -83 21.5t-28 54.5v34q0 33 28 54.5t83 21.5q54 0 82 -21.5t28 -54.5zM295 629v15q0 30 -40 30q-41 0 -41 -30v-15q0 -30 41 -30q40 0 40 30zM53 349v13q0 144 202 144q201 0 201 -144v-336q0 -26 -24 -26h-74
q-13 0 -17.5 6t-6.5 20l-2 21q-66 -55 -148 -55q-70 0 -107.5 36t-37.5 89v45q0 53 40 89.5t111 36.5h138v64q0 28 -17 42t-58 14q-42 0 -59.5 -12.5t-17.5 -39.5v-7q0 -25 -25 -25h-73q-25 0 -25 25zM218 96q52 0 110 43v57h-113q-48 0 -48 -45v-16q0 -39 51 -39z" />
    <glyph glyph-name="ae" unicode="&#xe6;" horiz-adv-x="781" 
d="M734 359v-114q0 -23 -23 -23h-256v-79q0 -53 78 -53q79 0 79 54v7q0 24 24 24h70q24 0 24 -24v-12q0 -71 -46 -109t-151 -38q-132 0 -179 61q-78 -61 -170 -61q-71 0 -108 36t-37 89v45q0 54 40 90t111 36h137v69q0 54 -74 54q-42 0 -60 -12.5t-18 -39.5v-10
q0 -25 -24 -25h-73q-25 0 -25 25v14q0 143 202 143q94 0 135 -43q50 43 143 43q201 0 201 -147zM455 353v-44h157v44q0 56 -79 56q-78 0 -78 -56zM218 94q47 0 109 46v60h-113q-47 0 -47 -44v-22q0 -40 51 -40z" />
    <glyph glyph-name="ccedilla" unicode="&#xe7;" horiz-adv-x="496" 
d="M371 -127q0 -42 -23.5 -63t-64.5 -21h-119q-25 0 -25 25v20q0 24 25 24h98q19 0 19 15q0 16 -19 16h-75q-41 0 -31 33l22 77q-128 24 -128 141v219q0 147 206 147q205 0 205 -147v-17q0 -24 -24 -24h-77q-25 0 -25 24v7q0 28 -17.5 40.5t-59.5 12.5t-59.5 -12.5
t-17.5 -40.5v-199q0 -28 17.5 -41t59.5 -13t59.5 13t17.5 41v15q0 25 25 25h77q24 0 24 -25v-25q0 -145 -198 -148l-10 -37h30q41 0 64.5 -20.5t23.5 -61.5z" />
    <glyph glyph-name="egrave" unicode="&#xe8;" horiz-adv-x="503" 
d="M196 577l-72 106q-8 11 -4.5 18t16.5 7h87q23 0 35 -25l48 -98q12 -24 -13 -24h-65q-21 0 -32 16zM456 359v-116q0 -23 -22 -23h-256v-74q0 -28 17.5 -41.5t60.5 -13.5t60.5 13.5t17.5 41.5v5q0 25 25 25h70q25 0 25 -25v-11q0 -148 -199 -148q-205 0 -205 148v219
q0 147 206 147q200 0 200 -147zM178 352v-44h156v44q0 55 -78 55t-78 -55z" />
    <glyph glyph-name="eacute" unicode="&#xe9;" horiz-adv-x="503" 
d="M377 683l-72 -106q-11 -16 -32 -16h-65q-25 0 -13 24l48 98q12 25 35 25h87q13 0 16.5 -7t-4.5 -18zM456 359v-116q0 -23 -22 -23h-256v-74q0 -28 17.5 -41.5t60.5 -13.5t60.5 13.5t17.5 41.5v5q0 25 25 25h70q25 0 25 -25v-11q0 -148 -199 -148q-205 0 -205 148v219
q0 147 206 147q200 0 200 -147zM178 352v-44h156v44q0 55 -78 55t-78 -55z" />
    <glyph glyph-name="ecircumflex" unicode="&#xea;" horiz-adv-x="503" 
d="M255 630l-25 -45q-14 -24 -34 -24h-64q-13 0 -16.5 6.5t3.5 17.5l73 98q18 25 39 25h48q21 0 39 -25l73 -98q7 -11 3.5 -17.5t-16.5 -6.5h-64q-21 0 -34 24zM456 359v-116q0 -23 -22 -23h-256v-74q0 -28 17.5 -41.5t60.5 -13.5t60.5 13.5t17.5 41.5v5q0 25 25 25h70
q25 0 25 -25v-11q0 -148 -199 -148q-205 0 -205 148v219q0 147 206 147q200 0 200 -147zM178 352v-44h156v44q0 55 -78 55t-78 -55z" />
    <glyph glyph-name="edieresis" unicode="&#xeb;" horiz-adv-x="503" 
d="M232 681v-93q0 -25 -23 -25h-49q-25 0 -25 25v93q0 25 25 25h49q23 0 23 -25zM372 681v-93q0 -25 -23 -25h-49q-25 0 -25 25v93q0 25 25 25h49q23 0 23 -25zM456 359v-116q0 -23 -22 -23h-256v-74q0 -28 17.5 -41.5t60.5 -13.5t60.5 13.5t17.5 41.5v5q0 25 25 25h70
q25 0 25 -25v-11q0 -148 -199 -148q-205 0 -205 148v219q0 147 206 147q200 0 200 -147zM178 352v-44h156v44q0 55 -78 55t-78 -55z" />
    <glyph glyph-name="igrave" unicode="&#xec;" horiz-adv-x="247" 
d="M60 577l-72 106q-8 11 -4.5 18t16.5 7h87q23 0 35 -25l48 -98q12 -24 -13 -24h-65q-21 0 -32 16zM189 473v-448q0 -25 -24 -25h-83q-24 0 -24 25v448q0 25 24 25h83q24 0 24 -25z" />
    <glyph glyph-name="iacute" unicode="&#xed;" horiz-adv-x="247" 
d="M255 683l-72 -106q-11 -16 -32 -16h-65q-25 0 -13 24l48 98q12 25 35 25h87q13 0 16.5 -7t-4.5 -18zM189 473v-448q0 -25 -24 -25h-83q-24 0 -24 25v448q0 25 24 25h83q24 0 24 -25z" />
    <glyph glyph-name="icircumflex" unicode="&#xee;" horiz-adv-x="247" 
d="M127 630l-25 -45q-14 -24 -34 -24h-64q-13 0 -16.5 6.5t3.5 17.5l73 98q18 25 39 25h48q21 0 39 -25l73 -98q7 -11 3.5 -17.5t-16.5 -6.5h-64q-21 0 -34 24zM189 473v-448q0 -25 -24 -25h-83q-24 0 -24 25v448q0 25 24 25h83q24 0 24 -25z" />
    <glyph glyph-name="idieresis" unicode="&#xef;" horiz-adv-x="247" 
d="M102 681v-93q0 -25 -23 -25h-49q-25 0 -25 25v93q0 25 25 25h49q23 0 23 -25zM242 681v-93q0 -25 -23 -25h-49q-25 0 -25 25v93q0 25 25 25h49q23 0 23 -25zM189 473v-448q0 -25 -24 -25h-83q-24 0 -24 25v448q0 25 24 25h83q24 0 24 -25z" />
    <glyph glyph-name="eth" unicode="&#xf0;" horiz-adv-x="531" 
d="M281 583l44 23q-19 11 -56 11h-97q-26 0 -26 25v41q0 25 26 25h97q107 0 160 -43l44 24q21 12 34 -9l9 -15q12 -20 -10 -32l-39 -22q8 -20 8 -50v-422q0 -147 -208 -147q-107 0 -161.5 39t-54.5 108v221q0 69 36.5 107.5t108.5 38.5q85 0 156 -54v82q0 6 -3 10l-36 -17
q-22 -10 -33 9l-9 15q-12 20 10 32zM352 150v197q-60 46 -115 46t-55 -52v-191q0 -55 85 -55t85 55z" />
    <glyph glyph-name="ntilde" unicode="&#xf1;" horiz-adv-x="545" 
d="M354 568q-35 0 -64 13l-43 19q-34 15 -38 15q-20 0 -20 -24v-6q0 -22 -26 -22h-44q-23 0 -20 29l4 42q4 37 28 57t59 20q33 0 59 -13l42 -20q30 -15 38 -15q19 0 19 24v5q0 22 27 22h43q23 0 21 -29l-3 -39q-3 -38 -26 -58t-56 -20zM82 498h77q24 0 25 -24l2 -24
q68 56 160 56q68 0 106 -37t38 -97v-346q0 -26 -24 -26h-82q-25 0 -25 26v313q0 28 -12 40.5t-42 12.5q-57 0 -116 -45v-321q0 -26 -24 -26h-83q-24 0 -24 26v448q0 24 24 24z" />
    <glyph glyph-name="ograve" unicode="&#xf2;" horiz-adv-x="530" 
d="M205 577l-72 106q-8 11 -4.5 18t16.5 7h87q23 0 35 -25l48 -98q12 -24 -13 -24h-65q-21 0 -32 16zM49 140v219q0 69 54.5 108t161.5 39t161.5 -39t54.5 -108v-219q0 -70 -54.5 -109t-161.5 -39t-161.5 39t-54.5 109zM350 151v197q0 54 -85 54t-85 -54v-197q0 -55 85 -55
t85 55z" />
    <glyph glyph-name="oacute" unicode="&#xf3;" horiz-adv-x="530" 
d="M392 683l-72 -106q-11 -16 -32 -16h-65q-25 0 -13 24l48 98q12 25 35 25h87q13 0 16.5 -7t-4.5 -18zM49 140v219q0 69 54.5 108t161.5 39t161.5 -39t54.5 -108v-219q0 -70 -54.5 -109t-161.5 -39t-161.5 39t-54.5 109zM350 151v197q0 54 -85 54t-85 -54v-197
q0 -55 85 -55t85 55z" />
    <glyph glyph-name="ocircumflex" unicode="&#xf4;" horiz-adv-x="530" 
d="M265 630l-25 -45q-14 -24 -34 -24h-64q-13 0 -16.5 6.5t3.5 17.5l73 98q18 25 39 25h48q21 0 39 -25l73 -98q7 -11 3.5 -17.5t-16.5 -6.5h-64q-21 0 -34 24zM49 140v219q0 69 54.5 108t161.5 39t161.5 -39t54.5 -108v-219q0 -70 -54.5 -109t-161.5 -39t-161.5 39
t-54.5 109zM350 151v197q0 54 -85 54t-85 -54v-197q0 -55 85 -55t85 55z" />
    <glyph glyph-name="otilde" unicode="&#xf5;" horiz-adv-x="530" 
d="M350 560q-35 0 -64 13l-43 19q-34 15 -38 15q-20 0 -20 -24v-6q0 -22 -26 -22h-44q-23 0 -20 29l4 42q4 37 28 57t59 20q33 0 59 -13l42 -20q30 -15 38 -15q19 0 19 24v5q0 22 27 22h43q23 0 21 -29l-3 -39q-3 -38 -26 -58t-56 -20zM49 140v219q0 69 54.5 108t161.5 39
t161.5 -39t54.5 -108v-219q0 -70 -54.5 -109t-161.5 -39t-161.5 39t-54.5 109zM350 151v197q0 54 -85 54t-85 -54v-197q0 -55 85 -55t85 55z" />
    <glyph glyph-name="odieresis" unicode="&#xf6;" horiz-adv-x="530" 
d="M242 681v-93q0 -25 -23 -25h-49q-25 0 -25 25v93q0 25 25 25h49q23 0 23 -25zM382 681v-93q0 -25 -23 -25h-49q-25 0 -25 25v93q0 25 25 25h49q23 0 23 -25zM49 140v219q0 69 54.5 108t161.5 39t161.5 -39t54.5 -108v-219q0 -70 -54.5 -109t-161.5 -39t-161.5 39
t-54.5 109zM350 151v197q0 54 -85 54t-85 -54v-197q0 -55 85 -55t85 55z" />
    <glyph glyph-name="divide" unicode="&#xf7;" horiz-adv-x="538" 
d="M336 517v-81q0 -25 -24 -25h-85q-25 0 -25 25v81q0 25 25 25h85q24 0 24 -25zM63 352h412q25 0 25 -24v-60q0 -24 -25 -24h-412q-25 0 -25 24v60q0 24 25 24zM336 161v-81q0 -25 -24 -25h-85q-25 0 -25 25v81q0 25 25 25h85q24 0 24 -25z" />
    <glyph glyph-name="oslash" unicode="&#xf8;" horiz-adv-x="530" 
d="M131 -38h-32q-12 0 -12.5 10.5t5.5 19.5l18 35q-61 37 -61 113v219q0 69 54.5 108t161.5 39q50 0 95 -10l6 12q16 30 36 30h35q25 0 8 -30l-21 -39q57 -39 57 -110v-219q0 -70 -54.5 -109t-161.5 -39q-51 0 -89 9l-5 -9q-9 -17 -17 -23.5t-23 -6.5zM180 348v-190l127 239
q-14 5 -42 5q-85 0 -85 -54zM265 96q85 0 85 55v178l-122 -230q16 -3 37 -3z" />
    <glyph glyph-name="ugrave" unicode="&#xf9;" horiz-adv-x="539" 
d="M210 577l-72 106q-8 11 -4.5 18t16.5 7h87q23 0 35 -25l48 -98q12 -24 -13 -24h-65q-21 0 -32 16zM356 25l-2 22q-65 -55 -154 -55q-68 0 -106.5 37t-38.5 97v347q0 25 24 25h82q25 0 25 -25v-314q0 -28 12 -40.5t42 -12.5q58 0 110 44v323q0 25 24 25h83q25 0 25 -25
v-448q0 -25 -25 -25h-77q-13 0 -17.5 5.5t-6.5 19.5z" />
    <glyph glyph-name="uacute" unicode="&#xfa;" horiz-adv-x="539" 
d="M397 683l-72 -106q-11 -16 -32 -16h-65q-25 0 -13 24l48 98q12 25 35 25h87q13 0 16.5 -7t-4.5 -18zM356 25l-2 22q-65 -55 -154 -55q-68 0 -106.5 37t-38.5 97v347q0 25 24 25h82q25 0 25 -25v-314q0 -28 12 -40.5t42 -12.5q58 0 110 44v323q0 25 24 25h83q25 0 25 -25
v-448q0 -25 -25 -25h-77q-13 0 -17.5 5.5t-6.5 19.5z" />
    <glyph glyph-name="ucircumflex" unicode="&#xfb;" horiz-adv-x="539" 
d="M262 630l-25 -45q-14 -24 -34 -24h-64q-13 0 -16.5 6.5t3.5 17.5l73 98q18 25 39 25h48q21 0 39 -25l73 -98q7 -11 3.5 -17.5t-16.5 -6.5h-64q-21 0 -34 24zM356 25l-2 22q-65 -55 -154 -55q-68 0 -106.5 37t-38.5 97v347q0 25 24 25h82q25 0 25 -25v-314q0 -28 12 -40.5
t42 -12.5q58 0 110 44v323q0 25 24 25h83q25 0 25 -25v-448q0 -25 -25 -25h-77q-13 0 -17.5 5.5t-6.5 19.5z" />
    <glyph glyph-name="udieresis" unicode="&#xfc;" horiz-adv-x="539" 
d="M245 681v-93q0 -25 -23 -25h-49q-25 0 -25 25v93q0 25 25 25h49q23 0 23 -25zM385 681v-93q0 -25 -23 -25h-49q-25 0 -25 25v93q0 25 25 25h49q23 0 23 -25zM356 25l-2 22q-65 -55 -154 -55q-68 0 -106.5 37t-38.5 97v347q0 25 24 25h82q25 0 25 -25v-314q0 -28 12 -40.5
t42 -12.5q58 0 110 44v323q0 25 24 25h83q25 0 25 -25v-448q0 -25 -25 -25h-77q-13 0 -17.5 5.5t-6.5 19.5z" />
    <glyph glyph-name="yacute" unicode="&#xfd;" horiz-adv-x="479" 
d="M375 683l-72 -106q-11 -16 -32 -16h-65q-25 0 -13 24l48 98q12 25 35 25h87q13 0 16.5 -7t-4.5 -18zM147 473l75 -229q11 -33 17 -85q17 69 21 81l79 233q4 13 9.5 19t18.5 6h75q14 0 21 -6.5t3 -18.5l-221 -649q-8 -25 -28 -25h-60q-31 0 -24 25l49 163l-169 486
q-4 12 3 18.5t20 6.5h83q20 0 28 -25z" />
    <glyph glyph-name="thorn" unicode="&#xfe;" horiz-adv-x="542" 
d="M189 674v-222q69 54 156 54q73 0 109.5 -38.5t36.5 -107.5v-222q0 -69 -36.5 -107.5t-109.5 -38.5q-85 0 -156 53v-221q0 -25 -23 -25h-84q-24 0 -24 25v850q0 25 24 25h83q24 0 24 -25zM359 158v183q0 52 -55 52t-115 -46v-197q63 -45 115 -45q32 0 43.5 14.5t11.5 38.5
z" />
    <glyph glyph-name="ydieresis" unicode="&#xff;" horiz-adv-x="479" 
d="M220 681v-93q0 -25 -23 -25h-49q-25 0 -25 25v93q0 25 25 25h49q23 0 23 -25zM360 681v-93q0 -25 -23 -25h-49q-25 0 -25 25v93q0 25 25 25h49q23 0 23 -25zM147 473l75 -229q11 -33 17 -85q17 69 21 81l79 233q4 13 9.5 19t18.5 6h75q14 0 21 -6.5t3 -18.5l-221 -649
q-8 -25 -28 -25h-60q-31 0 -24 25l49 163l-169 486q-4 12 3 18.5t20 6.5h83q20 0 28 -25z" />
    <glyph glyph-name="Amacron" unicode="&#x100;" horiz-adv-x="555" 
d="M162 849h231q25 0 25 -23v-51q0 -25 -25 -25h-231q-25 0 -25 25v51q0 23 25 23zM234 680h87q25 0 32 -25l186 -630q8 -25 -18 -25h-90q-21 0 -29 25l-36 122h-186l-35 -122q-8 -25 -29 -25h-82q-26 0 -18 25l187 630q7 25 31 25zM337 254l-33 111q-16 55 -29 183
q-16 -132 -31 -182l-34 -112h127z" />
    <glyph glyph-name="amacron" unicode="&#x101;" horiz-adv-x="512" 
d="M137 671h230q25 0 25 -24v-51q0 -24 -25 -24h-230q-26 0 -26 24v51q0 24 26 24zM53 349v13q0 144 202 144q201 0 201 -144v-336q0 -26 -24 -26h-74q-13 0 -17.5 6t-6.5 20l-2 21q-66 -55 -148 -55q-70 0 -107.5 36t-37.5 89v45q0 53 40 89.5t111 36.5h138v64q0 28 -17 42
t-58 14q-42 0 -59.5 -12.5t-17.5 -39.5v-7q0 -25 -25 -25h-73q-25 0 -25 25zM218 96q52 0 110 43v57h-113q-48 0 -48 -45v-16q0 -39 51 -39z" />
    <glyph glyph-name="Abreve" unicode="&#x102;" horiz-adv-x="555" 
d="M232 863v-17q0 -43 46 -43q45 0 45 43v17q0 12 4.5 16.5t17.5 4.5h49q22 0 22 -21v-14q0 -59 -36.5 -91.5t-105.5 -32.5q-136 0 -136 124v14q0 21 22 21h50q22 0 22 -21zM234 680h87q25 0 32 -25l186 -630q8 -25 -18 -25h-90q-21 0 -29 25l-36 122h-186l-35 -122
q-8 -25 -29 -25h-82q-26 0 -18 25l187 630q7 25 31 25zM337 254l-33 111q-16 55 -29 183q-16 -132 -31 -182l-34 -112h127z" />
    <glyph glyph-name="abreve" unicode="&#x103;" horiz-adv-x="512" 
d="M208 678v-17q0 -43 46 -43q45 0 45 43v17q0 12 4.5 16.5t17.5 4.5h49q22 0 22 -21v-13q0 -60 -36.5 -92.5t-105.5 -32.5q-136 0 -136 125v13q0 21 22 21h50q22 0 22 -21zM53 349v13q0 144 202 144q201 0 201 -144v-336q0 -26 -24 -26h-74q-13 0 -17.5 6t-6.5 20l-2 21
q-66 -55 -148 -55q-70 0 -107.5 36t-37.5 89v45q0 53 40 89.5t111 36.5h138v64q0 28 -17 42t-58 14q-42 0 -59.5 -12.5t-17.5 -39.5v-7q0 -25 -25 -25h-73q-25 0 -25 25zM218 96q52 0 110 43v57h-113q-48 0 -48 -45v-16q0 -39 51 -39z" />
    <glyph glyph-name="Aogonek" unicode="&#x104;" horiz-adv-x="555" 
d="M234 680h87q25 0 32 -25l186 -630q8 -25 -18 -25h-36q-45 0 -45 -56q0 -32 38 -32h25q25 0 25 -24v-34q0 -25 -33 -25h-55q-38 0 -68.5 20t-30.5 67q0 69 57 121l-32 110h-186l-35 -122q-8 -25 -29 -25h-82q-26 0 -18 25l187 630q7 25 31 25zM337 254l-33 111
q-18 61 -29 182q-18 -137 -31 -181l-34 -112h127z" />
    <glyph glyph-name="aogonek" unicode="&#x105;" horiz-adv-x="512" 
d="M53 349v13q0 144 202 144q201 0 201 -144v-336q0 -26 -24 -26h-5q-46 0 -46 -57q0 -31 38 -31h14q25 0 25 -24v-34q0 -25 -33 -25h-47q-36 0 -66 20.5t-30 66.5q0 61 52 111l-2 20q-66 -55 -148 -55q-70 0 -107.5 36t-37.5 89v45q0 53 40 89.5t111 36.5h138v64
q0 28 -17 42t-58 14q-42 0 -59.5 -12.5t-17.5 -39.5v-7q0 -25 -25 -25h-73q-25 0 -25 25zM218 96q52 0 110 43v57h-113q-48 0 -48 -45v-16q0 -39 51 -39z" />
    <glyph glyph-name="Cacute" unicode="&#x106;" horiz-adv-x="568" 
d="M422 853l-73 -106q-11 -16 -32 -16h-64q-26 0 -14 24l49 98q12 25 34 25h87q13 0 17 -7t-4 -18zM529 217v-62q0 -71 -54.5 -117t-180.5 -46t-180.5 46t-54.5 117v370q0 71 54.5 117t180.5 46t180.5 -46t54.5 -117v-48q0 -25 -23 -25h-83q-25 0 -25 25v24q0 75 -102 75
q-101 0 -101 -75v-322q0 -75 101 -75q102 0 102 75v38q0 25 25 25h83q23 0 23 -25z" />
    <glyph glyph-name="cacute" unicode="&#x107;" horiz-adv-x="496" 
d="M383 683l-72 -106q-11 -16 -32 -16h-65q-25 0 -13 24l48 98q12 25 35 25h87q13 0 16.5 -7t-4.5 -18zM256 506q205 0 205 -147v-17q0 -24 -24 -24h-77q-25 0 -25 24v7q0 28 -17.5 40.5t-59.5 12.5t-59.5 -12.5t-17.5 -40.5v-199q0 -28 17.5 -41t59.5 -13t59.5 13t17.5 41
v15q0 25 25 25h77q24 0 24 -25v-25q0 -148 -206 -148q-205 0 -205 148v219q0 147 206 147z" />
    <glyph glyph-name="Ccircumflex" unicode="&#x108;" horiz-adv-x="568" 
d="M291 800l-25 -45q-13 -24 -35 -24h-63q-13 0 -16.5 6.5t3.5 17.5l73 98q18 25 39 25h48q21 0 39 -25l73 -98q8 -11 4 -17.5t-17 -6.5h-64q-21 0 -34 24zM529 217v-62q0 -71 -54.5 -117t-180.5 -46t-180.5 46t-54.5 117v370q0 71 54.5 117t180.5 46t180.5 -46t54.5 -117
v-48q0 -25 -23 -25h-83q-25 0 -25 25v24q0 75 -102 75q-101 0 -101 -75v-322q0 -75 101 -75q102 0 102 75v38q0 25 25 25h83q23 0 23 -25z" />
    <glyph glyph-name="ccircumflex" unicode="&#x109;" horiz-adv-x="496" 
d="M251 630l-25 -45q-14 -24 -34 -24h-64q-13 0 -16.5 6.5t3.5 17.5l73 98q18 25 39 25h48q21 0 39 -25l73 -98q7 -11 3.5 -17.5t-16.5 -6.5h-64q-21 0 -34 24zM256 506q205 0 205 -147v-17q0 -24 -24 -24h-77q-25 0 -25 24v7q0 28 -17.5 40.5t-59.5 12.5t-59.5 -12.5
t-17.5 -40.5v-199q0 -28 17.5 -41t59.5 -13t59.5 13t17.5 41v15q0 25 25 25h77q24 0 24 -25v-25q0 -148 -206 -148q-205 0 -205 148v219q0 147 206 147z" />
    <glyph glyph-name="Cdotaccent" unicode="&#x10a;" horiz-adv-x="568" 
d="M353 839v-82q0 -13 -5.5 -18.5t-18.5 -5.5h-85q-14 0 -19 5.5t-5 18.5v82q0 25 24 25h85q24 0 24 -25zM529 217v-62q0 -71 -54.5 -117t-180.5 -46t-180.5 46t-54.5 117v370q0 71 54.5 117t180.5 46t180.5 -46t54.5 -117v-48q0 -25 -23 -25h-83q-25 0 -25 25v24
q0 75 -102 75q-101 0 -101 -75v-322q0 -75 101 -75q102 0 102 75v38q0 25 25 25h83q23 0 23 -25z" />
    <glyph glyph-name="cdotaccent" unicode="&#x10b;" horiz-adv-x="496" 
d="M313 677v-81q0 -25 -23 -25h-86q-25 0 -25 25v81q0 25 25 25h86q23 0 23 -25zM256 506q205 0 205 -147v-17q0 -24 -24 -24h-77q-25 0 -25 24v7q0 28 -17.5 40.5t-59.5 12.5t-59.5 -12.5t-17.5 -40.5v-199q0 -28 17.5 -41t59.5 -13t59.5 13t17.5 41v15q0 25 25 25h77
q24 0 24 -25v-25q0 -148 -206 -148q-205 0 -205 148v219q0 147 206 147z" />
    <glyph glyph-name="Ccaron" unicode="&#x10c;" horiz-adv-x="568" 
d="M261 853l25 -44l25 44q15 25 34 25h64q13 0 17 -7t-4 -18l-73 -98q-17 -24 -39 -24h-48q-19 0 -39 25l-73 97q-7 11 -3.5 18t16.5 7h63q20 0 35 -25zM529 217v-62q0 -71 -54.5 -117t-180.5 -46t-180.5 46t-54.5 117v370q0 71 54.5 117t180.5 46t180.5 -46t54.5 -117v-48
q0 -25 -23 -25h-83q-25 0 -25 25v24q0 75 -102 75q-101 0 -101 -75v-322q0 -75 101 -75q102 0 102 75v38q0 25 25 25h83q23 0 23 -25z" />
    <glyph glyph-name="ccaron" unicode="&#x10d;" horiz-adv-x="496" 
d="M222 683l25 -44l25 44q15 25 34 25h64q13 0 16.5 -7t-3.5 -18l-73 -98q-17 -24 -39 -24h-48q-19 0 -39 25l-73 97q-7 11 -3.5 18t16.5 7h64q19 0 34 -25zM256 506q205 0 205 -147v-17q0 -24 -24 -24h-77q-25 0 -25 24v7q0 28 -17.5 40.5t-59.5 12.5t-59.5 -12.5
t-17.5 -40.5v-199q0 -28 17.5 -41t59.5 -13t59.5 13t17.5 41v15q0 25 25 25h77q24 0 24 -25v-25q0 -148 -206 -148q-205 0 -205 148v219q0 147 206 147z" />
    <glyph glyph-name="Dcaron" unicode="&#x10e;" horiz-adv-x="614" 
d="M276 853l25 -44l25 44q15 25 34 25h64q13 0 17 -7t-4 -18l-73 -98q-17 -24 -39 -24h-48q-19 0 -39 25l-73 97q-7 11 -3.5 18t16.5 7h63q20 0 35 -25zM312 0h-221q-21 0 -21 26v628q0 26 24 26h218q126 0 185 -46.5t59 -116.5v-354q0 -70 -59 -116.5t-185 -46.5zM312 568
h-107v-456h107q109 0 109 75v306q0 75 -109 75z" />
    <glyph glyph-name="dcaron" unicode="&#x10f;" horiz-adv-x="563" 
d="M550 686v30q0 25 25 25h61q24 0 24 -25v-38q0 -64 -45 -133q-11 -18 -33 -13l-46 11q-25 6 -13 33q2 5 7 16t6.5 14.5t5 12t4 13.5t2 14t2 18.5t0.5 21.5zM358 26l-2 22q-74 -56 -160 -56q-72 0 -108.5 38.5t-36.5 107.5v222q0 69 36.5 107.5t108.5 38.5q83 0 157 -54
v221q0 26 23 26h83q25 0 25 -26v-647q0 -26 -25 -26h-77q-13 0 -17.5 6t-6.5 20zM183 340v-181q0 -53 54 -53q53 0 116 46v194q-63 46 -116 46q-54 0 -54 -52z" />
    <glyph glyph-name="Dcroat" unicode="&#x110;" horiz-adv-x="628" 
d="M570 163q0 -70 -59 -116.5t-185 -46.5h-221q-21 0 -21 26v267h-43q-25 0 -25 24v51q0 23 25 23h43v263q0 26 24 26h218q126 0 185 -46.5t59 -116.5v-354zM219 112h107q109 0 109 75v306q0 75 -109 75h-107v-177h90q25 0 25 -23v-51q0 -24 -25 -24h-90v-181z" />
    <glyph glyph-name="dcroat" unicode="&#x111;" horiz-adv-x="542" 
d="M356 48q-74 -56 -160 -56q-72 0 -108.5 38.5t-36.5 107.5v222q0 69 36.5 107.5t108.5 38.5q83 0 157 -54v88h-91q-26 0 -26 25v43q0 23 26 23h91v42q0 26 23 26h83q25 0 25 -26v-42h28q26 0 26 -23v-43q0 -25 -26 -25h-28v-514q0 -26 -25 -26h-77q-13 0 -17.5 6t-6.5 20z
M183 340v-181q0 -53 54 -53q53 0 116 46v194q-63 46 -116 46q-54 0 -54 -52z" />
    <glyph glyph-name="Emacron" unicode="&#x112;" horiz-adv-x="511" 
d="M143 849h231q25 0 25 -23v-51q0 -25 -25 -25h-231q-25 0 -25 25v51q0 23 25 23zM446 0h-352q-24 0 -24 26v628q0 26 24 26h342q25 0 25 -24v-63q0 -25 -25 -25h-231v-162h214q26 0 26 -24v-60q0 -24 -26 -24h-214v-186h241q25 0 25 -24v-63q0 -25 -25 -25z" />
    <glyph glyph-name="emacron" unicode="&#x113;" horiz-adv-x="503" 
d="M136 671h230q25 0 25 -24v-51q0 -24 -25 -24h-230q-26 0 -26 24v51q0 24 26 24zM456 359v-116q0 -23 -22 -23h-256v-74q0 -28 17.5 -41.5t60.5 -13.5t60.5 13.5t17.5 41.5v5q0 25 25 25h70q25 0 25 -25v-11q0 -148 -199 -148q-205 0 -205 148v219q0 147 206 147
q200 0 200 -147zM178 352v-44h156v44q0 55 -78 55t-78 -55z" />
    <glyph glyph-name="Ebreve" unicode="&#x114;" horiz-adv-x="511" 
d="M215 863v-17q0 -43 46 -43q45 0 45 43v17q0 12 4.5 16.5t17.5 4.5h49q22 0 22 -21v-14q0 -59 -36.5 -91.5t-105.5 -32.5q-136 0 -136 124v14q0 21 22 21h50q22 0 22 -21zM446 0h-352q-24 0 -24 26v628q0 26 24 26h342q25 0 25 -24v-63q0 -25 -25 -25h-231v-162h214
q26 0 26 -24v-60q0 -24 -26 -24h-214v-186h241q25 0 25 -24v-63q0 -25 -25 -25z" />
    <glyph glyph-name="ebreve" unicode="&#x115;" horiz-adv-x="503" 
d="M205 678v-17q0 -43 46 -43q45 0 45 43v17q0 12 4.5 16.5t17.5 4.5h49q22 0 22 -21v-13q0 -60 -36.5 -92.5t-105.5 -32.5q-136 0 -136 125v13q0 21 22 21h50q22 0 22 -21zM456 359v-116q0 -23 -22 -23h-256v-74q0 -28 17.5 -41.5t60.5 -13.5t60.5 13.5t17.5 41.5v5
q0 25 25 25h70q25 0 25 -25v-11q0 -148 -199 -148q-205 0 -205 148v219q0 147 206 147q200 0 200 -147zM178 352v-44h156v44q0 55 -78 55t-78 -55z" />
    <glyph glyph-name="Edotaccent" unicode="&#x116;" horiz-adv-x="511" 
d="M331 839v-82q0 -13 -5.5 -18.5t-18.5 -5.5h-85q-14 0 -19 5.5t-5 18.5v82q0 25 24 25h85q24 0 24 -25zM446 0h-352q-24 0 -24 26v628q0 26 24 26h342q25 0 25 -24v-63q0 -25 -25 -25h-231v-162h214q26 0 26 -24v-60q0 -24 -26 -24h-214v-186h241q25 0 25 -24v-63
q0 -25 -25 -25z" />
    <glyph glyph-name="edotaccent" unicode="&#x117;" horiz-adv-x="503" 
d="M317 677v-81q0 -25 -23 -25h-86q-25 0 -25 25v81q0 25 25 25h86q23 0 23 -25zM456 359v-116q0 -23 -22 -23h-256v-74q0 -28 17.5 -41.5t60.5 -13.5t60.5 13.5t17.5 41.5v5q0 25 25 25h70q25 0 25 -25v-11q0 -148 -199 -148q-205 0 -205 148v219q0 147 206 147
q200 0 200 -147zM178 352v-44h156v44q0 55 -78 55t-78 -55z" />
    <glyph glyph-name="Eogonek" unicode="&#x118;" horiz-adv-x="511" 
d="M446 0h-29q-47 0 -47 -56q0 -32 39 -32h25q25 0 25 -24v-34q0 -25 -33 -25h-56q-38 0 -68.5 20t-30.5 67q0 45 25 84h-202q-24 0 -24 26v628q0 26 24 26h342q25 0 25 -24v-63q0 -25 -25 -25h-231v-162h214q26 0 26 -24v-60q0 -24 -26 -24h-214v-186h241q25 0 25 -24v-63
q0 -25 -25 -25z" />
    <glyph glyph-name="eogonek" unicode="&#x119;" horiz-adv-x="503" 
d="M456 359v-116q0 -23 -22 -23h-256v-74q0 -28 17.5 -41.5t60.5 -13.5t60.5 13.5t17.5 41.5v5q0 25 25 25h70q25 0 25 -25v-11q0 -63 -35 -99q-3 -3 -18.5 -17.5t-21.5 -22t-13 -24t-7 -34.5q0 -31 38 -31h26q25 0 25 -24v-34q0 -25 -33 -25h-58q-36 0 -66 19.5t-30 65.5
q0 42 21 79q-4 0 -13 -0.5t-14 -0.5q-205 0 -205 148v219q0 147 206 147q200 0 200 -147zM178 352v-44h156v44q0 55 -78 55t-78 -55z" />
    <glyph glyph-name="Ecaron" unicode="&#x11a;" horiz-adv-x="511" 
d="M235 853l25 -44l25 44q15 25 34 25h64q13 0 17 -7t-4 -18l-73 -98q-17 -24 -39 -24h-48q-19 0 -39 25l-73 97q-7 11 -3.5 18t16.5 7h63q20 0 35 -25zM446 0h-352q-24 0 -24 26v628q0 26 24 26h342q25 0 25 -24v-63q0 -25 -25 -25h-231v-162h214q26 0 26 -24v-60
q0 -24 -26 -24h-214v-186h241q25 0 25 -24v-63q0 -25 -25 -25z" />
    <glyph glyph-name="ecaron" unicode="&#x11b;" horiz-adv-x="503" 
d="M225 683l25 -44l25 44q15 25 34 25h64q13 0 16.5 -7t-3.5 -18l-73 -98q-17 -24 -39 -24h-48q-19 0 -39 25l-73 97q-7 11 -3.5 18t16.5 7h64q19 0 34 -25zM456 359v-116q0 -23 -22 -23h-256v-74q0 -28 17.5 -41.5t60.5 -13.5t60.5 13.5t17.5 41.5v5q0 25 25 25h70
q25 0 25 -25v-11q0 -148 -199 -148q-205 0 -205 148v219q0 147 206 147q200 0 200 -147zM178 352v-44h156v44q0 55 -78 55t-78 -55z" />
    <glyph glyph-name="Gcircumflex" unicode="&#x11c;" horiz-adv-x="584" 
d="M290 800l-25 -45q-13 -24 -35 -24h-63q-13 0 -16.5 6.5t3.5 17.5l73 98q18 25 39 25h48q21 0 39 -25l73 -98q8 -11 4 -17.5t-17 -6.5h-64q-21 0 -34 24zM300 357h204q25 0 25 -24v-178q0 -71 -54.5 -117t-180.5 -46t-180.5 46t-54.5 117v370q0 71 54.5 117t180.5 46
t180.5 -46t54.5 -117v-40q0 -25 -23 -25h-83q-25 0 -25 25v16q0 75 -102 75q-101 0 -101 -75v-322q0 -75 101 -75q102 0 102 74v67h-98q-26 0 -26 24v64q0 24 26 24z" />
    <glyph glyph-name="gcircumflex" unicode="&#x11d;" horiz-adv-x="542" 
d="M273 630l-25 -45q-14 -24 -34 -24h-64q-13 0 -16.5 6.5t3.5 17.5l73 98q18 25 39 25h48q21 0 39 -25l73 -98q7 -11 3.5 -17.5t-16.5 -6.5h-64q-21 0 -34 24zM196 -8q-72 0 -108.5 38.5t-36.5 107.5v222q0 69 36.5 107.5t108.5 38.5q89 0 160 -58l2 25q1 14 6 19.5t19 5.5
h76q25 0 25 -25v-527q0 -69 -53.5 -108t-160.5 -39h-141q-26 0 -26 24v58q0 26 26 26h141q83 0 83 54v84q-76 -53 -157 -53zM183 340v-181q0 -53 54 -53q53 0 116 46v194q-63 46 -116 46q-54 0 -54 -52z" />
    <glyph glyph-name="Gbreve" unicode="&#x11e;" horiz-adv-x="584" 
d="M244 863v-17q0 -43 46 -43q45 0 45 43v17q0 12 4.5 16.5t17.5 4.5h49q22 0 22 -21v-14q0 -59 -36.5 -91.5t-105.5 -32.5q-136 0 -136 124v14q0 21 22 21h50q22 0 22 -21zM300 357h204q25 0 25 -24v-178q0 -71 -54.5 -117t-180.5 -46t-180.5 46t-54.5 117v370
q0 71 54.5 117t180.5 46t180.5 -46t54.5 -117v-40q0 -25 -23 -25h-83q-25 0 -25 25v16q0 75 -102 75q-101 0 -101 -75v-322q0 -75 101 -75q102 0 102 74v67h-98q-26 0 -26 24v64q0 24 26 24z" />
    <glyph glyph-name="gbreve" unicode="&#x11f;" horiz-adv-x="542" 
d="M222 678v-17q0 -43 46 -43q45 0 45 43v17q0 12 4.5 16.5t17.5 4.5h49q22 0 22 -21v-13q0 -60 -36.5 -92.5t-105.5 -32.5q-136 0 -136 125v13q0 21 22 21h50q22 0 22 -21zM196 -8q-72 0 -108.5 38.5t-36.5 107.5v222q0 69 36.5 107.5t108.5 38.5q89 0 160 -58l2 25
q1 14 6 19.5t19 5.5h76q25 0 25 -25v-527q0 -69 -53.5 -108t-160.5 -39h-141q-26 0 -26 24v58q0 26 26 26h141q83 0 83 54v84q-76 -53 -157 -53zM183 340v-181q0 -53 54 -53q53 0 116 46v194q-63 46 -116 46q-54 0 -54 -52z" />
    <glyph glyph-name="Gdotaccent" unicode="&#x120;" horiz-adv-x="584" 
d="M357 837v-82q0 -13 -5.5 -18.5t-18.5 -5.5h-85q-14 0 -19 5.5t-5 18.5v82q0 25 24 25h85q24 0 24 -25zM300 357h204q25 0 25 -24v-178q0 -71 -54.5 -117t-180.5 -46t-180.5 46t-54.5 117v370q0 71 54.5 117t180.5 46t180.5 -46t54.5 -117v-40q0 -25 -23 -25h-83
q-25 0 -25 25v16q0 75 -102 75q-101 0 -101 -75v-322q0 -75 101 -75q102 0 102 74v67h-98q-26 0 -26 24v64q0 24 26 24z" />
    <glyph glyph-name="gdotaccent" unicode="&#x121;" horiz-adv-x="542" 
d="M337 677v-81q0 -25 -23 -25h-86q-25 0 -25 25v81q0 25 25 25h86q23 0 23 -25zM196 -8q-72 0 -108.5 38.5t-36.5 107.5v222q0 69 36.5 107.5t108.5 38.5q89 0 160 -58l2 25q1 14 6 19.5t19 5.5h76q25 0 25 -25v-527q0 -69 -53.5 -108t-160.5 -39h-141q-26 0 -26 24v58
q0 26 26 26h141q83 0 83 54v84q-76 -53 -157 -53zM183 340v-181q0 -53 54 -53q53 0 116 46v194q-63 46 -116 46q-54 0 -54 -52z" />
    <glyph glyph-name="Gcommaaccent" unicode="&#x122;" horiz-adv-x="584" 
d="M300 357h204q25 0 25 -24v-178q0 -71 -54.5 -117t-180.5 -46t-180.5 46t-54.5 117v370q0 71 54.5 117t180.5 46t180.5 -46t54.5 -117v-40q0 -25 -23 -25h-83q-25 0 -25 25v16q0 75 -102 75q-101 0 -101 -75v-322q0 -75 101 -75q102 0 102 74v67h-98q-26 0 -26 24v64
q0 24 26 24zM241 -105v30q0 25 25 25h61q24 0 24 -25v-38q0 -64 -45 -133q-11 -18 -33 -13l-46 11q-25 6 -13 33q2 5 7 16t6.5 14.5t5 12t4 13.5t2 14t2 18.5t0.5 21.5z" />
    <glyph glyph-name="gcommaaccent" unicode="&#x123;" horiz-adv-x="542" 
d="M310 623v-30q0 -25 -25 -25h-61q-24 0 -24 25v38q0 64 45 133q11 18 33 13l46 -11q25 -6 13 -33q-2 -5 -7 -16t-6.5 -14.5t-5 -12t-4 -13.5t-2 -14t-2 -18.5t-0.5 -21.5zM196 -8q-72 0 -108.5 38.5t-36.5 107.5v222q0 69 36.5 107.5t108.5 38.5q89 0 160 -58l2 25
q1 14 6 19.5t19 5.5h76q25 0 25 -25v-527q0 -69 -53.5 -108t-160.5 -39h-141q-26 0 -26 24v58q0 26 26 26h141q83 0 83 54v84q-76 -53 -157 -53zM183 340v-181q0 -53 54 -53q53 0 116 46v194q-63 46 -116 46q-54 0 -54 -52z" />
    <glyph glyph-name="Hcircumflex" unicode="&#x124;" horiz-adv-x="626" 
d="M312 800l-25 -45q-13 -24 -35 -24h-63q-13 0 -16.5 6.5t3.5 17.5l73 98q18 25 39 25h48q21 0 39 -25l73 -98q8 -11 4 -17.5t-17 -6.5h-64q-21 0 -34 24zM205 654v-249h216v249q0 26 24 26h87q24 0 24 -26v-628q0 -26 -24 -26h-87q-24 0 -24 26v267h-216v-267
q0 -26 -24 -26h-87q-24 0 -24 26v628q0 26 24 26h87q24 0 24 -26z" />
    <glyph glyph-name="hcircumflex" unicode="&#x125;" horiz-adv-x="545" 
d="M124 800l-25 -45q-13 -24 -35 -24h-63q-13 0 -16.5 6.5t3.5 17.5l73 98q18 25 39 25h48q21 0 39 -25l73 -98q8 -11 4 -17.5t-17 -6.5h-64q-21 0 -34 24zM189 673v-219q66 52 157 52q68 0 106 -37t38 -97v-346q0 -26 -24 -26h-82q-25 0 -25 26v313q0 28 -12 40.5t-42 12.5
q-57 0 -116 -45v-321q0 -26 -24 -26h-83q-24 0 -24 26v647q0 26 24 26h83q24 0 24 -26z" />
    <glyph glyph-name="Hbar" unicode="&#x126;" horiz-adv-x="643" 
d="M214 26q0 -26 -24 -26h-87q-24 0 -24 26v449h-32q-25 0 -25 24v43q0 24 25 24h32v88q0 26 24 26h87q24 0 24 -26v-88h216v88q0 26 24 26h87q24 0 24 -26v-88h31q25 0 25 -24v-43q0 -24 -25 -24h-31v-449q0 -26 -24 -26h-87q-24 0 -24 26v267h-216v-267zM214 405h216v70
h-216v-70z" />
    <glyph glyph-name="hbar" unicode="&#x127;" horiz-adv-x="545" 
d="M189 26q0 -26 -24 -26h-83q-24 0 -24 26v514h-29q-26 0 -26 25v43q0 24 26 24h29v41q0 26 24 26h83q24 0 24 -26v-41h91q25 0 25 -24v-43q0 -25 -25 -25h-91v-86q66 52 157 52q68 0 106 -37t38 -97v-346q0 -26 -24 -26h-82q-25 0 -25 26v313q0 28 -12 40.5t-42 12.5
q-57 0 -116 -45v-321z" />
    <glyph glyph-name="Itilde" unicode="&#x128;" horiz-adv-x="274" 
d="M197 833q20 0 20 24v6q0 22 27 22h43q23 0 21 -29l-3 -39q-3 -38 -26.5 -58t-56.5 -20t-64 13l-43 19q-32 15 -38 15q-19 0 -19 -25v-5q0 -22 -27 -22h-43q-24 0 -21 29l4 41q4 37 28.5 57.5t59.5 20.5q30 0 58 -13l43 -21q30 -15 37 -15zM205 654v-628q0 -26 -24 -26
h-87q-24 0 -24 26v628q0 26 24 26h87q24 0 24 -26z" />
    <glyph glyph-name="itilde" unicode="&#x129;" horiz-adv-x="247" 
d="M209 560q-35 0 -64 13l-43 19q-34 15 -38 15q-20 0 -20 -24v-6q0 -22 -26 -22h-44q-23 0 -20 29l4 42q4 37 28 57t59 20q33 0 59 -13l42 -20q30 -15 38 -15q19 0 19 24v5q0 22 27 22h43q23 0 21 -29l-3 -39q-3 -38 -26 -58t-56 -20zM189 473v-448q0 -25 -24 -25h-83
q-24 0 -24 25v448q0 25 24 25h83q24 0 24 -25z" />
    <glyph glyph-name="Imacron" unicode="&#x12a;" horiz-adv-x="274" 
d="M22 849h231q25 0 25 -23v-51q0 -25 -25 -25h-231q-25 0 -25 25v51q0 23 25 23zM205 654v-628q0 -26 -24 -26h-87q-24 0 -24 26v628q0 26 24 26h87q24 0 24 -26z" />
    <glyph glyph-name="imacron" unicode="&#x12b;" horiz-adv-x="247" 
d="M9 671h230q25 0 25 -24v-51q0 -24 -25 -24h-230q-26 0 -26 24v51q0 24 26 24zM189 473v-448q0 -25 -24 -25h-83q-24 0 -24 25v448q0 25 24 25h83q24 0 24 -25z" />
    <glyph glyph-name="Ibreve" unicode="&#x12c;" horiz-adv-x="274" 
d="M92 863v-17q0 -43 46 -43q45 0 45 43v17q0 12 4.5 16.5t17.5 4.5h49q22 0 22 -21v-14q0 -59 -36.5 -91.5t-105.5 -32.5q-136 0 -136 124v14q0 21 22 21h50q22 0 22 -21zM205 654v-628q0 -26 -24 -26h-87q-24 0 -24 26v628q0 26 24 26h87q24 0 24 -26z" />
    <glyph glyph-name="ibreve" unicode="&#x12d;" horiz-adv-x="247" 
d="M78 678v-17q0 -43 46 -43q45 0 45 43v17q0 12 4.5 16.5t17.5 4.5h49q22 0 22 -21v-13q0 -60 -36.5 -92.5t-105.5 -32.5q-136 0 -136 125v13q0 21 22 21h50q22 0 22 -21zM189 473v-448q0 -25 -24 -25h-83q-24 0 -24 25v448q0 25 24 25h83q24 0 24 -25z" />
    <glyph glyph-name="Iogonek" unicode="&#x12e;" horiz-adv-x="277" 
d="M207 654v-628q0 -26 -24 -26h-27q-21 0 -32 -16t-11 -40q0 -32 38 -32h26q25 0 25 -24v-34q0 -25 -34 -25h-55q-38 0 -68.5 20t-30.5 67q0 69 58 119v619q0 26 24 26h87q24 0 24 -26z" />
    <glyph glyph-name="iogonek" unicode="&#x12f;" horiz-adv-x="252" 
d="M194 673v-86q0 -24 -24 -24h-83q-24 0 -24 24v86q0 26 24 26h83q24 0 24 -26zM159 -171h-56q-37 0 -68 20t-31 67q0 69 59 119v438q0 25 24 25h83q24 0 24 -25v-447q0 -26 -24 -26h-21q-46 -1 -46 -56q0 -32 39 -32h25q25 0 25 -24v-34q0 -25 -33 -25z" />
    <glyph glyph-name="Idotaccent" unicode="&#x130;" horiz-adv-x="274" 
d="M204 839v-82q0 -13 -5 -18.5t-19 -5.5h-85q-13 0 -18.5 5.5t-5.5 18.5v82q0 25 24 25h85q24 0 24 -25zM205 654v-628q0 -26 -24 -26h-87q-24 0 -24 26v628q0 26 24 26h87q24 0 24 -26z" />
    <glyph glyph-name="dotlessi" unicode="&#x131;" horiz-adv-x="247" 
d="M189 473v-448q0 -25 -24 -25h-83q-24 0 -24 25v448q0 25 24 25h83q24 0 24 -25z" />
    <glyph glyph-name="IJ" unicode="&#x132;" horiz-adv-x="791" 
d="M205 654v-628q0 -26 -24 -26h-87q-24 0 -24 26v628q0 26 24 26h87q24 0 24 -26zM423 215v-36q0 -75 86 -75q43 0 61.5 18t18.5 57v475q0 26 24 26h87q24 0 24 -26v-499q0 -163 -215 -163q-117 0 -168 46t-51 117v60q0 25 25 25h84q24 0 24 -25z" />
    <glyph glyph-name="ij" unicode="&#x133;" horiz-adv-x="497" 
d="M189 673v-86q0 -24 -24 -24h-83q-24 0 -24 24v86q0 26 24 26h83q24 0 24 -26zM439 673v-86q0 -24 -24 -24h-83q-24 0 -24 24v86q0 26 24 26h83q24 0 24 -26zM189 473v-447q0 -26 -24 -26h-83q-24 0 -24 26v447q0 25 24 25h83q24 0 24 -25zM439 473v-527q0 -69 -53.5 -108
t-160.5 -39h-10q-25 0 -25 24v58q0 26 25 26h10q83 0 83 54v512q0 25 23 25h83q25 0 25 -25z" />
    <glyph glyph-name="Jcircumflex" unicode="&#x134;" horiz-adv-x="518" 
d="M378 800l-25 -45q-13 -24 -35 -24h-63q-13 0 -16.5 6.5t3.5 17.5l73 98q18 25 39 25h48q21 0 39 -25l73 -98q8 -11 4 -17.5t-17 -6.5h-64q-21 0 -34 24zM150 215v-36q0 -75 86 -75q43 0 61.5 18t18.5 57v475q0 26 24 26h87q24 0 24 -26v-499q0 -163 -215 -163
q-117 0 -168 46t-51 117v60q0 25 25 25h84q24 0 24 -25z" />
    <glyph glyph-name="jcircumflex" unicode="&#x135;" horiz-adv-x="247" 
d="M124 630l-25 -45q-14 -24 -34 -24h-64q-13 0 -16.5 6.5t3.5 17.5l73 98q18 25 39 25h48q21 0 39 -25l73 -98q7 -11 3.5 -17.5t-16.5 -6.5h-64q-21 0 -34 24zM189 473v-527q0 -69 -53.5 -108t-160.5 -39h-9q-25 0 -25 24v58q0 25 25 25h9q83 0 83 54v513q0 25 23 25h84
q24 0 24 -25z" />
    <glyph glyph-name="Kcommaaccent" unicode="&#x136;" horiz-adv-x="579" 
d="M335 346l235 -320q7 -10 3.5 -18t-15.5 -8h-117q-19 0 -36 25l-186 262h-14v-262q0 -25 -24 -25h-87q-24 0 -24 25v630q0 25 24 25h87q24 0 24 -25v-269h13l176 269q15 25 40 25h98q13 0 16 -7.5t-4 -17.5zM237 -105v30q0 25 25 25h61q24 0 24 -25v-38q0 -64 -45 -133
q-11 -18 -33 -13l-46 11q-25 6 -13 33q2 5 7 16t6.5 14.5t5 12t4 13.5t2 14t2 18.5t0.5 21.5z" />
    <glyph glyph-name="kcommaaccent" unicode="&#x137;" horiz-adv-x="502" 
d="M316 285l173 -260q7 -9 4 -17t-16 -8h-103q-21 0 -36 25l-131 204h-18v-204q0 -25 -24 -25h-83q-24 0 -24 25v649q0 25 24 25h83q24 0 24 -25v-346h20l121 145q21 25 40 25h94q13 0 16.5 -8t-4.5 -17zM204 -105v30q0 25 25 25h61q24 0 24 -25v-38q0 -64 -45 -133
q-11 -18 -33 -13l-46 11q-25 6 -13 33q2 5 7 16t6.5 14.5t5 12t4 13.5t2 14t2 18.5t0.5 21.5z" />
    <glyph glyph-name="kgreenlandic" unicode="&#x138;" horiz-adv-x="502" 
d="M316 285l173 -260q7 -9 4 -17t-16 -8h-103q-21 0 -36 25l-131 204h-18v-204q0 -25 -24 -25h-83q-24 0 -24 25v448q0 25 24 25h83q24 0 24 -25v-145h20l121 145q21 25 40 25h94q13 0 16.5 -8t-4.5 -17z" />
    <glyph glyph-name="Lacute" unicode="&#x139;" horiz-adv-x="465" 
d="M270 853l-73 -106q-11 -16 -32 -16h-64q-26 0 -14 24l49 98q12 25 34 25h87q13 0 17 -7t-4 -18zM205 654v-542h223q25 0 25 -24v-63q0 -25 -25 -25h-337q-21 0 -21 26v628q0 26 24 26h87q24 0 24 -26z" />
    <glyph glyph-name="lacute" unicode="&#x13a;" horiz-adv-x="247" 
d="M258 853l-73 -106q-11 -16 -32 -16h-64q-26 0 -14 24l49 98q12 25 34 25h87q13 0 17 -7t-4 -18zM189 673v-647q0 -26 -24 -26h-83q-24 0 -24 26v647q0 26 24 26h83q24 0 24 -26z" />
    <glyph glyph-name="Lcommaaccent" unicode="&#x13b;" horiz-adv-x="465" 
d="M205 654v-542h223q25 0 25 -24v-63q0 -25 -25 -25h-337q-21 0 -21 26v628q0 26 24 26h87q24 0 24 -26zM191 -105v30q0 25 25 25h61q24 0 24 -25v-38q0 -64 -45 -133q-11 -18 -33 -13l-46 11q-25 6 -13 33q2 5 7 16t6.5 14.5t5 12t4 13.5t2 14t2 18.5t0.5 21.5z" />
    <glyph glyph-name="lcommaaccent" unicode="&#x13c;" horiz-adv-x="247" 
d="M189 673v-647q0 -26 -24 -26h-83q-24 0 -24 26v647q0 26 24 26h83q24 0 24 -26zM68 -106v30q0 25 25 25h61q24 0 24 -25v-38q0 -64 -45 -133q-11 -18 -33 -13l-46 11q-25 6 -13 33q2 5 7 16t6.5 14.5t5 12t4 13.5t2 14t2 18.5t0.5 21.5z" />
    <glyph glyph-name="Lcaron" unicode="&#x13d;" horiz-adv-x="471" 
d="M320 682v30q0 25 25 25h61q24 0 24 -25v-38q0 -64 -45 -133q-11 -18 -33 -13l-46 11q-25 6 -13 33q2 5 7 16t6.5 14.5t5 12t4 13.5t2 14t2 18.5t0.5 21.5zM205 654v-542h223q25 0 25 -24v-63q0 -25 -25 -25h-337q-21 0 -21 26v628q0 26 24 26h87q24 0 24 -26z" />
    <glyph glyph-name="lcaron" unicode="&#x13e;" horiz-adv-x="268" 
d="M256 686v30q0 25 25 25h61q24 0 24 -25v-38q0 -64 -45 -133q-11 -18 -33 -13l-46 11q-25 6 -13 33q2 5 7 16t6.5 14.5t5 12t4 13.5t2 14t2 18.5t0.5 21.5zM189 673v-647q0 -26 -24 -26h-83q-24 0 -24 26v647q0 26 24 26h83q24 0 24 -26z" />
    <glyph glyph-name="Ldot" unicode="&#x13f;" horiz-adv-x="465" 
d="M205 654v-542h223q25 0 25 -24v-63q0 -25 -25 -25h-337q-21 0 -21 26v628q0 26 24 26h87q24 0 24 -26zM437 393v-81q0 -25 -24 -25h-85q-25 0 -25 25v81q0 25 25 25h85q24 0 24 -25z" />
    <glyph glyph-name="ldot" unicode="&#x140;" horiz-adv-x="371" 
d="M189 673v-647q0 -26 -24 -26h-83q-24 0 -24 26v647q0 26 24 26h83q24 0 24 -26zM376 393v-81q0 -25 -24 -25h-85q-25 0 -25 25v81q0 25 25 25h85q24 0 24 -25z" />
    <glyph glyph-name="Lslash" unicode="&#x141;" horiz-adv-x="481" 
d="M469 25q0 -25 -25 -25h-337q-21 0 -21 26v246l-27 -11q-22 -8 -32 14l-13 29q-9 20 15 31l57 23v296q0 26 24 26h87q24 0 24 -26v-241l40 16q23 10 33 -14l12 -28q10 -21 -14 -31l-71 -29v-215h223q25 0 25 -24v-63z" />
    <glyph glyph-name="lslash" unicode="&#x142;" horiz-adv-x="307" 
d="M219 26q0 -26 -24 -26h-83q-24 0 -24 26v250l-36 -15q-22 -8 -32 14l-13 29q-9 20 15 31l66 27v311q0 26 24 26h83q24 0 24 -26v-258l35 14q24 9 33 -14l12 -28q10 -21 -14 -31l-66 -27v-303z" />
    <glyph glyph-name="Nacute" unicode="&#x143;" horiz-adv-x="625" 
d="M437 853l-73 -106q-11 -16 -32 -16h-64q-26 0 -14 24l49 98q12 25 34 25h87q13 0 17 -7t-4 -18zM555 655v-630q0 -25 -23 -25h-79q-16 0 -23 12l-193 331q-23 39 -40 82v-400q0 -25 -24 -25h-79q-24 0 -24 25v630q0 25 24 25h79q14 0 21 -10l201 -345q19 -33 33 -70v400
q0 25 25 25h79q23 0 23 -25z" />
    <glyph glyph-name="nacute" unicode="&#x144;" horiz-adv-x="545" 
d="M404 683l-72 -106q-11 -16 -32 -16h-65q-25 0 -13 24l48 98q12 25 35 25h87q13 0 16.5 -7t-4.5 -18zM82 498h77q24 0 25 -24l2 -24q68 56 160 56q68 0 106 -37t38 -97v-346q0 -26 -24 -26h-82q-25 0 -25 26v313q0 28 -12 40.5t-42 12.5q-57 0 -116 -45v-321
q0 -26 -24 -26h-83q-24 0 -24 26v448q0 24 24 24z" />
    <glyph glyph-name="Ncommaaccent" unicode="&#x145;" horiz-adv-x="625" 
d="M555 655v-630q0 -25 -23 -25h-79q-16 0 -23 12l-193 331q-23 39 -40 82v-400q0 -25 -24 -25h-79q-24 0 -24 25v630q0 25 24 25h79q14 0 21 -10l201 -345q19 -33 33 -70v400q0 25 25 25h79q23 0 23 -25zM264 -105v30q0 25 25 25h61q24 0 24 -25v-38q0 -64 -45 -133
q-11 -18 -33 -13l-46 11q-25 6 -13 33q2 5 7 16t6.5 14.5t5 12t4 13.5t2 14t2 18.5t0.5 21.5z" />
    <glyph glyph-name="ncommaaccent" unicode="&#x146;" horiz-adv-x="545" 
d="M82 498h77q24 0 25 -24l2 -24q68 56 160 56q68 0 106 -37t38 -97v-346q0 -26 -24 -26h-82q-25 0 -25 26v313q0 28 -12 40.5t-42 12.5q-57 0 -116 -45v-321q0 -26 -24 -26h-83q-24 0 -24 26v448q0 24 24 24zM218 -105v30q0 25 25 25h61q24 0 24 -25v-38q0 -64 -45 -133
q-11 -18 -33 -13l-46 11q-25 6 -13 33q2 5 7 16t6.5 14.5t5 12t4 13.5t2 14t2 18.5t0.5 21.5z" />
    <glyph glyph-name="Ncaron" unicode="&#x147;" horiz-adv-x="625" 
d="M287 853l25 -44l25 44q15 25 34 25h64q13 0 17 -7t-4 -18l-73 -98q-17 -24 -39 -24h-48q-19 0 -39 25l-73 97q-7 11 -3.5 18t16.5 7h63q20 0 35 -25zM555 655v-630q0 -25 -23 -25h-79q-16 0 -23 12l-193 331q-23 39 -40 82v-400q0 -25 -24 -25h-79q-24 0 -24 25v630
q0 25 24 25h79q14 0 21 -10l201 -345q19 -33 33 -70v400q0 25 25 25h79q23 0 23 -25z" />
    <glyph glyph-name="ncaron" unicode="&#x148;" horiz-adv-x="545" 
d="M246 683l25 -44l25 44q15 25 34 25h64q13 0 16.5 -7t-3.5 -18l-73 -98q-17 -24 -39 -24h-48q-19 0 -39 25l-73 97q-7 11 -3.5 18t16.5 7h64q19 0 34 -25zM82 498h77q24 0 25 -24l2 -24q68 56 160 56q68 0 106 -37t38 -97v-346q0 -26 -24 -26h-82q-25 0 -25 26v313
q0 28 -12 40.5t-42 12.5q-57 0 -116 -45v-321q0 -26 -24 -26h-83q-24 0 -24 26v448q0 24 24 24z" />
    <glyph glyph-name="napostrophe" unicode="&#x149;" horiz-adv-x="545" 
d="M32 689v30q0 25 25 25h61q24 0 24 -25v-38q0 -64 -45 -133q-11 -18 -33 -13l-46 11q-25 6 -13 33q2 5 7 16t6.5 14.5t5 12t4 13.5t2 14t2 18.5t0.5 21.5zM82 498h77q24 0 25 -24l2 -24q68 56 160 56q68 0 106 -37t38 -97v-346q0 -26 -24 -26h-82q-25 0 -25 26v313
q0 28 -12 40.5t-42 12.5q-57 0 -116 -45v-321q0 -26 -24 -26h-83q-24 0 -24 26v448q0 24 24 24z" />
    <glyph glyph-name="Eng" unicode="&#x14a;" horiz-adv-x="625" 
d="M555 655v-709q0 -69 -51.5 -108t-158.5 -39h-9q-25 0 -25 24v58q0 25 25 25h9q83 0 83 54v54l-191 329q-23 39 -40 82v-400q0 -25 -24 -25h-79q-24 0 -24 25v630q0 25 24 25h79q14 0 21 -10l201 -345q19 -33 33 -70v400q0 25 25 25h79q23 0 23 -25z" />
    <glyph glyph-name="eng" unicode="&#x14b;" horiz-adv-x="546" 
d="M159 498q24 0 25 -24l1 -24q71 56 161 56q67 0 105.5 -37t38.5 -96v-427q0 -69 -53.5 -108t-160.5 -39h-9q-26 0 -26 24v58q0 25 26 25h9q83 0 83 54v380q0 28 -12 40.5t-42 12.5q-60 0 -116 -45v-323q0 -25 -24 -25h-83q-24 0 -24 25v449q0 24 24 24h77z" />
    <glyph glyph-name="Omacron" unicode="&#x14c;" horiz-adv-x="605" 
d="M187 849h231q25 0 25 -23v-51q0 -25 -25 -25h-231q-25 0 -25 25v51q0 23 25 23zM59 155v370q0 70 58.5 116.5t184.5 46.5t184.5 -46.5t58.5 -116.5v-370q0 -70 -58.5 -116.5t-184.5 -46.5t-184.5 46.5t-58.5 116.5zM410 179v322q0 75 -108 75q-107 0 -107 -75v-322
q0 -75 107 -75q108 0 108 75z" />
    <glyph glyph-name="omacron" unicode="&#x14d;" horiz-adv-x="530" 
d="M148 671h230q25 0 25 -24v-51q0 -24 -25 -24h-230q-26 0 -26 24v51q0 24 26 24zM49 140v219q0 69 54.5 108t161.5 39t161.5 -39t54.5 -108v-219q0 -70 -54.5 -109t-161.5 -39t-161.5 39t-54.5 109zM350 151v197q0 54 -85 54t-85 -54v-197q0 -55 85 -55t85 55z" />
    <glyph glyph-name="Obreve" unicode="&#x14e;" horiz-adv-x="605" 
d="M256 863v-17q0 -43 46 -43q45 0 45 43v17q0 12 4.5 16.5t17.5 4.5h49q22 0 22 -21v-14q0 -59 -36.5 -91.5t-105.5 -32.5q-136 0 -136 124v14q0 21 22 21h50q22 0 22 -21zM59 155v370q0 70 58.5 116.5t184.5 46.5t184.5 -46.5t58.5 -116.5v-370q0 -70 -58.5 -116.5
t-184.5 -46.5t-184.5 46.5t-58.5 116.5zM410 179v322q0 75 -108 75q-107 0 -107 -75v-322q0 -75 107 -75q108 0 108 75z" />
    <glyph glyph-name="obreve" unicode="&#x14f;" horiz-adv-x="530" 
d="M217 678v-17q0 -43 46 -43q45 0 45 43v17q0 12 4.5 16.5t17.5 4.5h49q22 0 22 -21v-13q0 -60 -36.5 -92.5t-105.5 -32.5q-136 0 -136 125v13q0 21 22 21h50q22 0 22 -21zM49 140v219q0 69 54.5 108t161.5 39t161.5 -39t54.5 -108v-219q0 -70 -54.5 -109t-161.5 -39
t-161.5 39t-54.5 109zM350 151v197q0 54 -85 54t-85 -54v-197q0 -55 85 -55t85 55z" />
    <glyph glyph-name="Ohungarumlaut" unicode="&#x150;" horiz-adv-x="605" 
d="M503 853l-69 -99q-17 -23 -37 -23h-61q-27 0 -13 24l56 98q14 25 38 25h74q13 0 16.5 -7t-4.5 -18zM342 853l-54 -98q-13 -24 -33 -24h-61q-27 0 -17 24l42 98q11 25 34 25h72q13 0 18 -7t-1 -18zM59 155v370q0 70 58.5 116.5t184.5 46.5t184.5 -46.5t58.5 -116.5v-370
q0 -70 -58.5 -116.5t-184.5 -46.5t-184.5 46.5t-58.5 116.5zM410 179v322q0 75 -108 75q-107 0 -107 -75v-322q0 -75 107 -75q108 0 108 75z" />
    <glyph glyph-name="ohungarumlaut" unicode="&#x151;" horiz-adv-x="530" 
d="M465 683l-70 -99q-15 -23 -37 -23h-61q-27 0 -13 24l57 98q14 25 38 25h73q13 0 17 -7t-4 -18zM304 683l-55 -98q-13 -24 -33 -24h-61q-27 0 -17 24l42 98q11 25 34 25h73q13 0 18 -7t-1 -18zM49 140v219q0 69 54.5 108t161.5 39t161.5 -39t54.5 -108v-219
q0 -70 -54.5 -109t-161.5 -39t-161.5 39t-54.5 109zM350 151v197q0 54 -85 54t-85 -54v-197q0 -55 85 -55t85 55z" />
    <glyph glyph-name="OE" unicode="&#x152;" horiz-adv-x="851" 
d="M434 0q-18 0 -23 15q-48 -23 -109 -23q-126 0 -184.5 46.5t-58.5 116.5v370q0 70 58.5 116.5t184.5 46.5q61 0 109 -23q5 15 23 15h342q25 0 25 -24v-63q0 -25 -25 -25h-231v-162h214q26 0 26 -24v-60q0 -24 -26 -24h-214v-186h241q25 0 25 -24v-63q0 -25 -25 -25h-352z
M410 179v322q0 75 -108 75q-107 0 -107 -75v-322q0 -75 107 -75q108 0 108 75z" />
    <glyph glyph-name="oe" unicode="&#x153;" horiz-adv-x="803" 
d="M755 140q0 -148 -199 -148q-99 0 -148 34q-49 -34 -143 -34q-107 0 -161.5 39t-54.5 109v219q0 69 54.5 108t161.5 39q95 0 143 -34q51 34 149 34q200 0 200 -147v-116q0 -23 -22 -23h-256v-74q0 -28 17.5 -41.5t60.5 -13.5t60.5 13.5t17.5 41.5v5q0 25 25 25h70
q25 0 25 -25v-11zM479 352v-44h156v44q0 55 -78 55t-78 -55zM350 151v197q0 54 -85 54t-85 -54v-197q0 -55 85 -55t85 55z" />
    <glyph glyph-name="Racute" unicode="&#x154;" horiz-adv-x="594" 
d="M401 853l-73 -106q-11 -16 -32 -16h-64q-26 0 -14 24l49 98q12 25 34 25h87q13 0 17 -7t-4 -18zM181 0h-87q-24 0 -24 26v628q0 26 24 26h210q126 0 184 -46t58 -117v-95q0 -104 -109 -143l107 -253q5 -12 -2 -19t-21 -7h-94q-17 0 -28 26l-97 233h-97v-233
q0 -26 -24 -26zM304 568h-99v-197h99q108 0 108 75v47q0 75 -108 75z" />
    <glyph glyph-name="racute" unicode="&#x155;" horiz-adv-x="371" 
d="M308 683l-72 -106q-11 -16 -32 -16h-65q-25 0 -13 24l48 98q12 25 35 25h87q13 0 16.5 -7t-4.5 -18zM333 506q25 0 25 -24v-64q0 -25 -25 -26q-87 -7 -144 -59v-307q0 -26 -24 -26h-83q-24 0 -24 26v448q0 24 24 24h77q24 0 25 -24l3 -35q60 67 146 67z" />
    <glyph glyph-name="Rcommaaccent" unicode="&#x156;" horiz-adv-x="594" 
d="M181 0h-87q-24 0 -24 26v628q0 26 24 26h210q126 0 184 -46t58 -117v-95q0 -104 -109 -143l107 -253q5 -12 -2 -19t-21 -7h-94q-17 0 -28 26l-97 233h-97v-233q0 -26 -24 -26zM304 568h-99v-197h99q108 0 108 75v47q0 75 -108 75zM245 -105v30q0 25 25 25h61q24 0 24 -25
v-38q0 -64 -45 -133q-11 -18 -33 -13l-46 11q-25 6 -13 33q2 5 7 16t6.5 14.5t5 12t4 13.5t2 14t2 18.5t0.5 21.5z" />
    <glyph glyph-name="rcommaaccent" unicode="&#x157;" horiz-adv-x="371" 
d="M333 506q25 0 25 -24v-64q0 -25 -25 -26q-87 -7 -144 -59v-307q0 -26 -24 -26h-83q-24 0 -24 26v448q0 24 24 24h77q24 0 25 -24l3 -35q60 67 146 67zM69 -105v30q0 25 25 25h61q24 0 24 -25v-38q0 -64 -45 -133q-11 -18 -33 -13l-46 11q-25 6 -13 33q2 5 7 16t6.5 14.5
t5 12t4 13.5t2 14t2 18.5t0.5 21.5z" />
    <glyph glyph-name="Rcaron" unicode="&#x158;" horiz-adv-x="594" 
d="M265 853l25 -44l25 44q15 25 34 25h64q13 0 17 -7t-4 -18l-73 -98q-17 -24 -39 -24h-48q-19 0 -39 25l-73 97q-7 11 -3.5 18t16.5 7h63q20 0 35 -25zM181 0h-87q-24 0 -24 26v628q0 26 24 26h210q126 0 184 -46t58 -117v-95q0 -104 -109 -143l107 -253q5 -12 -2 -19
t-21 -7h-94q-17 0 -28 26l-97 233h-97v-233q0 -26 -24 -26zM304 568h-99v-197h99q108 0 108 75v47q0 75 -108 75z" />
    <glyph glyph-name="rcaron" unicode="&#x159;" horiz-adv-x="371" 
d="M159 683l25 -44l25 44q15 25 34 25h64q13 0 16.5 -7t-3.5 -18l-73 -98q-17 -24 -39 -24h-48q-19 0 -39 25l-73 97q-7 11 -3.5 18t16.5 7h64q19 0 34 -25zM333 506q25 0 25 -24v-64q0 -25 -25 -26q-87 -7 -144 -59v-307q0 -26 -24 -26h-83q-24 0 -24 26v448q0 24 24 24h77
q24 0 25 -24l3 -35q60 67 146 67z" />
    <glyph glyph-name="Sacute" unicode="&#x15a;" horiz-adv-x="567" 
d="M411 853l-73 -106q-11 -16 -32 -16h-64q-26 0 -14 24l49 98q12 25 34 25h87q13 0 17 -7t-4 -18zM382 484v23q0 72 -97 72q-98 0 -98 -72v-15q0 -39 41 -54l174 -62q118 -42 118 -144v-77q0 -71 -57 -117t-181 -46t-181.5 46.5t-57.5 116.5v63q0 26 25 26h84q23 0 23 -26
v-45q0 -72 106 -72q107 0 107 72v32q0 20 -15 35.5t-29 22t-41 16.5l-155 59q-38 14 -65 50t-27 79v58q0 72 53 117.5t176 45.5q121 0 175 -46t54 -117v-41q0 -25 -24 -25h-84q-24 0 -24 25z" />
    <glyph glyph-name="sacute" unicode="&#x15b;" horiz-adv-x="476" 
d="M368 683l-72 -106q-11 -16 -32 -16h-65q-25 0 -13 24l48 98q12 25 35 25h87q13 0 16.5 -7t-4.5 -18zM311 354v19q0 41 -73 41q-72 0 -72 -41v-13q0 -25 31 -36l144 -47q96 -31 96 -103v-53q0 -54 -50.5 -91.5t-151.5 -37.5t-150.5 37.5t-49.5 91.5v23q0 23 23 23h74
q23 0 23 -23v-17q0 -42 80 -42q81 0 81 42v18q0 13 -10 21t-35 17l-145 49q-30 11 -54.5 41t-24.5 65v35q0 55 46 94t146 39q99 0 145 -39t46 -94v-19q0 -13 -5 -18t-18 -5h-74q-22 0 -22 23z" />
    <glyph glyph-name="Scircumflex" unicode="&#x15c;" horiz-adv-x="567" 
d="M282 800l-25 -45q-13 -24 -35 -24h-63q-13 0 -16.5 6.5t3.5 17.5l73 98q18 25 39 25h48q21 0 39 -25l73 -98q8 -11 4 -17.5t-17 -6.5h-64q-21 0 -34 24zM382 484v23q0 72 -97 72q-98 0 -98 -72v-15q0 -39 41 -54l174 -62q118 -42 118 -144v-77q0 -71 -57 -117t-181 -46
t-181.5 46.5t-57.5 116.5v63q0 26 25 26h84q23 0 23 -26v-45q0 -72 106 -72q107 0 107 72v32q0 20 -15 35.5t-29 22t-41 16.5l-155 59q-38 14 -65 50t-27 79v58q0 72 53 117.5t176 45.5q121 0 175 -46t54 -117v-41q0 -25 -24 -25h-84q-24 0 -24 25z" />
    <glyph glyph-name="scircumflex" unicode="&#x15d;" horiz-adv-x="476" 
d="M232 630l-25 -45q-14 -24 -34 -24h-64q-13 0 -16.5 6.5t3.5 17.5l73 98q18 25 39 25h48q21 0 39 -25l73 -98q7 -11 3.5 -17.5t-16.5 -6.5h-64q-21 0 -34 24zM311 354v19q0 41 -73 41q-72 0 -72 -41v-13q0 -25 31 -36l144 -47q96 -31 96 -103v-53q0 -54 -50.5 -91.5
t-151.5 -37.5t-150.5 37.5t-49.5 91.5v23q0 23 23 23h74q23 0 23 -23v-17q0 -42 80 -42q81 0 81 42v18q0 13 -10 21t-35 17l-145 49q-30 11 -54.5 41t-24.5 65v35q0 55 46 94t146 39q99 0 145 -39t46 -94v-19q0 -13 -5 -18t-18 -5h-74q-22 0 -22 23z" />
    <glyph glyph-name="Scedilla" unicode="&#x15e;" horiz-adv-x="567" 
d="M341 -211h-120q-25 0 -25 25v20q0 24 25 24h98q19 0 19 15q0 16 -19 16h-74q-41 0 -31 33l20 72q-99 9 -145 53.5t-46 107.5v63q0 26 25 26h84q23 0 23 -26v-45q0 -72 106 -72q107 0 107 72v32q0 20 -15 35.5t-29 22t-41 16.5l-155 59q-38 14 -65 50t-27 79v58
q0 72 53 117.5t176 45.5q121 0 175 -46t54 -117v-41q0 -25 -24 -25h-84q-24 0 -24 25v23q0 72 -97 72q-98 0 -98 -72v-15q0 -39 41 -54l174 -62q118 -42 118 -144v-77q0 -66 -48.5 -113.5t-150.5 -47.5l-10 -39h30q40 0 63.5 -20.5t23.5 -61.5q0 -42 -23.5 -63t-63.5 -21z
" />
    <glyph glyph-name="scedilla" unicode="&#x15f;" horiz-adv-x="476" 
d="M276 -211h-119q-25 0 -25 25v20q0 24 25 24h98q19 0 19 15q0 16 -19 16h-75q-41 0 -31 33l21 75q-68 11 -101.5 45.5t-33.5 78.5v23q0 23 23 23h74q23 0 23 -23v-17q0 -42 80 -42q81 0 81 42v18q0 13 -10 21t-35 17l-145 49q-30 11 -54.5 41t-24.5 65v35q0 55 46 94
t146 39q99 0 145 -39t46 -94v-19q0 -13 -5 -18t-18 -5h-74q-22 0 -22 23v19q0 41 -73 41q-72 0 -72 -41v-13q0 -25 31 -36l144 -47q96 -31 96 -103v-53q0 -52 -45.5 -90t-134.5 -38l-11 -38h30q41 0 64.5 -20.5t23.5 -61.5q0 -42 -23.5 -63t-64.5 -21z" />
    <glyph glyph-name="Scaron" unicode="&#x160;" horiz-adv-x="567" 
d="M255 853l25 -44l25 44q15 25 34 25h64q13 0 17 -7t-4 -18l-73 -98q-17 -24 -39 -24h-48q-19 0 -39 25l-73 97q-7 11 -3.5 18t16.5 7h63q20 0 35 -25zM382 484v23q0 72 -97 72q-98 0 -98 -72v-15q0 -39 41 -54l174 -62q118 -42 118 -144v-77q0 -71 -57 -117t-181 -46
t-181.5 46.5t-57.5 116.5v63q0 26 25 26h84q23 0 23 -26v-45q0 -72 106 -72q107 0 107 72v32q0 20 -15 35.5t-29 22t-41 16.5l-155 59q-38 14 -65 50t-27 79v58q0 72 53 117.5t176 45.5q121 0 175 -46t54 -117v-41q0 -25 -24 -25h-84q-24 0 -24 25z" />
    <glyph glyph-name="scaron" unicode="&#x161;" horiz-adv-x="476" 
d="M212 683l25 -44l25 44q15 25 34 25h64q13 0 16.5 -7t-3.5 -18l-73 -98q-17 -24 -39 -24h-48q-19 0 -39 25l-73 97q-7 11 -3.5 18t16.5 7h64q19 0 34 -25zM311 354v19q0 41 -73 41q-72 0 -72 -41v-13q0 -25 31 -36l144 -47q96 -31 96 -103v-53q0 -54 -50.5 -91.5
t-151.5 -37.5t-150.5 37.5t-49.5 91.5v23q0 23 23 23h74q23 0 23 -23v-17q0 -42 80 -42q81 0 81 42v18q0 13 -10 21t-35 17l-145 49q-30 11 -54.5 41t-24.5 65v35q0 55 46 94t146 39q99 0 145 -39t46 -94v-19q0 -13 -5 -18t-18 -5h-74q-22 0 -22 23z" />
    <glyph glyph-name="uni0162" unicode="&#x162;" horiz-adv-x="496" 
d="M365 -127q0 -42 -23.5 -63t-63.5 -21h-120q-25 0 -25 25v20q0 24 25 24h98q19 0 19 15q0 16 -19 16h-74q-41 0 -31 33l29 104v542h-142q-25 0 -25 25v63q0 24 25 24h420q25 0 25 -24v-63q0 -25 -25 -25h-142v-542q0 -26 -24 -26h-32l-12 -45h30q40 0 63.5 -20.5
t23.5 -61.5z" />
    <glyph glyph-name="uni0163" unicode="&#x163;" horiz-adv-x="367" 
d="M317 -127q0 -42 -23.5 -63t-63.5 -21h-120q-25 0 -25 25v20q0 24 25 24h98q19 0 19 15q0 16 -19 16h-74q-41 0 -31 33l31 113q-44 34 -44 113v244h-49q-25 0 -25 25v50q0 12 5.5 17t19.5 7l46 5h3v96q0 25 24 25h84q23 0 23 -25v-96h91q25 0 25 -23v-56q0 -25 -25 -25
h-91v-230q0 -29 19 -41.5t61 -12.5h23q25 0 25 -25v-58q0 -25 -25 -25h-43q-36 0 -69 5l-12 -50h30q40 0 63.5 -20.5t23.5 -61.5z" />
    <glyph glyph-name="Tcaron" unicode="&#x164;" horiz-adv-x="496" 
d="M223 853l25 -44l25 44q15 25 34 25h64q13 0 17 -7t-4 -18l-73 -98q-17 -24 -39 -24h-48q-19 0 -39 25l-73 97q-7 11 -3.5 18t16.5 7h63q20 0 35 -25zM38 680h420q25 0 25 -24v-63q0 -25 -25 -25h-142v-542q0 -26 -24 -26h-88q-24 0 -24 26v542h-142q-25 0 -25 25v63
q0 24 25 24z" />
    <glyph glyph-name="tcaron" unicode="&#x165;" horiz-adv-x="367" 
d="M288 684v30q0 25 25 25h61q24 0 24 -25v-38q0 -64 -45 -133q-11 -18 -33 -13l-46 11q-25 6 -13 33q2 5 7 16t6.5 14.5t5 12t4 13.5t2 14t2 18.5t0.5 21.5zM221 496h91q25 0 25 -23v-56q0 -25 -25 -25h-91v-230q0 -29 19 -41.5t61 -12.5h23q25 0 25 -25v-58q0 -25 -25 -25
h-43q-106 0 -148.5 35.5t-42.5 112.5v244h-49q-25 0 -25 25v50q0 12 5.5 17t19.5 7l46 5h3v96q0 25 24 25h84q23 0 23 -25v-96z" />
    <glyph glyph-name="Tbar" unicode="&#x166;" horiz-adv-x="519" 
d="M327 26q0 -26 -24 -26h-88q-24 0 -24 26v306h-103q-25 0 -25 25v43q0 23 25 23h103v145h-142q-25 0 -25 25v63q0 24 25 24h420q25 0 25 -24v-63q0 -25 -25 -25h-142v-145h104q25 0 25 -23v-43q0 -25 -25 -25h-104v-306z" />
    <glyph glyph-name="tbar" unicode="&#x167;" horiz-adv-x="373" 
d="M353 25q0 -25 -25 -25h-43q-106 0 -148.5 35.5t-42.5 112.5v86h-49q-25 0 -25 25v43q0 23 25 23h49v67h-49q-25 0 -25 25v50q0 12 5.5 17t19.5 7l46 5h3v96q0 25 24 25h84q23 0 23 -25v-96h91q25 0 25 -23v-56q0 -25 -25 -25h-91v-67h91q25 0 25 -23v-43q0 -25 -25 -25
h-91v-72q0 -29 19 -41.5t61 -12.5h23q25 0 25 -25v-58z" />
    <glyph glyph-name="Utilde" unicode="&#x168;" horiz-adv-x="620" 
d="M370 833q20 0 20 24v6q0 22 27 22h43q23 0 21 -29l-3 -39q-3 -38 -26.5 -58t-56.5 -20t-64 13l-43 19q-32 15 -38 15q-19 0 -19 -25v-5q0 -22 -27 -22h-43q-24 0 -21 29l4 41q4 37 28.5 57.5t59.5 20.5q30 0 58 -13l43 -21q30 -15 37 -15zM202 654v-475q0 -37 28 -56
t79 -19q109 0 109 75v475q0 26 24 26h87q24 0 24 -26v-499q0 -70 -59 -116.5t-185 -46.5t-184 46.5t-58 116.5v499q0 26 24 26h87q24 0 24 -26z" />
    <glyph glyph-name="utilde" unicode="&#x169;" horiz-adv-x="539" 
d="M356 560q-35 0 -64 13l-43 19q-34 15 -38 15q-20 0 -20 -24v-6q0 -22 -26 -22h-44q-23 0 -20 29l4 42q4 37 28 57t59 20q33 0 59 -13l42 -20q30 -15 38 -15q19 0 19 24v5q0 22 27 22h43q23 0 21 -29l-3 -39q-3 -38 -26 -58t-56 -20zM356 25l-2 22q-65 -55 -154 -55
q-68 0 -106.5 37t-38.5 97v347q0 25 24 25h82q25 0 25 -25v-314q0 -28 12 -40.5t42 -12.5q58 0 110 44v323q0 25 24 25h83q25 0 25 -25v-448q0 -25 -25 -25h-77q-13 0 -17.5 5.5t-6.5 19.5z" />
    <glyph glyph-name="Umacron" unicode="&#x16a;" horiz-adv-x="620" 
d="M195 849h231q25 0 25 -23v-51q0 -25 -25 -25h-231q-25 0 -25 25v51q0 23 25 23zM202 654v-475q0 -37 28 -56t79 -19q109 0 109 75v475q0 26 24 26h87q24 0 24 -26v-499q0 -70 -59 -116.5t-185 -46.5t-184 46.5t-58 116.5v499q0 26 24 26h87q24 0 24 -26z" />
    <glyph glyph-name="umacron" unicode="&#x16b;" horiz-adv-x="539" 
d="M156 671h230q25 0 25 -24v-51q0 -24 -25 -24h-230q-26 0 -26 24v51q0 24 26 24zM356 25l-2 22q-65 -55 -154 -55q-68 0 -106.5 37t-38.5 97v347q0 25 24 25h82q25 0 25 -25v-314q0 -28 12 -40.5t42 -12.5q58 0 110 44v323q0 25 24 25h83q25 0 25 -25v-448q0 -25 -25 -25
h-77q-13 0 -17.5 5.5t-6.5 19.5z" />
    <glyph glyph-name="Ubreve" unicode="&#x16c;" horiz-adv-x="620" 
d="M264 863v-17q0 -43 46 -43q45 0 45 43v17q0 12 4.5 16.5t17.5 4.5h49q22 0 22 -21v-14q0 -59 -36.5 -91.5t-105.5 -32.5q-136 0 -136 124v14q0 21 22 21h50q22 0 22 -21zM202 654v-475q0 -37 28 -56t79 -19q109 0 109 75v475q0 26 24 26h87q24 0 24 -26v-499
q0 -70 -59 -116.5t-185 -46.5t-184 46.5t-58 116.5v499q0 26 24 26h87q24 0 24 -26z" />
    <glyph glyph-name="ubreve" unicode="&#x16d;" horiz-adv-x="539" 
d="M223 678v-17q0 -43 46 -43q45 0 45 43v17q0 12 4.5 16.5t17.5 4.5h49q22 0 22 -21v-13q0 -60 -36.5 -92.5t-105.5 -32.5q-136 0 -136 125v13q0 21 22 21h50q22 0 22 -21zM356 25l-2 22q-65 -55 -154 -55q-68 0 -106.5 37t-38.5 97v347q0 25 24 25h82q25 0 25 -25v-314
q0 -28 12 -40.5t42 -12.5q58 0 110 44v323q0 25 24 25h83q25 0 25 -25v-448q0 -25 -25 -25h-77q-13 0 -17.5 5.5t-6.5 19.5z" />
    <glyph glyph-name="Uring" unicode="&#x16e;" horiz-adv-x="620" 
d="M422 821v-29q0 -33 -28.5 -55.5t-83.5 -22.5t-83.5 22.5t-28.5 55.5v29q0 33 28.5 55.5t83.5 22.5t83.5 -22.5t28.5 -55.5zM350 801v12q0 30 -40 30t-40 -30v-12q0 -31 40 -31t40 31zM202 654v-475q0 -37 28 -56t79 -19q109 0 109 75v475q0 26 24 26h87q24 0 24 -26v-499
q0 -70 -59 -116.5t-185 -46.5t-184 46.5t-58 116.5v499q0 26 24 26h87q24 0 24 -26z" />
    <glyph glyph-name="uring" unicode="&#x16f;" horiz-adv-x="539" 
d="M382 654v-34q0 -33 -28 -54.5t-82 -21.5q-55 0 -83 21.5t-28 54.5v34q0 33 28 54.5t83 21.5q54 0 82 -21.5t28 -54.5zM312 629v15q0 30 -40 30q-41 0 -41 -30v-15q0 -30 41 -30q40 0 40 30zM356 25l-2 22q-65 -55 -154 -55q-68 0 -106.5 37t-38.5 97v347q0 25 24 25h82
q25 0 25 -25v-314q0 -28 12 -40.5t42 -12.5q58 0 110 44v323q0 25 24 25h83q25 0 25 -25v-448q0 -25 -25 -25h-77q-13 0 -17.5 5.5t-6.5 19.5z" />
    <glyph glyph-name="Uhungarumlaut" unicode="&#x170;" horiz-adv-x="620" 
d="M513 853l-69 -99q-17 -23 -37 -23h-61q-27 0 -13 24l56 98q14 25 38 25h74q13 0 16.5 -7t-4.5 -18zM352 853l-54 -98q-13 -24 -33 -24h-61q-27 0 -17 24l42 98q11 25 34 25h72q13 0 18 -7t-1 -18zM202 654v-475q0 -37 28 -56t79 -19q109 0 109 75v475q0 26 24 26h87
q24 0 24 -26v-499q0 -70 -59 -116.5t-185 -46.5t-184 46.5t-58 116.5v499q0 26 24 26h87q24 0 24 -26z" />
    <glyph glyph-name="uhungarumlaut" unicode="&#x171;" horiz-adv-x="539" 
d="M472 683l-70 -99q-15 -23 -37 -23h-61q-27 0 -13 24l57 98q14 25 38 25h73q13 0 17 -7t-4 -18zM311 683l-55 -98q-13 -24 -33 -24h-61q-27 0 -17 24l42 98q11 25 34 25h73q13 0 18 -7t-1 -18zM356 25l-2 22q-65 -55 -154 -55q-68 0 -106.5 37t-38.5 97v347q0 25 24 25h82
q25 0 25 -25v-314q0 -28 12 -40.5t42 -12.5q58 0 110 44v323q0 25 24 25h83q25 0 25 -25v-448q0 -25 -25 -25h-77q-13 0 -17.5 5.5t-6.5 19.5z" />
    <glyph glyph-name="Uogonek" unicode="&#x172;" horiz-adv-x="620" 
d="M202 654v-475q0 -37 28 -56t79 -19q109 0 109 75v475q0 26 24 26h87q24 0 24 -26v-499q0 -60 -39 -99q-4 -4 -15 -14t-15 -14.5t-12.5 -13.5t-12 -15.5t-8 -16t-6.5 -19t-2 -20.5q0 -31 38 -31h26q25 0 25 -24v-34q0 -25 -33 -25h-58q-37 0 -66.5 20t-29.5 66q0 43 22 80
q-25 -3 -58 -3q-126 0 -184 46.5t-58 116.5v499q0 26 24 26h87q24 0 24 -26z" />
    <glyph glyph-name="uogonek" unicode="&#x173;" horiz-adv-x="539" 
d="M450 -171h-45q-36 0 -66.5 20.5t-30.5 66.5q0 60 47 106l-1 25q-65 -55 -154 -55q-68 0 -106.5 37t-38.5 97v347q0 25 24 25h82q25 0 25 -25v-314q0 -28 12 -40.5t42 -12.5q58 0 110 44v323q0 25 24 25h83q25 0 25 -25v-448q0 -25 -25 -25h-6q-22 -1 -33 -18t-11 -39
q0 -31 38 -31h13q25 0 25 -24v-34q0 -25 -33 -25z" />
    <glyph glyph-name="Wcircumflex" unicode="&#x174;" horiz-adv-x="849" 
d="M427 800l-25 -45q-13 -24 -35 -24h-63q-13 0 -16.5 6.5t3.5 17.5l73 98q18 25 39 25h48q21 0 39 -25l73 -98q8 -11 4 -17.5t-17 -6.5h-64q-21 0 -34 24zM501 655l84 -340q9 -35 17 -100q7 56 18 99l86 341q6 25 29 25h76q24 0 18 -25l-158 -630q-6 -25 -31 -25h-85
q-23 0 -29 25l-87 349q-9 38 -14 92q-7 -63 -14 -93l-88 -348q-6 -25 -31 -25h-85q-22 0 -28 25l-159 630q-6 25 19 25h88q24 0 30 -25l84 -341q8 -32 16 -84q4 27 18 84l86 341q6 25 29 25h82q23 0 29 -25z" />
    <glyph glyph-name="wcircumflex" unicode="&#x175;" horiz-adv-x="724" 
d="M369 630l-25 -45q-14 -24 -34 -24h-64q-13 0 -16.5 6.5t3.5 17.5l73 98q18 25 39 25h48q21 0 39 -25l73 -98q7 -11 3.5 -17.5t-16.5 -6.5h-64q-21 0 -34 24zM711 473l-128 -450q-4 -14 -8.5 -18.5t-16.5 -4.5h-99q-13 0 -18 5t-8 18l-56 237q-5 22 -9 54q-4 -22 -13 -54
l-69 -237q-3 -13 -8 -18t-17 -5h-97q-13 0 -18 5t-8 18l-122 450q-7 25 24 25h80q21 0 28 -25l69 -262q6 -26 8 -49q5 26 12 49l72 262q7 25 28 25h80q21 0 28 -25l61 -262q7 -34 9 -48q2 14 11 48l68 262q7 25 27 25h67q30 0 23 -25z" />
    <glyph glyph-name="Ycircumflex" unicode="&#x176;" horiz-adv-x="545" 
d="M273 800l-25 -45q-13 -24 -35 -24h-63q-13 0 -16.5 6.5t3.5 17.5l73 98q18 25 39 25h48q21 0 39 -25l73 -98q8 -11 4 -17.5t-17 -6.5h-64q-21 0 -34 24zM162 655l95 -228q7 -16 17 -53q10 35 18 53l106 228q4 9 6.5 13t8.5 8t14 4h86q13 0 18.5 -6.5t-0.5 -18.5
l-189 -395v-235q0 -25 -24 -25h-87q-25 0 -25 25v219l-190 411q-5 11 -0.5 18t17.5 7h99q20 0 30 -25z" />
    <glyph glyph-name="ycircumflex" unicode="&#x177;" horiz-adv-x="479" 
d="M239 630l-25 -45q-14 -24 -34 -24h-64q-13 0 -16.5 6.5t3.5 17.5l73 98q18 25 39 25h48q21 0 39 -25l73 -98q7 -11 3.5 -17.5t-16.5 -6.5h-64q-21 0 -34 24zM147 473l75 -229q11 -33 17 -85q17 69 21 81l79 233q4 13 9.5 19t18.5 6h75q14 0 21 -6.5t3 -18.5l-221 -649
q-8 -25 -28 -25h-60q-31 0 -24 25l49 163l-169 486q-4 12 3 18.5t20 6.5h83q20 0 28 -25z" />
    <glyph glyph-name="Ydieresis" unicode="&#x178;" horiz-adv-x="545" 
d="M251 850v-93q0 -14 -5 -19.5t-18 -5.5h-49q-24 0 -24 25v93q0 26 24 26h49q23 0 23 -26zM391 850v-93q0 -25 -23 -25h-49q-24 0 -24 25v93q0 26 24 26h49q23 0 23 -26zM162 655l95 -228q7 -16 17 -53q10 35 18 53l106 228q4 9 6.5 13t8.5 8t14 4h86q13 0 18.5 -6.5
t-0.5 -18.5l-189 -395v-235q0 -25 -24 -25h-87q-25 0 -25 25v219l-190 411q-5 11 -0.5 18t17.5 7h99q20 0 30 -25z" />
    <glyph glyph-name="Zacute" unicode="&#x179;" horiz-adv-x="498" 
d="M385 853l-73 -106q-11 -16 -32 -16h-64q-26 0 -14 24l49 98q12 25 34 25h87q13 0 17 -7t-4 -18zM71 680h356q26 0 26 -24v-61q0 -9 -6 -21l-256 -462h254q25 0 25 -24v-63q0 -25 -25 -25h-391q-25 0 -25 25v63q0 9 4 17l257 463h-219q-25 0 -25 25v63q0 24 25 24z" />
    <glyph glyph-name="zacute" unicode="&#x17a;" horiz-adv-x="447" 
d="M349 683l-72 -106q-11 -16 -32 -16h-65q-25 0 -13 24l48 98q12 25 35 25h87q13 0 16.5 -7t-4.5 -18zM71 498h304q25 0 25 -24v-58q0 -10 -5 -18l-205 -291h203q25 0 25 -24v-58q0 -25 -25 -25h-338q-25 0 -25 25v58q0 11 5 18l203 290h-167q-25 0 -25 24v59q0 24 25 24z
" />
    <glyph glyph-name="Zdotaccent" unicode="&#x17b;" horiz-adv-x="498" 
d="M316 839v-82q0 -13 -5 -18.5t-19 -5.5h-85q-13 0 -18.5 5.5t-5.5 18.5v82q0 25 24 25h85q24 0 24 -25zM71 680h356q26 0 26 -24v-61q0 -9 -6 -21l-256 -462h254q25 0 25 -24v-63q0 -25 -25 -25h-391q-25 0 -25 25v63q0 9 4 17l257 463h-219q-25 0 -25 25v63q0 24 25 24z
" />
    <glyph glyph-name="zdotaccent" unicode="&#x17c;" horiz-adv-x="447" 
d="M291 677v-81q0 -25 -23 -25h-86q-25 0 -25 25v81q0 25 25 25h86q23 0 23 -25zM71 498h304q25 0 25 -24v-58q0 -10 -5 -18l-205 -291h203q25 0 25 -24v-58q0 -25 -25 -25h-338q-25 0 -25 25v58q0 11 5 18l203 290h-167q-25 0 -25 24v59q0 24 25 24z" />
    <glyph glyph-name="Zcaron" unicode="&#x17d;" horiz-adv-x="498" 
d="M223 857l25 -44l25 44q15 25 34 25h64q13 0 16.5 -7t-3.5 -18l-73 -98q-17 -24 -39 -24h-48q-19 0 -39 25l-73 97q-7 11 -3.5 18t16.5 7h64q19 0 34 -25zM71 680h356q26 0 26 -24v-61q0 -9 -6 -21l-256 -462h254q25 0 25 -24v-63q0 -25 -25 -25h-391q-25 0 -25 25v63
q0 9 4 17l257 463h-219q-25 0 -25 25v63q0 24 25 24z" />
    <glyph glyph-name="zcaron" unicode="&#x17e;" horiz-adv-x="447" 
d="M201 683l25 -44l25 44q15 25 34 25h64q13 0 16.5 -7t-3.5 -18l-73 -98q-17 -24 -39 -24h-48q-19 0 -39 25l-73 97q-7 11 -3.5 18t16.5 7h64q19 0 34 -25zM71 498h304q25 0 25 -24v-58q0 -10 -5 -18l-205 -291h203q25 0 25 -24v-58q0 -25 -25 -25h-338q-25 0 -25 25v58
q0 11 5 18l203 290h-167q-25 0 -25 24v59q0 24 25 24z" />
    <glyph glyph-name="longs" unicode="&#x17f;" horiz-adv-x="306" 
d="M93 496h4v60q0 69 53.5 108t160.5 39h9q25 0 25 -25v-57q0 -25 -25 -25h-9q-83 0 -83 -55v-516q0 -25 -24 -25h-83q-24 0 -24 25v368h-54q-25 0 -25 25v49q0 12 5.5 17t19.5 7z" />
    <glyph glyph-name="florin" unicode="&#x192;" horiz-adv-x="435" 
d="M399 600h-20q-83 0 -89 -54l-13 -112h73q25 0 25 -24v-56q0 -24 -25 -24h-83l-42 -394q-7 -69 -65 -108t-165 -39h-9q-25 0 -25 24v58q0 25 25 25h20q82 0 88 55l41 379h-60q-25 0 -25 24v55q0 25 25 25h71l14 126q8 70 65.5 109t163.5 39h10q25 0 25 -25v-58
q0 -25 -25 -25z" />
    <glyph glyph-name="Aringacute" unicode="&#x1fa;" horiz-adv-x="555" 
d="M277 714q-55 0 -83.5 22.5t-28.5 55.5v29q0 56 66 73l23 45q12 25 35 25h87q13 0 16.5 -7t-4.5 -18l-41 -54q42 -20 42 -64v-29q0 -33 -28.5 -55.5t-83.5 -22.5zM317 801v12q0 30 -40 30t-40 -30v-12q0 -31 40 -31t40 31zM234 680h87q24 0 31 -25l187 -630q8 -25 -18 -25
h-90q-21 0 -29 25l-36 122h-186l-35 -122q-8 -25 -29 -25h-82q-26 0 -18 25l187 630q7 25 31 25zM337 254l-33 111q-18 60 -29 183q-14 -128 -31 -182l-34 -112h127z" />
    <glyph glyph-name="aringacute" unicode="&#x1fb;" horiz-adv-x="512" 
d="M256 544q-55 0 -83 21.5t-28 54.5v34q0 56 67 71l35 72q12 25 35 25h87q13 0 16.5 -7t-4.5 -18l-55 -81q40 -21 40 -62v-34q0 -33 -28 -54.5t-82 -21.5zM296 629v15q0 30 -40 30q-41 0 -41 -30v-15q0 -30 41 -30q40 0 40 30zM53 349v13q0 144 202 144q201 0 201 -144
v-336q0 -26 -24 -26h-74q-13 0 -17.5 6t-6.5 20l-2 21q-66 -55 -148 -55q-70 0 -107.5 36t-37.5 89v45q0 53 40 89.5t111 36.5h138v64q0 28 -17 42t-58 14q-42 0 -59.5 -12.5t-17.5 -39.5v-7q0 -25 -25 -25h-73q-25 0 -25 25zM218 96q52 0 110 43v57h-113q-48 0 -48 -45v-16
q0 -39 51 -39z" />
    <glyph glyph-name="AEacute" unicode="&#x1fc;" horiz-adv-x="820" 
d="M607 853l-73 -106q-11 -16 -32 -16h-64q-26 0 -14 24l49 98q12 25 34 25h87q13 0 17 -7t-4 -18zM413 680h332q25 0 25 -24v-61q0 -24 -25 -24h-231v-166h215q25 0 25 -24v-57q0 -25 -25 -25h-215v-190h242q25 0 25 -23v-61q0 -25 -25 -25h-344q-26 0 -26 25v122h-182
l-71 -122q-15 -25 -30 -25h-81q-14 0 -19.5 7t0.5 18l375 630q14 25 35 25zM352 400l-85 -146h119v211q-19 -39 -34 -65z" />
    <glyph glyph-name="aeacute" unicode="&#x1fd;" horiz-adv-x="781" 
d="M514 683l-72 -106q-11 -16 -32 -16h-65q-25 0 -13 24l48 98q12 25 35 25h87q13 0 16.5 -7t-4.5 -18zM734 359v-114q0 -23 -23 -23h-256v-79q0 -53 78 -53q79 0 79 54v7q0 24 24 24h70q24 0 24 -24v-12q0 -71 -46 -109t-151 -38q-132 0 -179 61q-78 -61 -170 -61
q-71 0 -108 36t-37 89v45q0 54 40 90t111 36h137v69q0 54 -74 54q-42 0 -60 -12.5t-18 -39.5v-10q0 -25 -24 -25h-73q-25 0 -25 25v14q0 143 202 143q94 0 135 -43q50 43 143 43q201 0 201 -147zM455 353v-44h157v44q0 56 -79 56q-78 0 -78 -56zM218 94q47 0 109 46v60h-113
q-47 0 -47 -44v-22q0 -40 51 -40z" />
    <glyph glyph-name="Oslashacute" unicode="&#x1fe;" horiz-adv-x="605" 
d="M430 853l-73 -106q-12 -17 -32 -17h-65q-26 0 -13 25l49 98q12 25 34 25h87q13 0 17 -7t-4 -18zM170 -8q-9 -17 -16 -23.5t-22 -6.5h-34q-11 0 -13.5 9t3.5 21l25 49q-54 43 -54 113v370q0 70 58.5 116.5t184.5 46.5q78 0 127 -18l9 18q15 30 36 30h36q25 0 10 -30
l-26 -52q51 -43 51 -111v-370q0 -70 -58.5 -116.5t-184.5 -46.5q-73 0 -124 17zM195 500v-296l179 356q-27 15 -72 15q-107 0 -107 -75zM302 103q108 0 108 75v291l-177 -353q25 -13 69 -13z" />
    <glyph glyph-name="oslashacute" unicode="&#x1ff;" horiz-adv-x="530" 
d="M392 683l-72 -106q-11 -16 -32 -16h-65q-25 0 -13 24l48 98q12 25 35 25h87q13 0 16.5 -7t-4.5 -18zM131 -38h-32q-12 0 -12.5 10.5t5.5 19.5l18 35q-61 37 -61 113v219q0 69 54.5 108t161.5 39q50 0 95 -10l6 12q16 30 36 30h35q25 0 8 -30l-21 -39q57 -39 57 -110v-219
q0 -70 -54.5 -109t-161.5 -39q-51 0 -89 9l-5 -9q-9 -17 -17 -23.5t-23 -6.5zM180 348v-190l127 239q-14 5 -42 5q-85 0 -85 -54zM265 96q85 0 85 55v178l-122 -230q16 -3 37 -3z" />
    <glyph glyph-name="uni0218" unicode="&#x218;" horiz-adv-x="567" 
d="M382 484v23q0 72 -97 72q-98 0 -98 -72v-15q0 -39 41 -54l174 -62q118 -42 118 -144v-77q0 -71 -57 -117t-181 -46t-181.5 46.5t-57.5 116.5v63q0 26 25 26h84q23 0 23 -26v-45q0 -72 106 -72q107 0 107 72v32q0 20 -15 35.5t-29 22t-41 16.5l-155 59q-38 14 -65 50
t-27 79v58q0 72 53 117.5t176 45.5q121 0 175 -46t54 -117v-41q0 -25 -24 -25h-84q-24 0 -24 25zM229 -105v30q0 25 25 25h61q24 0 24 -25v-38q0 -64 -45 -133q-11 -18 -33 -13l-46 11q-25 6 -13 33q2 5 7 16t6.5 14.5t5 12t4 13.5t2 14t2 18.5t0.5 21.5z" />
    <glyph glyph-name="uni0219" unicode="&#x219;" horiz-adv-x="476" 
d="M311 354v19q0 41 -73 41q-72 0 -72 -41v-13q0 -25 31 -36l144 -47q96 -31 96 -103v-53q0 -54 -50.5 -91.5t-151.5 -37.5t-150.5 37.5t-49.5 91.5v23q0 23 23 23h74q23 0 23 -23v-17q0 -42 80 -42q81 0 81 42v18q0 13 -10 21t-35 17l-145 49q-30 11 -54.5 41t-24.5 65v35
q0 55 46 94t146 39q99 0 145 -39t46 -94v-19q0 -13 -5 -18t-18 -5h-74q-22 0 -22 23zM189 -106v30q0 25 25 25h61q24 0 24 -25v-38q0 -64 -45 -133q-11 -18 -33 -13l-46 11q-25 6 -13 33q2 5 7 16t6.5 14.5t5 12t4 13.5t2 14t2 18.5t0.5 21.5z" />
    <glyph glyph-name="uni021A" unicode="&#x21a;" horiz-adv-x="496" 
d="M38 680h420q25 0 25 -24v-63q0 -25 -25 -25h-142v-542q0 -26 -24 -26h-88q-24 0 -24 26v542h-142q-25 0 -25 25v63q0 24 25 24zM193 -105v30q0 25 25 25h61q24 0 24 -25v-38q0 -64 -45 -133q-11 -18 -33 -13l-46 11q-25 6 -13 33q2 5 7 16t6.5 14.5t5 12t4 13.5t2 14
t2 18.5t0.5 21.5z" />
    <glyph glyph-name="uni021B" unicode="&#x21b;" horiz-adv-x="367" 
d="M221 496h91q25 0 25 -23v-56q0 -25 -25 -25h-91v-230q0 -29 19 -41.5t61 -12.5h23q25 0 25 -25v-58q0 -25 -25 -25h-43q-106 0 -148.5 35.5t-42.5 112.5v244h-49q-25 0 -25 25v50q0 12 5.5 17t19.5 7l46 5h3v96q0 25 24 25h84q23 0 23 -25v-96zM110 -106v30q0 25 25 25
h61q24 0 24 -25v-38q0 -64 -45 -133q-11 -18 -33 -13l-46 11q-25 6 -13 33q2 5 7 16t6.5 14.5t5 12t4 13.5t2 14t2 18.5t0.5 21.5z" />
    <glyph glyph-name="dotlessj" unicode="&#x237;" horiz-adv-x="247" 
d="M189 473v-527q0 -69 -53.5 -108t-160.5 -39h-9q-25 0 -25 24v58q0 25 25 25h9q83 0 83 54v513q0 25 23 25h84q24 0 24 -25z" />
    <glyph glyph-name="circumflex" unicode="&#x2c6;" horiz-adv-x="354" 
d="M177 630l-25 -45q-14 -24 -34 -24h-64q-13 0 -16.5 6.5t3.5 17.5l73 98q18 25 39 25h48q21 0 39 -25l73 -98q7 -11 3.5 -17.5t-16.5 -6.5h-64q-21 0 -34 24z" />
    <glyph glyph-name="caron" unicode="&#x2c7;" horiz-adv-x="354" 
d="M152 683l25 -44l25 44q15 25 34 25h64q13 0 16.5 -7t-3.5 -18l-73 -98q-17 -24 -39 -24h-48q-19 0 -39 25l-73 97q-7 11 -3.5 18t16.5 7h64q19 0 34 -25z" />
    <glyph glyph-name="breve" unicode="&#x2d8;" horiz-adv-x="401" 
d="M155 678v-17q0 -43 46 -43q45 0 45 43v17q0 12 4.5 16.5t17.5 4.5h49q22 0 22 -21v-13q0 -60 -36.5 -92.5t-105.5 -32.5q-136 0 -136 125v13q0 21 22 21h50q22 0 22 -21z" />
    <glyph glyph-name="dotaccent" unicode="&#x2d9;" horiz-adv-x="249" 
d="M191 677v-81q0 -25 -23 -25h-86q-25 0 -25 25v81q0 25 25 25h86q23 0 23 -25z" />
    <glyph glyph-name="ring" unicode="&#x2da;" horiz-adv-x="357" 
d="M289 654v-34q0 -33 -28 -54.5t-82 -21.5q-55 0 -83 21.5t-28 54.5v34q0 33 28 54.5t83 21.5q54 0 82 -21.5t28 -54.5zM219 629v15q0 30 -40 30q-41 0 -41 -30v-15q0 -30 41 -30q40 0 40 30z" />
    <glyph glyph-name="ogonek" unicode="&#x2db;" horiz-adv-x="232" 
d="M181 -171h-58q-46 0 -75.5 23.5t-29.5 64.5q0 55 52 114q20 22 40 18l38 -6q15 -2 18.5 -10.5t-6.5 -16.5q-45 -34 -45 -73q0 -31 47 -31h19q25 0 25 -24v-34q0 -25 -25 -25z" />
    <glyph glyph-name="tilde" unicode="&#x2dc;" horiz-adv-x="408" 
d="M288 560q-35 0 -64 13l-43 19q-34 15 -38 15q-20 0 -20 -24v-6q0 -22 -26 -22h-44q-23 0 -20 29l4 42q4 37 28 57t59 20q33 0 59 -13l42 -20q30 -15 38 -15q19 0 19 24v5q0 22 27 22h43q23 0 21 -29l-3 -39q-3 -38 -26 -58t-56 -20z" />
    <glyph glyph-name="hungarumlaut" unicode="&#x2dd;" horiz-adv-x="404" 
d="M365 683l-70 -99q-15 -23 -37 -23h-61q-27 0 -13 24l57 98q14 25 38 25h73q13 0 17 -7t-4 -18zM204 683l-55 -98q-13 -24 -33 -24h-61q-27 0 -17 24l42 98q11 25 34 25h73q13 0 18 -7t-1 -18z" />
    <glyph glyph-name="Delta" unicode="&#x394;" horiz-adv-x="400" 
d="M110 437h181q24 0 24 -25v-181q0 -25 -24 -25h-181q-26 0 -26 25v181q0 25 26 25z" />
    <glyph glyph-name="mu" unicode="&#x3bc;" horiz-adv-x="546" 
d="M360 25l-2 22q-62 -55 -150 -55q-14 0 -23 3l6 -171q1 -25 -23 -25h-84q-24 0 -24 25v649q0 25 24 25h82q25 0 25 -25v-314q0 -28 12 -40.5t42 -12.5q55 0 110 44v323q0 25 24 25h83q24 0 24 -25v-448q0 -25 -24 -25h-77q-13 0 -18 5.5t-7 19.5z" />
    <glyph glyph-name="pi" unicode="&#x3c0;" horiz-adv-x="351" 
d="M38 452h274q12 0 14.5 -12t-5.5 -24l-128 -206q-7 -10 -17.5 -10t-17.5 10l-128 206q-8 12 -6.5 24t14.5 12z" />
    <glyph glyph-name="Wgrave" unicode="&#x1e80;" horiz-adv-x="849" 
d="M362 747l-72 105q-8 11 -4 18.5t17 7.5h87q22 0 34 -25l48 -98q12 -25 -12 -25h-65q-20 0 -33 17zM501 655l84 -340q9 -35 17 -100q7 56 18 99l86 341q6 25 29 25h76q24 0 18 -25l-158 -630q-6 -25 -31 -25h-85q-23 0 -29 25l-87 349q-9 38 -14 92q-7 -63 -14 -93
l-88 -348q-6 -25 -31 -25h-85q-22 0 -28 25l-159 630q-6 25 19 25h88q24 0 30 -25l84 -341q8 -32 16 -84q4 27 18 84l86 341q6 25 29 25h82q23 0 29 -25z" />
    <glyph glyph-name="wgrave" unicode="&#x1e81;" horiz-adv-x="724" 
d="M310 577l-72 106q-8 11 -4.5 18t16.5 7h87q23 0 35 -25l48 -98q12 -24 -13 -24h-65q-21 0 -32 16zM711 473l-128 -450q-4 -14 -8.5 -18.5t-16.5 -4.5h-99q-13 0 -18 5t-8 18l-56 237q-5 22 -9 54q-4 -22 -13 -54l-69 -237q-3 -13 -8 -18t-17 -5h-97q-13 0 -18 5t-8 18
l-122 450q-7 25 24 25h80q21 0 28 -25l69 -262q6 -26 8 -49q5 26 12 49l72 262q7 25 28 25h80q21 0 28 -25l61 -262q7 -34 9 -48q2 14 11 48l68 262q7 25 27 25h67q30 0 23 -25z" />
    <glyph glyph-name="Wacute" unicode="&#x1e82;" horiz-adv-x="849" 
d="M565 853l-73 -106q-11 -16 -32 -16h-64q-26 0 -14 24l49 98q12 25 34 25h87q13 0 17 -7t-4 -18zM501 655l84 -340q9 -35 17 -100q7 56 18 99l86 341q6 25 29 25h76q24 0 18 -25l-158 -630q-6 -25 -31 -25h-85q-23 0 -29 25l-87 349q-9 38 -14 92q-7 -63 -14 -93l-88 -348
q-6 -25 -31 -25h-85q-22 0 -28 25l-159 630q-6 25 19 25h88q24 0 30 -25l84 -341q8 -32 16 -84q4 27 18 84l86 341q6 25 29 25h82q23 0 29 -25z" />
    <glyph glyph-name="wacute" unicode="&#x1e83;" horiz-adv-x="724" 
d="M511 683l-72 -106q-11 -16 -32 -16h-65q-25 0 -13 24l48 98q12 25 35 25h87q13 0 16.5 -7t-4.5 -18zM711 473l-128 -450q-4 -14 -8.5 -18.5t-16.5 -4.5h-99q-13 0 -18 5t-8 18l-56 237q-5 22 -9 54q-4 -22 -13 -54l-69 -237q-3 -13 -8 -18t-17 -5h-97q-13 0 -18 5t-8 18
l-122 450q-7 25 24 25h80q21 0 28 -25l69 -262q6 -26 8 -49q5 26 12 49l72 262q7 25 28 25h80q21 0 28 -25l61 -262q7 -34 9 -48q2 14 11 48l68 262q7 25 27 25h67q30 0 23 -25z" />
    <glyph glyph-name="Wdieresis" unicode="&#x1e84;" horiz-adv-x="849" 
d="M402 850v-93q0 -14 -5 -19.5t-18 -5.5h-49q-24 0 -24 25v93q0 26 24 26h49q23 0 23 -26zM542 850v-93q0 -25 -23 -25h-49q-24 0 -24 25v93q0 26 24 26h49q23 0 23 -26zM501 655l84 -340q9 -35 17 -100q7 56 18 99l86 341q6 25 29 25h76q24 0 18 -25l-158 -630
q-6 -25 -31 -25h-85q-23 0 -29 25l-87 349q-9 38 -14 92q-7 -63 -14 -93l-88 -348q-6 -25 -31 -25h-85q-22 0 -28 25l-159 630q-6 25 19 25h88q24 0 30 -25l84 -341q8 -32 16 -84q4 27 18 84l86 341q6 25 29 25h82q23 0 29 -25z" />
    <glyph glyph-name="wdieresis" unicode="&#x1e85;" horiz-adv-x="724" 
d="M349 681v-93q0 -25 -23 -25h-49q-25 0 -25 25v93q0 25 25 25h49q23 0 23 -25zM489 681v-93q0 -25 -23 -25h-49q-25 0 -25 25v93q0 25 25 25h49q23 0 23 -25zM711 473l-128 -450q-4 -14 -8.5 -18.5t-16.5 -4.5h-99q-13 0 -18 5t-8 18l-56 237q-5 22 -9 54q-4 -22 -13 -54
l-69 -237q-3 -13 -8 -18t-17 -5h-97q-13 0 -18 5t-8 18l-122 450q-7 25 24 25h80q21 0 28 -25l69 -262q6 -26 8 -49q5 26 12 49l72 262q7 25 28 25h80q21 0 28 -25l61 -262q7 -34 9 -48q2 14 11 48l68 262q7 25 27 25h67q30 0 23 -25z" />
    <glyph glyph-name="Ygrave" unicode="&#x1ef2;" horiz-adv-x="545" 
d="M215 747l-72 105q-8 11 -4 18.5t17 7.5h87q22 0 34 -25l48 -98q13 -25 -12 -25h-65q-20 0 -33 17zM162 655l95 -228q7 -16 17 -53q10 35 18 53l106 228q4 9 6.5 13t8.5 8t14 4h86q13 0 18.5 -6.5t-0.5 -18.5l-189 -395v-235q0 -25 -24 -25h-87q-25 0 -25 25v219l-190 411
q-5 11 -0.5 18t17.5 7h99q20 0 30 -25z" />
    <glyph glyph-name="ygrave" unicode="&#x1ef3;" horiz-adv-x="479" 
d="M182 577l-72 106q-8 11 -4.5 18t16.5 7h87q23 0 35 -25l48 -98q12 -24 -13 -24h-65q-21 0 -32 16zM147 473l75 -229q11 -33 17 -85q17 69 21 81l79 233q4 13 9.5 19t18.5 6h75q14 0 21 -6.5t3 -18.5l-221 -649q-8 -25 -28 -25h-60q-31 0 -24 25l49 163l-169 486
q-4 12 3 18.5t20 6.5h83q20 0 28 -25z" />
    <glyph glyph-name="endash" unicode="&#x2013;" horiz-adv-x="531" 
d="M83 342h365q25 0 25 -24v-59q0 -24 -25 -24h-365q-25 0 -25 24v59q0 24 25 24z" />
    <glyph glyph-name="emdash" unicode="&#x2014;" horiz-adv-x="841" 
d="M83 342h675q25 0 25 -24v-59q0 -24 -25 -24h-675q-25 0 -25 24v59q0 24 25 24z" />
    <glyph glyph-name="quoteleft" unicode="&#x2018;" horiz-adv-x="265" 
d="M176 597v-67q0 -25 -24 -25h-86q-23 0 -23 25v74q0 114 144 148q24 6 32 -16l19 -56q8 -23 -16 -31q-26 -10 -36 -21.5t-10 -30.5z" />
    <glyph glyph-name="quoteright" unicode="&#x2019;" horiz-adv-x="261" 
d="M93 660v67q0 25 24 25h86q23 0 23 -25v-74q0 -113 -144 -148q-24 -6 -32 16l-19 56q-8 23 16 31q26 10 36 21.5t10 30.5z" />
    <glyph glyph-name="quotesinglbase" unicode="&#x201a;" horiz-adv-x="228" 
d="M57 39v67q0 25 24 25h86q23 0 23 -25v-74q0 -114 -144 -148q-24 -6 -32 16l-19 56q-8 23 16 31q26 10 36 21.5t10 30.5z" />
    <glyph glyph-name="quotedblleft" unicode="&#x201c;" horiz-adv-x="483" 
d="M176 597v-67q0 -25 -24 -25h-86q-23 0 -23 25v74q0 114 144 148q24 6 32 -16l19 -56q8 -23 -16 -31q-26 -10 -36 -21.5t-10 -30.5zM394 597v-67q0 -25 -24 -25h-86q-23 0 -23 25v74q0 114 144 148q24 6 32 -16l19 -56q8 -23 -16 -31q-26 -10 -36 -21.5t-10 -30.5z" />
    <glyph glyph-name="quotedblright" unicode="&#x201d;" horiz-adv-x="479" 
d="M93 660v67q0 25 24 25h86q23 0 23 -25v-74q0 -113 -144 -148q-24 -6 -32 16l-19 56q-8 23 16 31q26 10 36 21.5t10 30.5zM311 660v67q0 25 24 25h86q23 0 23 -25v-74q0 -113 -144 -148q-24 -6 -32 16l-19 56q-8 23 16 31q26 10 36 21.5t10 30.5z" />
    <glyph glyph-name="quotedblbase" unicode="&#x201e;" horiz-adv-x="446" 
d="M57 39v67q0 25 24 25h86q23 0 23 -25v-74q0 -114 -144 -148q-24 -6 -32 16l-19 56q-8 23 16 31q26 10 36 21.5t10 30.5zM275 39v67q0 25 24 25h86q23 0 23 -25v-74q0 -114 -144 -148q-24 -6 -32 16l-19 56q-8 23 16 31q26 10 36 21.5t10 30.5z" />
    <glyph glyph-name="dagger" unicode="&#x2020;" horiz-adv-x="590" 
d="M361 673v-647q0 -26 -24 -26h-83q-25 0 -25 26v647q0 26 25 26h83q24 0 24 -26zM50 514h127q25 0 25 -23v-60q0 -25 -25 -25h-127q-25 0 -25 25v60q0 23 25 23zM413 514h126q25 0 25 -23v-60q0 -25 -25 -25h-126q-26 0 -26 25v60q0 23 26 23z" />
    <glyph glyph-name="daggerdbl" unicode="&#x2021;" horiz-adv-x="590" 
d="M361 673v-647q0 -26 -24 -26h-83q-25 0 -25 26v647q0 26 25 26h83q24 0 24 -26zM50 514h127q25 0 25 -23v-60q0 -25 -25 -25h-127q-25 0 -25 25v60q0 23 25 23zM413 514h126q25 0 25 -23v-60q0 -25 -25 -25h-126q-26 0 -26 25v60q0 23 26 23zM50 290h127q25 0 25 -24v-59
q0 -25 -25 -25h-127q-25 0 -25 25v59q0 24 25 24zM413 290h126q25 0 25 -24v-59q0 -25 -25 -25h-126q-26 0 -26 25v59q0 24 26 24z" />
    <glyph glyph-name="bullet" unicode="&#x2022;" horiz-adv-x="293" 
d="M213 344v-145q0 -25 -23 -25h-86q-24 0 -24 25v145q0 26 24 26h86q23 0 23 -26z" />
    <glyph glyph-name="ellipsis" unicode="&#x2026;" horiz-adv-x="733" 
d="M186 106v-81q0 -25 -24 -25h-85q-25 0 -25 25v81q0 25 25 25h85q24 0 24 -25zM681 106v-81q0 -25 -24 -25h-85q-25 0 -25 25v81q0 25 25 25h85q24 0 24 -25zM434 106v-81q0 -25 -24 -25h-85q-25 0 -25 25v81q0 25 25 25h85q24 0 24 -25z" />
    <glyph glyph-name="perthousand" unicode="&#x2030;" horiz-adv-x="1144" 
d="M618 662l-328 -644q-13 -26 -35 -26h-65q-10 0 -13.5 9t1.5 17l329 644q13 26 36 26h64q10 0 13 -8t-2 -18zM35 422v163q0 41 35 70t109 29q73 0 108 -29t35 -70v-163q0 -41 -35 -70t-108 -29q-74 0 -109 29t-35 70zM222 438v132q0 35 -43 35q-45 0 -45 -35v-132
q0 -36 45 -36q43 0 43 36zM481 95v163q0 41 35 70t109 29q73 0 108 -29t35 -70v-163q0 -41 -35 -70t-108 -29q-74 0 -109 29t-35 70zM824 95v163q0 41 35 70t108 29t108 -29t35 -70v-163q0 -41 -35 -70t-108 -29t-108 29t-35 70zM668 110v132q0 36 -43 36q-44 0 -44 -36
v-132q0 -35 44 -35q43 0 43 35zM1011 110v132q0 36 -44 36t-44 -36v-132q0 -35 44 -35t44 35z" />
    <glyph glyph-name="guilsinglleft" unicode="&#x2039;" horiz-adv-x="326" 
d="M248 319l-106 -74l106 -73q25 -17 25 -35v-83q0 -13 -8 -17.5t-17 1.5l-187 133q-23 17 -23 36v77q0 18 23 35l187 134q10 7 17.5 2t7.5 -18v-83q0 -18 -25 -35z" />
    <glyph glyph-name="guilsinglright" unicode="&#x203a;" horiz-adv-x="326" 
d="M184 245l-106 74q-25 17 -25 35v83q0 13 7.5 18t17.5 -2l187 -134q23 -17 23 -35v-77q0 -19 -23 -36l-187 -133q-9 -6 -17 -1.5t-8 17.5v83q0 18 25 35z" />
    <glyph glyph-name="fraction" unicode="&#x2044;" horiz-adv-x="139" 
d="M289 662l-328 -644q-13 -26 -35 -26h-65q-10 0 -13.5 9t1.5 17l329 644q13 26 36 26h64q10 0 13 -8t-2 -18z" />
    <glyph glyph-name="zero.superior" unicode="&#x2070;" 
d="M27 551v184q0 42 34.5 70.5t108.5 28.5q73 0 108 -29t35 -70v-184q0 -41 -35 -70t-108 -29q-74 0 -108.5 28.5t-34.5 70.5zM213 566v154q0 35 -43 35q-45 0 -45 -35v-154q0 -35 45 -35q43 0 43 35z" />
    <glyph glyph-name="four.superior" unicode="&#x2074;" 
d="M172 814l-53 -189h87v189q0 16 16 16h66q16 0 16 -16v-342q0 -16 -16 -16h-66q-16 0 -16 16v77h-172q-17 0 -17 17v31q0 13 3 24l55 193q5 16 20 16h64q17 0 13 -16z" />
    <glyph glyph-name="five.superior" unicode="&#x2075;" 
d="M60 830h223q9 0 12.5 -3t3.5 -12v-44q0 -16 -18 -16h-139v-52h39q130 0 130 -95v-61q0 -40 -35.5 -68t-106.5 -28t-107 28t-36 68v17q0 15 16 15h65q15 0 15 -15v-6q0 -35 47 -35q44 0 44 35v37q0 35 -45 35h-108q-17 0 -17 17v167q0 16 17 16z" />
    <glyph glyph-name="six.superior" unicode="&#x2076;" 
d="M33 548v190q0 41 33.5 68.5t104.5 27.5q72 0 104 -27.5t32 -68.5v-9q0 -18 -16 -18h-65q-15 0 -15 18v3q0 28 -39 28q-41 0 -41 -34v-51q26 12 53 12q64 0 95.5 -24.5t31.5 -62.5v-52q0 -41 -33 -68.5t-106 -27.5t-106 27.5t-33 68.5zM213 559v21q0 34 -41 34t-41 -32
v-23q0 -33 41 -33t41 33z" />
    <glyph glyph-name="seven.superior" unicode="&#x2077;" 
d="M45 830h253q17 0 17 -15v-41q0 -7 -5 -17l-128 -285q-8 -16 -21 -16h-76q-18 0 -11 16l127 279h-156q-18 0 -18 17v47q0 15 18 15z" />
    <glyph glyph-name="eight.superior" unicode="&#x2078;" 
d="M36 704v36q0 94 135 94q134 0 134 -94v-36q0 -37 -41 -56q48 -20 48 -57v-45q0 -41 -33.5 -67.5t-107.5 -26.5t-108 26.5t-34 67.5v45q0 38 47 57q-40 18 -40 56zM209 716v13q0 34 -38 34q-40 0 -40 -34v-13q0 -33 40 -33q38 0 38 33zM216 558v20q0 34 -45 34t-45 -34
v-20q0 -35 45 -35t45 35z" />
    <glyph glyph-name="nine.superior" unicode="&#x2079;" 
d="M307 738v-190q0 -41 -33 -68.5t-105 -27.5t-104 27.5t-32 68.5v9q0 18 15 18h65q16 0 16 -18v-3q0 -28 40 -28q39 0 39 34v51q-24 -12 -53 -12q-64 0 -95 24.5t-31 62.5v52q0 41 33 68.5t106 27.5t106 -27.5t33 -68.5zM126 727v-21q0 -34 42 -34q40 0 40 32v23
q0 33 -40 33q-42 0 -42 -33z" />
    <glyph glyph-name="parenleft.superior" unicode="&#x207d;" horiz-adv-x="223" 
d="M38 476v336q0 41 34.5 64t100.5 23h7q19 0 19 -15v-42q0 -18 -19 -18h-7q-34 0 -34 -22v-315q0 -23 34 -23h7q19 0 19 -17v-41q0 -17 -19 -17h-7q-66 0 -100.5 23t-34.5 64z" />
    <glyph glyph-name="parenright.superior" unicode="&#x207e;" horiz-adv-x="222" 
d="M84 802q0 22 -35 22h-7q-18 0 -18 18v42q0 15 18 15h7q66 0 100.5 -23t34.5 -64v-336q0 -41 -34.5 -64t-100.5 -23h-7q-18 0 -18 17v41q0 17 18 17h7q35 0 35 23v315z" />
    <glyph glyph-name="zero.inferior" unicode="&#x2080;" 
d="M27 -55v184q0 42 34.5 70.5t108.5 28.5q73 0 108 -29t35 -70v-184q0 -41 -35 -70t-108 -29q-74 0 -108.5 28.5t-34.5 70.5zM213 -40v154q0 35 -43 35q-45 0 -45 -35v-154q0 -35 45 -35q43 0 43 35z" />
    <glyph glyph-name="one.inferior" unicode="&#x2081;" 
d="M61 206l152 22q7 1 11 -2t4 -14v-283h65q18 0 18 -16v-47q0 -16 -18 -16h-231q-16 0 -16 16v47q0 16 16 16h67v207l-68 -9q-15 -2 -15 13v48q0 16 15 18z" />
    <glyph glyph-name="two.inferior" unicode="&#x2082;" 
d="M134 -71h162q10 0 13 -3.5t3 -12.5v-47q0 -16 -16 -16h-245q-17 0 -17 16v91q0 45 46 64l103 42q28 11 28 33v24q0 31 -44 31t-44 -31v-19q0 -15 -16 -15h-65q-15 0 -15 15v29q0 41 35.5 69.5t106.5 28.5q72 0 106.5 -28.5t34.5 -69.5v-39q0 -62 -61 -87l-99 -40
q-16 -6 -16 -19v-16z" />
    <glyph glyph-name="three.inferior" unicode="&#x2083;" 
d="M213 -49v19q0 37 -46 37h-39q-16 0 -16 14v39q0 14 16 14h35q44 0 44 38v11q0 32 -40 32q-43 0 -43 -32v-6q0 -16 -16 -16h-64q-16 0 -16 16v16q0 42 33.5 68.5t105.5 26.5t104.5 -25.5t32.5 -65.5v-39q0 -40 -42 -56q49 -18 49 -62v-43q0 -39 -35.5 -65t-106.5 -26
t-107 27t-36 68v17q0 17 14 17h66q16 0 16 -17v-7q0 -32 46 -32q45 0 45 32z" />
    <glyph glyph-name="four.inferior" unicode="&#x2084;" 
d="M172 208l-53 -189h87v189q0 16 16 16h66q16 0 16 -16v-342q0 -16 -16 -16h-66q-16 0 -16 16v77h-172q-17 0 -17 17v31q0 13 3 24l55 193q5 16 20 16h64q17 0 13 -16z" />
    <glyph glyph-name="five.inferior" unicode="&#x2085;" 
d="M60 224h223q9 0 12.5 -3t3.5 -12v-44q0 -16 -18 -16h-139v-52h39q130 0 130 -95v-61q0 -40 -35.5 -68t-106.5 -28t-107 28t-36 68v17q0 15 16 15h65q15 0 15 -15v-6q0 -35 47 -35q44 0 44 35v37q0 35 -45 35h-108q-17 0 -17 17v167q0 16 17 16z" />
    <glyph glyph-name="six.inferior" unicode="&#x2086;" 
d="M33 -58v190q0 41 33.5 68.5t104.5 27.5q72 0 104 -27.5t32 -68.5v-9q0 -18 -16 -18h-65q-15 0 -15 18v3q0 28 -39 28q-41 0 -41 -34v-51q26 12 53 12q64 0 95.5 -24.5t31.5 -62.5v-52q0 -41 -33 -68.5t-106 -27.5t-106 27.5t-33 68.5zM213 -47v21q0 34 -41 34t-41 -32
v-23q0 -33 41 -33t41 33z" />
    <glyph glyph-name="seven.inferior" unicode="&#x2087;" 
d="M45 224h253q17 0 17 -15v-41q0 -7 -5 -17l-128 -285q-8 -16 -21 -16h-76q-18 0 -11 16l127 279h-156q-18 0 -18 17v47q0 15 18 15z" />
    <glyph glyph-name="eight.inferior" unicode="&#x2088;" 
d="M36 98v36q0 94 135 94q134 0 134 -94v-36q0 -37 -41 -56q48 -20 48 -57v-45q0 -41 -33.5 -67.5t-107.5 -26.5t-108 26.5t-34 67.5v45q0 38 47 57q-40 18 -40 56zM209 110v13q0 34 -38 34q-40 0 -40 -34v-13q0 -33 40 -33q38 0 38 33zM216 -48v20q0 34 -45 34t-45 -34v-20
q0 -35 45 -35t45 35z" />
    <glyph glyph-name="nine.inferior" unicode="&#x2089;" 
d="M307 132v-190q0 -41 -33 -68.5t-105 -27.5t-104 27.5t-32 68.5v9q0 18 15 18h65q16 0 16 -18v-3q0 -28 40 -28q39 0 39 34v51q-24 -12 -53 -12q-64 0 -95 24.5t-31 62.5v52q0 41 33 68.5t106 27.5t106 -27.5t33 -68.5zM126 121v-21q0 -34 42 -34q40 0 40 32v23
q0 33 -40 33q-42 0 -42 -33z" />
    <glyph glyph-name="parenleft.inferior" unicode="&#x208d;" horiz-adv-x="223" 
d="M38 -130v336q0 41 34.5 64t100.5 23h7q19 0 19 -15v-42q0 -18 -19 -18h-7q-34 0 -34 -22v-315q0 -23 34 -23h7q19 0 19 -17v-41q0 -17 -19 -17h-7q-66 0 -100.5 23t-34.5 64z" />
    <glyph glyph-name="parenright.inferior" unicode="&#x208e;" horiz-adv-x="223" 
d="M85 196q0 22 -35 22h-7q-18 0 -18 18v42q0 15 18 15h7q66 0 100.5 -23t34.5 -64v-336q0 -41 -34.5 -64t-100.5 -23h-7q-18 0 -18 17v41q0 17 18 17h7q35 0 35 23v315z" />
    <glyph glyph-name="Euro" unicode="&#x20ac;" horiz-adv-x="619" 
d="M570 155q0 -71 -54.5 -117t-180.5 -46t-180.5 46t-54.5 117v73h-31q-25 0 -25 25v35q0 24 25 24h31v54h-31q-25 0 -25 24v35q0 24 25 24h31v76q0 71 54.5 117t180.5 46t180.5 -46t54.5 -117v-48q0 -25 -23 -25h-83q-25 0 -25 25v24q0 75 -102 75q-101 0 -101 -75v-52h98
q26 0 26 -24v-35q0 -24 -26 -24h-98v-54h98q26 0 26 -24v-35q0 -25 -26 -25h-98v-49q0 -75 101 -75q102 0 102 75v38q0 25 25 25h83q23 0 23 -25v-62z" />
    <glyph glyph-name="afii61289" unicode="&#x2113;" horiz-adv-x="531" 
d="M117 149v30q-26 -12 -35 -16q-22 -9 -31 12l-27 62q-10 23 13 33l80 36v217q0 69 50.5 116t151.5 47q96 0 144 -47t48 -116q0 -48 -22 -90.5t-63 -77.5t-82 -60.5t-96 -52.5v-65q0 -70 77 -70h113q25 0 25 -24v-58q0 -25 -24 -25h-115q-109 0 -158 41t-49 108zM248 506
v-135q139 80 139 143q0 65 -69 65q-70 0 -70 -73z" />
    <glyph glyph-name="trademark" unicode="&#x2122;" horiz-adv-x="874" 
d="M810 659v-366q0 -21 -20 -21h-66q-20 0 -20 21v185q-3 -12 -10 -29l-43 -95q-8 -20 -27 -20h-47q-18 0 -28 20l-46 97q-7 14 -10 33v-191q0 -21 -19 -21h-63q-21 0 -21 21v366q0 21 21 21h63q12 0 17 -9l94 -182q2 -3 15 -35q7 20 14 32l91 185q5 9 19 9h66q20 0 20 -21z
M50 680h274q21 0 21 -19v-52q0 -12 -4.5 -16t-16.5 -4h-81v-296q0 -21 -20 -21h-71q-20 0 -20 21v296h-82q-12 0 -16.5 4t-4.5 16v52q0 19 21 19z" />
    <glyph glyph-name="estimated" unicode="&#x212e;" horiz-adv-x="766" 
d="M738 340q0 -16 -18 -16h-536v-215q87 -82 208 -82q136 0 238 110q5 5 11 5q16 0 16 -18q0 -8 -7 -17q-46 -53 -114 -84t-144 -31q-146 0 -247 98t-101 250q0 144 102 246t246 102q143 0 244.5 -102t101.5 -246zM392 653q-120 0 -208 -83v-215h416v214q-89 84 -208 84z
" />
    <glyph glyph-name="uni2153" unicode="&#x2153;" horiz-adv-x="833" 
d="M639 662l-328 -644q-13 -26 -35 -26h-65q-10 0 -13.5 9t1.5 17l329 644q13 26 36 26h64q10 0 13 -8t-2 -18zM55 662l152 22q7 1 11 -2t4 -14v-283h65q18 0 18 -16v-47q0 -16 -18 -16h-231q-16 0 -16 16v47q0 16 16 16h67v207l-68 -9q-15 -2 -15 13v48q0 16 15 18z
M701 101v19q0 37 -46 37h-39q-16 0 -16 14v39q0 14 16 14h35q44 0 44 38v11q0 32 -40 32q-43 0 -43 -32v-6q0 -16 -16 -16h-64q-16 0 -16 16v16q0 42 33.5 68.5t105.5 26.5t104.5 -25.5t32.5 -65.5v-39q0 -40 -42 -56q49 -18 49 -62v-43q0 -39 -35.5 -65t-106.5 -26t-107 27
t-36 68v17q0 17 14 17h66q16 0 16 -17v-7q0 -32 46 -32q45 0 45 32z" />
    <glyph glyph-name="uni2154" unicode="&#x2154;" horiz-adv-x="840" 
d="M651 662l-328 -644q-13 -26 -35 -26h-65q-10 0 -13.5 9t1.5 17l329 644q13 26 36 26h64q10 0 13 -8t-2 -18zM143 385h162q10 0 13 -3.5t3 -12.5v-47q0 -16 -16 -16h-245q-17 0 -17 16v91q0 45 46 64l103 42q28 11 28 33v24q0 31 -44 31t-44 -31v-19q0 -15 -16 -15h-65
q-15 0 -15 15v29q0 41 35.5 69.5t106.5 28.5q72 0 106.5 -28.5t34.5 -69.5v-39q0 -62 -61 -87l-99 -40q-16 -6 -16 -19v-16zM708 101v19q0 37 -46 37h-39q-16 0 -16 14v39q0 14 16 14h35q44 0 44 38v11q0 32 -40 32q-43 0 -43 -32v-6q0 -16 -16 -16h-64q-16 0 -16 16v16
q0 42 33.5 68.5t105.5 26.5t104.5 -25.5t32.5 -65.5v-39q0 -40 -42 -56q49 -18 49 -62v-43q0 -39 -35.5 -65t-106.5 -26t-107 27t-36 68v17q0 17 14 17h66q16 0 16 -17v-7q0 -32 46 -32q45 0 45 32z" />
    <glyph glyph-name="uni2155" unicode="&#x2155;" horiz-adv-x="841" 
d="M639 662l-328 -644q-13 -26 -35 -26h-65q-10 0 -13.5 9t1.5 17l329 644q13 26 36 26h64q10 0 13 -8t-2 -18zM55 662l152 22q7 1 11 -2t4 -14v-283h65q18 0 18 -16v-47q0 -16 -18 -16h-231q-16 0 -16 16v47q0 16 16 16h67v207l-68 -9q-15 -2 -15 13v48q0 16 15 18z
M555 374h223q10 0 13 -3t3 -12v-44q0 -16 -18 -16h-139v-52h39q130 0 130 -95v-61q0 -40 -35.5 -68t-106.5 -28t-107 28t-36 68v17q0 15 16 15h65q15 0 15 -15v-6q0 -35 47 -35q44 0 44 35v37q0 35 -45 35h-108q-17 0 -17 17v167q0 16 17 16z" />
    <glyph glyph-name="uni2156" unicode="&#x2156;" horiz-adv-x="850" 
d="M649 662l-328 -644q-13 -26 -35 -26h-65q-10 0 -13.5 9t1.5 17l329 644q13 26 36 26h64q10 0 13 -8t-2 -18zM143 385h162q10 0 13 -3.5t3 -12.5v-47q0 -16 -16 -16h-245q-17 0 -17 16v91q0 45 46 64l103 42q28 11 28 33v24q0 31 -44 31t-44 -31v-19q0 -15 -16 -15h-65
q-15 0 -15 15v29q0 41 35.5 69.5t106.5 28.5q72 0 106.5 -28.5t34.5 -69.5v-39q0 -62 -61 -87l-99 -40q-16 -6 -16 -19v-16zM564 374h223q9 0 12.5 -3t3.5 -12v-44q0 -16 -18 -16h-139v-52h39q130 0 130 -95v-61q0 -40 -35.5 -68t-106.5 -28t-107 28t-36 68v17q0 15 16 15
h65q15 0 15 -15v-6q0 -35 47 -35q44 0 44 35v37q0 35 -45 35h-108q-17 0 -17 17v167q0 16 17 16z" />
    <glyph glyph-name="uni2157" unicode="&#x2157;" horiz-adv-x="839" 
d="M636 662l-328 -644q-13 -26 -35 -26h-65q-10 0 -13.5 9t1.5 17l329 644q13 26 36 26h64q10 0 13 -8t-2 -18zM221 407v19q0 37 -46 37h-39q-16 0 -16 14v39q0 14 16 14h35q44 0 44 38v11q0 32 -40 32q-43 0 -43 -32v-6q0 -16 -16 -16h-64q-16 0 -16 16v16q0 42 33.5 68.5
t105.5 26.5t104.5 -25.5t32.5 -65.5v-39q0 -40 -42 -56q49 -18 49 -62v-43q0 -39 -35.5 -65t-106.5 -26t-107 27t-36 68v17q0 17 14 17h66q16 0 16 -17v-7q0 -32 46 -32q45 0 45 32zM553 374h223q10 0 13 -3t3 -12v-44q0 -16 -18 -16h-139v-52h39q130 0 130 -95v-61
q0 -40 -35.5 -68t-106.5 -28t-107 28t-36 68v17q0 15 16 15h65q15 0 15 -15v-6q0 -35 47 -35q44 0 44 35v37q0 35 -45 35h-108q-17 0 -17 17v167q0 16 17 16z" />
    <glyph glyph-name="uni2158" unicode="&#x2158;" horiz-adv-x="855" 
d="M654 662l-328 -644q-13 -26 -35 -26h-65q-10 0 -13.5 9t1.5 17l329 644q13 26 36 26h64q10 0 13 -8t-2 -18zM182 664l-53 -189h87v189q0 16 16 16h66q16 0 16 -16v-342q0 -16 -16 -16h-66q-16 0 -16 16v77h-172q-17 0 -17 17v31q0 13 3 24l55 193q5 16 20 16h64
q17 0 13 -16zM567 374h223q10 0 13 -3t3 -12v-44q0 -16 -18 -16h-139v-52h39q130 0 130 -95v-61q0 -40 -35.5 -68t-106.5 -28t-107 28t-36 68v17q0 15 16 15h65q15 0 15 -15v-6q0 -35 47 -35q44 0 44 35v37q0 35 -45 35h-108q-17 0 -17 17v167q0 16 17 16z" />
    <glyph glyph-name="uni2159" unicode="&#x2159;" horiz-adv-x="827" 
d="M639 662l-328 -644q-13 -26 -35 -26h-65q-10 0 -13.5 9t1.5 17l329 644q13 26 36 26h64q10 0 13 -8t-2 -18zM55 662l152 22q7 1 11 -2t4 -14v-283h65q18 0 18 -16v-47q0 -16 -18 -16h-231q-16 0 -16 16v47q0 16 16 16h67v207l-68 -9q-15 -2 -15 13v48q0 16 15 18zM515 92
v190q0 41 33.5 68.5t104.5 27.5q72 0 104 -27.5t32 -68.5v-9q0 -18 -16 -18h-65q-15 0 -15 18v3q0 28 -39 28q-41 0 -41 -34v-51q26 12 53 12q64 0 95.5 -24.5t31.5 -62.5v-52q0 -41 -33 -68.5t-106 -27.5t-106 27.5t-33 68.5zM695 103v21q0 34 -41 34t-41 -32v-23
q0 -33 41 -33t41 33z" />
    <glyph glyph-name="uni215A" unicode="&#x215a;" horiz-adv-x="827" 
d="M630 662l-328 -644q-13 -26 -35 -26h-65q-10 0 -13.5 9t1.5 17l329 644q13 26 36 26h64q10 0 13 -8t-2 -18zM66 680h223q9 0 12.5 -3t3.5 -12v-44q0 -16 -18 -16h-139v-52h39q130 0 130 -95v-61q0 -40 -35.5 -68t-106.5 -28t-107 28t-36 68v17q0 15 16 15h65q15 0 15 -15
v-6q0 -35 47 -35q44 0 44 35v37q0 35 -45 35h-108q-17 0 -17 17v167q0 16 17 16zM514 92v190q0 41 33.5 68.5t104.5 27.5q72 0 104 -27.5t32 -68.5v-9q0 -18 -16 -18h-65q-15 0 -15 18v3q0 28 -39 28q-41 0 -41 -34v-51q26 12 53 12q64 0 95.5 -24.5t31.5 -62.5v-52
q0 -41 -33 -68.5t-106 -27.5t-106 27.5t-33 68.5zM694 103v21q0 34 -41 34t-41 -32v-23q0 -33 41 -33t41 33z" />
    <glyph glyph-name="uni215B" unicode="&#x215b;" horiz-adv-x="828" 
d="M639 662l-328 -644q-13 -26 -35 -26h-65q-10 0 -13.5 9t1.5 17l329 644q13 26 36 26h64q10 0 13 -8t-2 -18zM55 662l152 22q7 1 11 -2t4 -14v-283h65q18 0 18 -16v-47q0 -16 -18 -16h-231q-16 0 -16 16v47q0 16 16 16h67v207l-68 -9q-15 -2 -15 13v48q0 16 15 18z
M518 248v36q0 94 135 94q134 0 134 -94v-36q0 -37 -41 -56q48 -20 48 -57v-45q0 -41 -33.5 -67.5t-107.5 -26.5t-108 26.5t-34 67.5v45q0 38 47 57q-40 18 -40 56zM691 260v13q0 34 -38 34q-40 0 -40 -34v-13q0 -33 40 -33q38 0 38 33zM698 102v20q0 34 -45 34t-45 -34v-20
q0 -35 45 -35t45 35z" />
    <glyph glyph-name="uni215C" unicode="&#x215c;" horiz-adv-x="828" 
d="M634 662l-328 -644q-13 -26 -35 -26h-65q-10 0 -13.5 9t1.5 17l329 644q13 26 36 26h64q10 0 13 -8t-2 -18zM221 407v19q0 37 -46 37h-39q-16 0 -16 14v39q0 14 16 14h35q44 0 44 38v11q0 32 -40 32q-43 0 -43 -32v-6q0 -16 -16 -16h-64q-16 0 -16 16v16q0 42 33.5 68.5
t105.5 26.5t104.5 -25.5t32.5 -65.5v-39q0 -40 -42 -56q49 -18 49 -62v-43q0 -39 -35.5 -65t-106.5 -26t-107 27t-36 68v17q0 17 14 17h66q16 0 16 -17v-7q0 -32 46 -32q45 0 45 32zM519 248v36q0 94 135 94q134 0 134 -94v-36q0 -37 -41 -56q48 -20 48 -57v-45
q0 -41 -33.5 -67.5t-107.5 -26.5t-108 26.5t-34 67.5v45q0 38 47 57q-40 18 -40 56zM692 260v13q0 34 -38 34q-40 0 -40 -34v-13q0 -33 40 -33q38 0 38 33zM699 102v20q0 34 -45 34t-45 -34v-20q0 -35 45 -35t45 35z" />
    <glyph glyph-name="uni215D" unicode="&#x215d;" horiz-adv-x="827" 
d="M633 662l-328 -644q-13 -26 -35 -26h-65q-10 0 -13.5 9t1.5 17l329 644q13 26 36 26h64q10 0 13 -8t-2 -18zM66 680h223q9 0 12.5 -3t3.5 -12v-44q0 -16 -18 -16h-139v-52h39q130 0 130 -95v-61q0 -40 -35.5 -68t-106.5 -28t-107 28t-36 68v17q0 15 16 15h65q15 0 15 -15
v-6q0 -35 47 -35q44 0 44 35v37q0 35 -45 35h-108q-17 0 -17 17v167q0 16 17 16zM517 248v36q0 94 135 94q134 0 134 -94v-36q0 -37 -41 -56q48 -20 48 -57v-45q0 -41 -33.5 -67.5t-107.5 -26.5t-108 26.5t-34 67.5v45q0 38 47 57q-40 18 -40 56zM690 260v13q0 34 -38 34
q-40 0 -40 -34v-13q0 -33 40 -33q38 0 38 33zM697 102v20q0 34 -45 34t-45 -34v-20q0 -35 45 -35t45 35z" />
    <glyph glyph-name="uni215E" unicode="&#x215e;" horiz-adv-x="777" 
d="M578 662l-328 -644q-13 -26 -35 -26h-65q-10 0 -13.5 9t1.5 17l329 644q13 26 36 26h64q10 0 13 -8t-2 -18zM44 680h253q17 0 17 -15v-41q0 -7 -5 -17l-128 -285q-8 -16 -21 -16h-76q-18 0 -11 16l127 279h-156q-18 0 -18 17v47q0 15 18 15zM467 248v36q0 94 135 94
q134 0 134 -94v-36q0 -37 -41 -56q48 -20 48 -57v-45q0 -41 -33.5 -67.5t-107.5 -26.5t-108 26.5t-34 67.5v45q0 38 47 57q-40 18 -40 56zM640 260v13q0 34 -38 34q-40 0 -40 -34v-13q0 -33 40 -33q38 0 38 33zM647 102v20q0 34 -45 34t-45 -34v-20q0 -35 45 -35t45 35z" />
    <glyph glyph-name="uni215F" unicode="&#x215f;" horiz-adv-x="476" 
d="M634 662l-328 -644q-13 -26 -35 -26h-65q-10 0 -13.5 9t1.5 17l329 644q13 26 36 26h64q10 0 13 -8t-2 -18zM48 662l152 22q7 1 11 -2t4 -14v-283h65q18 0 18 -16v-47q0 -16 -18 -16h-231q-16 0 -16 16v47q0 16 16 16h67v207l-68 -9q-15 -2 -15 13v48q0 16 15 18z" />
    <glyph glyph-name="partialdiff" unicode="&#x2202;" horiz-adv-x="400" 
d="M85 187v273q0 13 12 15t24 -6l207 -128q10 -6 10 -17t-10 -17l-207 -128q-11 -8 -23.5 -6.5t-12.5 14.5z" />
    <glyph glyph-name="product" unicode="&#x220f;" horiz-adv-x="400" 
d="M337 196h-273q-13 0 -15 11.5t6 23.5l128 207q6 10 17 10t17 -10l128 -207q8 -11 6.5 -23t-14.5 -12z" />
    <glyph glyph-name="summation" unicode="&#x2211;" horiz-adv-x="400" 
d="M314 460v-273q0 -13 -12 -14.5t-23 6.5l-207 128q-10 6 -10 17t10 17l207 128q8 5 16 6t13.5 -2.5t5.5 -12.5z" />
    <glyph glyph-name="minus" unicode="&#x2212;" horiz-adv-x="581" 
d="M84 381h412q25 0 25 -24v-59q0 -25 -25 -25h-412q-25 0 -25 25v59q0 24 25 24z" />
    <glyph glyph-name="radical" unicode="&#x221a;" horiz-adv-x="400" 
d="M110 446h181q18 0 26 -7.5t8 -26.5v-181q0 -35 -34 -35h-181q-19 0 -27 8t-8 27v181q0 19 8 26.5t27 7.5zM291 426h-181q-16 0 -16 -14v-181q0 -16 16 -16h181q14 0 14 16v181q0 14 -14 14z" />
    <glyph glyph-name="infinity" unicode="&#x221e;" horiz-adv-x="400" 
d="M47 345l129 129q12 12 24 12t24 -12l129 -129q12 -12 12 -24t-12 -24l-129 -129q-13 -13 -24 -13t-24 13l-129 129q-13 13 -13 24t13 24zM190 460l-128 -129q-6 -6 -6 -11q0 -4 5 -9l129 -129q5 -5 10 -5t10 5l129 129q5 5 5 9q0 5 -6 11l-128 129q-4 4 -10 4t-10 -4z
" />
    <glyph glyph-name="integral" unicode="&#x222b;" horiz-adv-x="400" 
d="M23 320q0 74 51.5 126t124.5 52t125.5 -52t52.5 -126q0 -73 -52 -124.5t-126 -51.5q-73 0 -124.5 51t-51.5 125z" />
    <glyph glyph-name="approxequal" unicode="&#x2248;" horiz-adv-x="496" 
d="M442 443l-4 -41q-5 -47 -28.5 -70.5t-54.5 -23.5q-33 0 -61 14l-90 42q-20 10 -33 10q-8 0 -12.5 -5t-6 -10t-3.5 -16l-1 -6q-2 -13 -8 -17.5t-19 -4.5h-42q-24 0 -21 28l5 48q5 45 29 66.5t54 21.5q31 0 55 -11l89 -41q28 -13 41 -13q9 0 12.5 7t7.5 24l1 5q4 22 27 22
h42q24 0 21 -29zM442 254l-4 -41q-5 -47 -28.5 -70.5t-54.5 -23.5q-33 0 -61 14l-90 42q-20 10 -33 10q-8 0 -12.5 -5t-6 -10t-3.5 -16l-1 -6q-2 -13 -8 -17.5t-19 -4.5h-42q-24 0 -21 28l5 48q5 45 29 66.5t54 21.5q31 0 55 -11l89 -41q28 -13 41 -13q9 0 12.5 7t7.5 24
l1 5q4 22 27 22h42q24 0 21 -29z" />
    <glyph glyph-name="notequal" unicode="&#x2260;" horiz-adv-x="582" 
d="M274 110q-9 -25 -32 -25h-77q-25 0 -16 25l20 55h-84q-25 0 -25 25v60q0 23 25 23h124l37 97h-161q-25 0 -25 24v60q0 24 25 24h201l20 55q9 26 31 26h78q26 0 17 -26l-21 -55h86q25 0 25 -24v-60q0 -24 -25 -24h-126l-36 -97h162q25 0 25 -23v-60q0 -25 -25 -25h-202z
" />
    <glyph glyph-name="lessequal" unicode="&#x2264;" horiz-adv-x="522" 
d="M434 500l-252 -76l252 -76q25 -7 25 -27v-80q0 -14 -6.5 -20.5t-18.5 -2.5l-356 133q-8 3 -12 5t-7.5 8t-3.5 14v92q0 19 23 28l356 133q12 4 18.5 -2.5t6.5 -20.5v-80q0 -20 -25 -28zM80 176h354q14 0 19.5 -5t5.5 -18v-59q0 -24 -25 -24h-354q-25 0 -25 24v59
q0 23 25 23z" />
    <glyph glyph-name="greaterequal" unicode="&#x2265;" horiz-adv-x="522" 
d="M340 424l-251 76q-26 8 -26 28v80q0 14 7 21t19 3l356 -133q22 -8 22 -28v-93q0 -19 -22 -27l-356 -134q-13 -5 -19.5 2t-6.5 22v80q0 20 26 28zM89 177h353q25 0 25 -24v-60q0 -24 -25 -24h-353q-26 0 -26 24v60q0 24 26 24z" />
    <glyph glyph-name="lozenge" unicode="&#x25ca;" horiz-adv-x="400" 
d="M54 338l129 129q9 9 17 9t17 -9l129 -129q9 -9 9 -17t-9 -17l-129 -129q-9 -9 -17 -9t-17 9l-129 129q-9 9 -9 17t9 17z" />
    <glyph glyph-name="Omega" unicode="&#xa7b6;" horiz-adv-x="400" 
d="M64 320q0 56 40 96.5t95 40.5q56 0 96 -40.5t40 -96.5t-40 -95.5t-96 -39.5q-55 0 -95 39.5t-40 95.5zM83 320q0 -49 33.5 -82t82.5 -33q48 0 82 33.5t34 81.5t-34 82.5t-82 34.5t-82 -34.5t-34 -82.5z" />
    <glyph glyph-name="cent.denominator" unicode="&#xf629;" horiz-adv-x="317" 
d="M210 17q0 -17 -17 -17h-61q-18 0 -18 17v32q-82 14 -82 83v110q0 70 82 84v32q0 17 18 17h61q17 0 17 -17v-32q81 -16 81 -84v-7q0 -17 -18 -17h-59q-10 0 -13.5 3t-3.5 12v2q0 23 -34 23t-34 -23v-95q0 -23 34 -23t34 23v6q0 16 17 16h59q18 0 18 -16v-14q0 -67 -81 -83
v-32z" />
    <glyph glyph-name="dollar.denominator" unicode="&#xf62a;" horiz-adv-x="306" 
d="M187 0h-62q-18 0 -18 17v32q-41 7 -61 27.5t-20 44.5v9q0 14 15 14h60q15 0 15 -14v-6q0 -17 35 -17q37 0 37 16v8q0 9 -16 14l-90 31q-47 16 -47 60v14q0 59 72 75v33q0 17 18 17h62q16 0 16 -17v-33q36 -9 53 -29t17 -42v-6q0 -8 -3.5 -11.5t-12.5 -3.5h-58
q-15 0 -15 15v6q0 16 -31 16q-29 0 -29 -16v-5q0 -11 14 -16l85 -28q54 -18 54 -64v-20q0 -23 -18.5 -43t-55.5 -28v-33q0 -17 -16 -17z" />
    <glyph glyph-name="hyphen.denominator" unicode="&#xf62b;" horiz-adv-x="275" 
d="M58 196h158q18 0 18 -16v-42q0 -16 -18 -16h-158q-18 0 -18 16v42q0 16 18 16z" />
    <glyph glyph-name="parenleft.denominator" unicode="&#xf62c;" horiz-adv-x="223" 
d="M38 20v336q0 41 34.5 64t100.5 23h7q19 0 19 -15v-42q0 -18 -19 -18h-7q-34 0 -34 -22v-315q0 -23 34 -23h7q19 0 19 -17v-41q0 -17 -19 -17h-7q-66 0 -100.5 23t-34.5 64z" />
    <glyph glyph-name="parenright.denominator" unicode="&#xf62d;" horiz-adv-x="222" 
d="M84 346q0 22 -35 22h-7q-18 0 -18 18v42q0 15 18 15h7q66 0 100.5 -23t34.5 -64v-336q0 -41 -34.5 -64t-100.5 -23h-7q-18 0 -18 17v41q0 17 18 17h7q35 0 35 23v315z" />
    <glyph glyph-name="cent.numerator" unicode="&#xf62e;" horiz-adv-x="317" 
d="M210 323q0 -17 -17 -17h-61q-18 0 -18 17v32q-82 14 -82 83v110q0 70 82 84v32q0 17 18 17h61q17 0 17 -17v-32q81 -16 81 -84v-7q0 -17 -18 -17h-59q-10 0 -13.5 3t-3.5 12v2q0 23 -34 23t-34 -23v-95q0 -23 34 -23t34 23v6q0 16 17 16h59q18 0 18 -16v-14
q0 -67 -81 -83v-32z" />
    <glyph glyph-name="dollar.numerator" unicode="&#xf62f;" horiz-adv-x="306" 
d="M187 306h-62q-18 0 -18 17v32q-41 7 -61 27.5t-20 44.5v9q0 14 15 14h60q15 0 15 -14v-6q0 -17 35 -17q37 0 37 16v8q0 9 -16 14l-90 31q-47 16 -47 60v14q0 59 72 75v33q0 17 18 17h62q16 0 16 -17v-33q36 -9 53 -29t17 -42v-6q0 -8 -3.5 -11.5t-12.5 -3.5h-58
q-15 0 -15 15v6q0 16 -31 16q-29 0 -29 -16v-5q0 -11 14 -16l85 -28q54 -18 54 -64v-20q0 -23 -18.5 -43t-55.5 -28v-33q0 -17 -16 -17z" />
    <glyph glyph-name="hyphen.numerator" unicode="&#xf630;" horiz-adv-x="272" 
d="M57 502h158q18 0 18 -16v-42q0 -16 -18 -16h-158q-18 0 -18 16v42q0 16 18 16z" />
    <glyph glyph-name="parenleft.numerator" unicode="&#xf631;" horiz-adv-x="223" 
d="M38 326v336q0 41 34.5 64t100.5 23h7q19 0 19 -15v-42q0 -18 -19 -18h-7q-34 0 -34 -22v-315q0 -23 34 -23h7q19 0 19 -17v-41q0 -17 -19 -17h-7q-66 0 -100.5 23t-34.5 64z" />
    <glyph glyph-name="parenright.numerator" unicode="&#xf632;" horiz-adv-x="223" 
d="M85 652q0 22 -35 22h-7q-18 0 -18 18v42q0 15 18 15h7q66 0 100.5 -23t34.5 -64v-336q0 -41 -34.5 -64t-100.5 -23h-7q-18 0 -18 17v41q0 17 18 17h7q35 0 35 23v315z" />
    <glyph glyph-name="zero.denominator" unicode="&#xf655;" 
d="M27 95v184q0 42 34.5 70.5t108.5 28.5q73 0 108 -29t35 -70v-184q0 -41 -35 -70t-108 -29q-74 0 -108.5 28.5t-34.5 70.5zM213 110v154q0 35 -43 35q-45 0 -45 -35v-154q0 -35 45 -35q43 0 43 35z" />
    <glyph glyph-name="one.denominator" unicode="&#xf656;" 
d="M61 356l152 22q7 1 11 -2t4 -14v-283h65q18 0 18 -16v-47q0 -16 -18 -16h-231q-16 0 -16 16v47q0 16 16 16h67v207l-68 -9q-15 -2 -15 13v48q0 16 15 18z" />
    <glyph glyph-name="two.denominator" unicode="&#xf657;" 
d="M134 79h162q10 0 13 -3.5t3 -12.5v-47q0 -16 -16 -16h-245q-17 0 -17 16v91q0 45 46 64l103 42q28 11 28 33v24q0 31 -44 31t-44 -31v-19q0 -15 -16 -15h-65q-15 0 -15 15v29q0 41 35.5 69.5t106.5 28.5q72 0 106.5 -28.5t34.5 -69.5v-39q0 -62 -61 -87l-99 -40
q-16 -6 -16 -19v-16z" />
    <glyph glyph-name="three.denominator" unicode="&#xf658;" 
d="M213 101v19q0 37 -46 37h-39q-16 0 -16 14v39q0 14 16 14h35q44 0 44 38v11q0 32 -40 32q-43 0 -43 -32v-6q0 -16 -16 -16h-64q-16 0 -16 16v16q0 42 33.5 68.5t105.5 26.5t104.5 -25.5t32.5 -65.5v-39q0 -40 -42 -56q49 -18 49 -62v-43q0 -39 -35.5 -65t-106.5 -26
t-107 27t-36 68v17q0 17 14 17h66q16 0 16 -17v-7q0 -32 46 -32q45 0 45 32z" />
    <glyph glyph-name="four.denominator" unicode="&#xf659;" 
d="M172 358l-53 -189h87v189q0 16 16 16h66q16 0 16 -16v-342q0 -16 -16 -16h-66q-16 0 -16 16v77h-172q-17 0 -17 17v31q0 13 3 24l55 193q5 16 20 16h64q17 0 13 -16z" />
    <glyph glyph-name="five.denominator" unicode="&#xf65a;" 
d="M60 374h223q9 0 12.5 -3t3.5 -12v-44q0 -16 -18 -16h-139v-52h39q130 0 130 -95v-61q0 -40 -35.5 -68t-106.5 -28t-107 28t-36 68v17q0 15 16 15h65q15 0 15 -15v-6q0 -35 47 -35q44 0 44 35v37q0 35 -45 35h-108q-17 0 -17 17v167q0 16 17 16z" />
    <glyph glyph-name="six.denominator" unicode="&#xf65b;" 
d="M33 92v190q0 41 33.5 68.5t104.5 27.5q72 0 104 -27.5t32 -68.5v-9q0 -18 -16 -18h-65q-15 0 -15 18v3q0 28 -39 28q-41 0 -41 -34v-51q26 12 53 12q64 0 95.5 -24.5t31.5 -62.5v-52q0 -41 -33 -68.5t-106 -27.5t-106 27.5t-33 68.5zM213 103v21q0 34 -41 34t-41 -32v-23
q0 -33 41 -33t41 33z" />
    <glyph glyph-name="seven.denominator" unicode="&#xf65c;" 
d="M45 374h253q17 0 17 -15v-41q0 -7 -5 -17l-128 -285q-8 -16 -21 -16h-76q-18 0 -11 16l127 279h-156q-18 0 -18 17v47q0 15 18 15z" />
    <glyph glyph-name="eight.denominator" unicode="&#xf65d;" 
d="M36 248v36q0 94 135 94q134 0 134 -94v-36q0 -37 -41 -56q48 -20 48 -57v-45q0 -41 -33.5 -67.5t-107.5 -26.5t-108 26.5t-34 67.5v45q0 38 47 57q-40 18 -40 56zM209 260v13q0 34 -38 34q-40 0 -40 -34v-13q0 -33 40 -33q38 0 38 33zM216 102v20q0 34 -45 34t-45 -34
v-20q0 -35 45 -35t45 35z" />
    <glyph glyph-name="nine.denominator" unicode="&#xf65e;" 
d="M307 282v-190q0 -41 -33 -68.5t-105 -27.5t-104 27.5t-32 68.5v9q0 18 15 18h65q16 0 16 -18v-3q0 -28 40 -28q39 0 39 34v51q-24 -12 -53 -12q-64 0 -95 24.5t-31 62.5v52q0 41 33 68.5t106 27.5t106 -27.5t33 -68.5zM126 271v-21q0 -34 42 -34q40 0 40 32v23
q0 33 -40 33q-42 0 -42 -33z" />
    <glyph glyph-name="comma.denominator" unicode="&#xf65f;" horiz-adv-x="187" 
d="M51 24v39q0 17 16 17h66q17 0 17 -17v-45q0 -70 -100 -90q-16 -4 -23 12l-15 39q-7 16 13 21q26 5 26 24z" />
    <glyph glyph-name="period.denominator" unicode="&#xf660;" horiz-adv-x="172" 
d="M136 63v-46q0 -17 -18 -17h-64q-18 0 -18 17v46q0 17 18 17h64q18 0 18 -17z" />
    <glyph glyph-name="zero.numerator" unicode="&#xf661;" 
d="M27 401v184q0 42 34.5 70.5t108.5 28.5q73 0 108 -29t35 -70v-184q0 -41 -35 -70t-108 -29q-74 0 -108.5 28.5t-34.5 70.5zM213 416v154q0 35 -43 35q-45 0 -45 -35v-154q0 -35 45 -35q43 0 43 35z" />
    <glyph glyph-name="one.numerator" unicode="&#xf662;" 
d="M61 662l152 22q7 1 11 -2t4 -14v-283h65q18 0 18 -16v-47q0 -16 -18 -16h-231q-16 0 -16 16v47q0 16 16 16h67v207l-68 -9q-15 -2 -15 13v48q0 16 15 18z" />
    <glyph glyph-name="two.numerator" unicode="&#xf663;" 
d="M134 385h162q10 0 13 -3.5t3 -12.5v-47q0 -16 -16 -16h-245q-17 0 -17 16v91q0 45 46 64l103 42q28 11 28 33v24q0 31 -44 31t-44 -31v-19q0 -15 -16 -15h-65q-15 0 -15 15v29q0 41 35.5 69.5t106.5 28.5q72 0 106.5 -28.5t34.5 -69.5v-39q0 -62 -61 -87l-99 -40
q-16 -6 -16 -19v-16z" />
    <glyph glyph-name="three.numerator" unicode="&#xf664;" 
d="M213 407v19q0 37 -46 37h-39q-16 0 -16 14v39q0 14 16 14h35q44 0 44 38v11q0 32 -40 32q-43 0 -43 -32v-6q0 -16 -16 -16h-64q-16 0 -16 16v16q0 42 33.5 68.5t105.5 26.5t104.5 -25.5t32.5 -65.5v-39q0 -40 -42 -56q49 -18 49 -62v-43q0 -39 -35.5 -65t-106.5 -26
t-107 27t-36 68v17q0 17 14 17h66q16 0 16 -17v-7q0 -32 46 -32q45 0 45 32z" />
    <glyph glyph-name="four.numerator" unicode="&#xf665;" 
d="M172 664l-53 -189h87v189q0 16 16 16h66q16 0 16 -16v-342q0 -16 -16 -16h-66q-16 0 -16 16v77h-172q-17 0 -17 17v31q0 13 3 24l55 193q5 16 20 16h64q17 0 13 -16z" />
    <glyph glyph-name="five.numerator" unicode="&#xf666;" 
d="M60 680h223q9 0 12.5 -3t3.5 -12v-44q0 -16 -18 -16h-139v-52h39q130 0 130 -95v-61q0 -40 -35.5 -68t-106.5 -28t-107 28t-36 68v17q0 15 16 15h65q15 0 15 -15v-6q0 -35 47 -35q44 0 44 35v37q0 35 -45 35h-108q-17 0 -17 17v167q0 16 17 16z" />
    <glyph glyph-name="six.numerator" unicode="&#xf667;" 
d="M33 398v190q0 41 33.5 68.5t104.5 27.5q72 0 104 -27.5t32 -68.5v-9q0 -18 -16 -18h-65q-15 0 -15 18v3q0 28 -39 28q-41 0 -41 -34v-51q26 12 53 12q64 0 95.5 -24.5t31.5 -62.5v-52q0 -41 -33 -68.5t-106 -27.5t-106 27.5t-33 68.5zM213 409v21q0 34 -41 34t-41 -32
v-23q0 -33 41 -33t41 33z" />
    <glyph glyph-name="seven.numerator" unicode="&#xf668;" 
d="M45 680h253q17 0 17 -15v-41q0 -7 -5 -17l-128 -285q-8 -16 -21 -16h-76q-18 0 -11 16l127 279h-156q-18 0 -18 17v47q0 15 18 15z" />
    <glyph glyph-name="eight.numerator" unicode="&#xf669;" 
d="M36 554v36q0 94 135 94q134 0 134 -94v-36q0 -37 -41 -56q48 -20 48 -57v-45q0 -41 -33.5 -67.5t-107.5 -26.5t-108 26.5t-34 67.5v45q0 38 47 57q-40 18 -40 56zM209 566v13q0 34 -38 34q-40 0 -40 -34v-13q0 -33 40 -33q38 0 38 33zM216 408v20q0 34 -45 34t-45 -34
v-20q0 -35 45 -35t45 35z" />
    <glyph glyph-name="nine.numerator" unicode="&#xf66a;" 
d="M307 588v-190q0 -41 -33 -68.5t-105 -27.5t-104 27.5t-32 68.5v9q0 18 15 18h65q16 0 16 -18v-3q0 -28 40 -28q39 0 39 34v51q-24 -12 -53 -12q-64 0 -95 24.5t-31 62.5v52q0 41 33 68.5t106 27.5t106 -27.5t33 -68.5zM126 577v-21q0 -34 42 -34q40 0 40 32v23
q0 33 -40 33q-42 0 -42 -33z" />
    <glyph glyph-name="comma.numerator" unicode="&#xf66b;" horiz-adv-x="201" 
d="M59 330v39q0 17 16 17h66q17 0 17 -17v-45q0 -70 -100 -90q-16 -4 -23 12l-15 39q-7 16 13 21q26 5 26 24z" />
    <glyph glyph-name="period.numerator" unicode="&#xf66c;" horiz-adv-x="175" 
d="M137 369v-46q0 -17 -18 -17h-64q-18 0 -18 17v46q0 17 18 17h64q18 0 18 -17z" />
    <glyph glyph-name="commaaccent" unicode="&#xf6c3;" horiz-adv-x="290" 
d="M102 76v30q0 25 25 25h61q24 0 24 -25v-38q0 -64 -45 -133q-11 -18 -33 -13l-46 11q-25 6 -13 33q2 5 7 16t6.5 14.5t5 12t4 13.5t2 14t2 18.5t0.5 21.5z" />
    <glyph glyph-name="apple" unicode="&#xf8ff;" horiz-adv-x="1482" 
d="M69 529v8h1338v-8h-1338zM1213 332l-29 -2v4q0 20 12 20h17l-3 30q24 8 32 8q11 0 11 -8v-29h47v-3q0 -21 -12 -21h-35v-90q0 -15 16 -15q11 0 38.5 5.5t46.5 5.5q17 0 39.5 -6t22.5 -18q0 -14 -9.5 -21t-17.5 -7q-2 0 -26.5 12t-44.5 12q-7 0 -32 -4t-44 -4t-23 12.5
t-5 65.5q0 32 -1 53zM711 320q17 0 28.5 -13.5t11.5 -37.5q0 -68 -87 -68v-40l3 -32q-24 -8 -32 -8q-11 0 -11 8v75l-25 -3v-3q0 -79 -68 -79q-21 0 -31 10.5t-10 23.5q0 36 70 53v42q-17 -48 -46 -48q-28 0 -28 31v3q-19 -33 -53 -33q-29 0 -29 30v101l-29 -2v4q0 20 12 20
h17l-3 30q24 8 32 8q11 0 11 -8v-29h47v-3q0 -21 -12 -21h-35v-86q0 -16 13 -16q9 0 19 8t10 18v25l-3 33q24 8 32 8q11 0 11 -9v-66q0 -15 7 -15q8 0 17.5 17.5t8.5 30.5l-2 34q24 8 31 8q11 0 11 -9v-99l25 3v61l-3 36q24 8 32 8q11 0 11 -9v-40q17 48 47 48zM1172 258
q-16 -6 -44 -6q2 -22 26 -22q17 0 32 9q8 -5 8 -16q0 -4 -2.5 -8.5t-14 -9.5t-30.5 -5q-28 0 -44 14.5t-16 38.5q0 27 18.5 47.5t50.5 20.5q19 0 30 -9.5t11 -21.5q0 -24 -25 -32zM849 258q-16 -6 -44 -6q2 -22 26 -22q17 0 32 9q8 -5 8 -16q0 -4 -2.5 -8.5t-14 -9.5
t-30.5 -5q-28 0 -44 14.5t-16 38.5q0 27 18.5 47.5t50.5 20.5q19 0 30 -9.5t11 -21.5q0 -24 -25 -32zM150 258q-16 -6 -44 -6q2 -22 26 -22q17 0 32 9q8 -5 8 -16q0 -4 -2.5 -8.5t-14 -9.5t-30.5 -5q-28 0 -44 14.5t-16 38.5q0 27 18.5 47.5t50.5 20.5q19 0 30 -9.5
t11 -21.5q0 -24 -25 -32zM380 289v-49l3 -32q-24 -8 -31 -8q-11 0 -11 8v66q0 16 -8 16q-6 0 -16 -17.5t-10 -30.5l2 -34q-24 -8 -31 -8q-11 0 -11 8v66q0 16 -8 16q-7 0 -16.5 -17.5t-9.5 -30.5l3 -34q-24 -8 -32 -8q-11 0 -11 8v69l-3 36q24 8 32 8q11 0 11 -9v-40
q3 9 7.5 19t15 20t22.5 10q29 0 29 -32v-17q14 49 45 49q28 0 28 -32zM1071 289v-49l2 -32q-24 -8 -31 -8q-11 0 -11 8v67q0 15 -8 15q-7 0 -16.5 -17.5t-9.5 -30.5l3 -34q-24 -8 -32 -8q-11 0 -11 8v69l-3 36q24 8 32 8q11 0 11 -9v-40q17 49 45 49q29 0 29 -32zM105 264
q37 0 37 21q0 13 -13 13q-20 0 -24 -34zM1127 264q37 0 37 21q0 13 -13 13q-20 0 -24 -34zM804 264q37 0 37 21q0 13 -13 13q-20 0 -24 -34zM664 219q45 6 45 51q0 20 -13 20t-22.5 -18.5t-9.5 -29.5v-23zM914 250q11 0 18.5 -7t7.5 -17t-7.5 -16.5t-18.5 -6.5t-18 6.5
t-7 16.5t7 17t18 7zM559 194q-41 -9 -41 -32q0 -14 14 -14q25 0 27 46zM69 0v8h1338v-8h-1338z" />
    <glyph glyph-name="ff" unicode="&#xfb00;" horiz-adv-x="658" 
d="M93 496h4v59q0 70 53.5 109t160.5 39h9q25 0 25 -25v-58q0 -25 -25 -25h-9q-83 0 -83 -54v-45h175v62q0 69 54 108t161 39h9q25 0 25 -24v-58q0 -26 -25 -26h-9q-83 0 -83 -54v-47h83q25 0 25 -23v-56q0 -25 -25 -25h-83v-366q0 -26 -24 -26h-83q-25 0 -25 26v366h-175
v-366q0 -26 -23 -26h-84q-24 0 -24 26v366h-54q-25 0 -25 25v50q0 12 5.5 17t19.5 7z" />
    <glyph glyph-name="ffi" unicode="&#xfb03;" horiz-adv-x="900" 
d="M93 496h4v59q0 70 53.5 109t160.5 39h9q25 0 25 -25v-58q0 -25 -25 -25h-9q-83 0 -83 -54v-45h176v55q0 70 53.5 109t160.5 39h192q26 0 26 -25v-58q0 -25 -26 -25h-192q-83 0 -83 -54v-41h282q25 0 25 -24v-446q0 -26 -23 -26h-84q-24 0 -24 26v366h-176v-366
q0 -26 -24 -26h-83q-24 0 -24 26v366h-176v-366q0 -26 -23 -26h-84q-24 0 -24 26v366h-54q-25 0 -25 25v50q0 12 5.5 17t19.5 7z" />
    <glyph glyph-name="ffl" unicode="&#xfb04;" horiz-adv-x="900" 
d="M93 496h4v59q0 70 53.5 109t160.5 39h9q25 0 25 -25v-58q0 -25 -25 -25h-9q-83 0 -83 -54v-45h175v55q0 70 54 109t161 39h198q26 0 26 -25v-648q0 -26 -24 -26h-83q-24 0 -24 26v565h-93q-83 0 -83 -54v-41h83q25 0 25 -23v-56q0 -25 -25 -25h-83v-366q0 -26 -24 -26
h-83q-25 0 -25 26v366h-175v-366q0 -26 -24 -26h-83q-24 0 -24 26v366h-54q-25 0 -25 25v50q0 12 5.5 17t19.5 7z" />
    <glyph glyph-name="zero.tab" unicode="&#xff10;" horiz-adv-x="562" 
d="M47 155v370q0 71 56 117t177 46q122 0 178 -46.5t56 -116.5v-370q0 -70 -56 -116.5t-178 -46.5q-121 0 -177 46t-56 117zM378 179v322q0 75 -98 75q-97 0 -97 -75v-322q0 -75 97 -75q98 0 98 75z" />
    <glyph glyph-name="one.tab" unicode="&#xff11;" horiz-adv-x="562" 
d="M95 642l247 45q10 2 17 -3t7 -21v-551h131q25 0 25 -24v-63q0 -25 -25 -25h-402q-25 0 -25 25v63q0 24 25 24h136v441l-136 -25q-25 -5 -25 21v66q0 22 25 27z" />
    <glyph glyph-name="two.tab" unicode="&#xff12;" horiz-adv-x="562" 
d="M197 112h290q25 0 25 -24v-63q0 -25 -25 -25h-400q-25 0 -25 25v163q0 49 21 74.5t58 40.5l193 81q40 16 40 58v61q0 75 -98 75q-96 0 -96 -75v-39q0 -25 -24 -25h-83q-25 0 -25 25v61q0 71 53.5 117t174.5 46q122 0 177 -46t55 -117v-79q0 -113 -95 -152l-169 -70
q-27 -12 -37 -22t-10 -34v-56z" />
    <glyph glyph-name="three.tab" unicode="&#xff13;" horiz-adv-x="562" 
d="M200 404h68q98 0 98 74v28q0 38 -21.5 56t-70.5 18q-93 0 -93 -74v-13q0 -25 -24 -25h-83q-24 0 -24 25v32q0 163 226 163q223 0 223 -159v-71q0 -40 -17.5 -65t-58.5 -39q84 -31 84 -114v-89q0 -70 -53 -114.5t-176 -44.5q-124 0 -178 46t-54 117v32q0 25 23 25h84
q24 0 24 -25v-13q0 -74 99 -74t99 74v49q0 73 -98 73h-77q-25 0 -25 25v59q0 24 25 24z" />
    <glyph glyph-name="four.tab" unicode="&#xff14;" horiz-adv-x="562" 
d="M282 654l-113 -357h190v357q0 26 25 26h87q24 0 24 -26v-628q0 -26 -24 -26h-87q-25 0 -25 26v159h-304q-26 0 -26 24v54q0 15 6 33l111 358q8 26 31 26h87q26 0 18 -26z" />
    <glyph glyph-name="five.tab" unicode="&#xff15;" horiz-adv-x="562" 
d="M98 680h366q25 0 25 -24v-63q0 -25 -25 -25h-254v-131h67q121 0 177 -44.5t56 -114.5v-124q0 -72 -53.5 -117.5t-177.5 -45.5t-177.5 45.5t-53.5 117.5v32q0 25 24 25h83q24 0 24 -25v-12q0 -75 98 -75q97 0 97 75v85q0 70 -98 70h-178q-24 0 -24 26v299q0 26 24 26z" />
    <glyph glyph-name="six.tab" unicode="&#xff16;" horiz-adv-x="562" 
d="M58 155v371q0 70 52.5 116t172.5 46q121 0 171.5 -46t50.5 -116v-26q0 -25 -24 -25h-83q-24 0 -24 25v7q0 73 -91 73t-91 -73v-122q43 31 111 31q107 0 158 -47t51 -117v-97q0 -71 -53 -117t-174 -46t-174 46t-53 117zM379 175v58q0 74 -94 74q-93 0 -93 -68v-64
q0 -75 93 -75q94 0 94 75z" />
    <glyph glyph-name="seven.tab" unicode="&#xff17;" horiz-adv-x="562" 
d="M63 680h435q25 0 25 -24v-62q0 -9 -5 -19l-243 -549q-11 -26 -31 -26h-99q-29 0 -17 26l242 542h-307q-25 0 -25 25v63q0 24 25 24z" />
    <glyph glyph-name="eight.tab" unicode="&#xff18;" horiz-adv-x="562" 
d="M65 459v66q0 163 215 163q216 0 216 -163v-66q0 -76 -75 -106q86 -31 86 -107v-91q0 -71 -53 -117t-174 -46t-173.5 46t-52.5 117v91q0 76 86 107q-75 30 -75 106zM365 480v25q0 39 -19.5 57t-65.5 18t-64.5 -18t-18.5 -57v-25q0 -39 18.5 -57t64.5 -18t65.5 18t19.5 57z
M374 175v50q0 38 -22.5 55.5t-71.5 17.5q-48 0 -70 -17.5t-22 -55.5v-50q0 -75 92 -75q94 0 94 75z" />
    <glyph glyph-name="nine.tab" unicode="&#xff19;" horiz-adv-x="562" 
d="M504 525v-371q0 -70 -52.5 -116t-172.5 -46t-171 46t-51 116v26q0 25 25 25h83q23 0 23 -25v-7q0 -73 91 -73t91 73v121q-42 -30 -111 -30q-107 0 -158 47t-51 117v97q0 71 53 117t175 46q121 0 173.5 -46t52.5 -117zM370 506q0 74 -92 74q-95 0 -95 -75v-58
q0 -74 95 -74q92 0 92 73v60z" />
    <glyph glyph-name="Lgeminada" horiz-adv-x="930" 
d="M205 654v-542h223q25 0 25 -24v-63q0 -25 -25 -25h-337q-21 0 -21 26v628q0 26 24 26h87q24 0 24 -26zM670 654v-542h223q25 0 25 -24v-63q0 -25 -25 -25h-337q-21 0 -21 26v628q0 26 24 26h87q24 0 24 -26zM437 393v-81q0 -25 -24 -25h-85q-25 0 -25 25v81q0 25 25 25
h85q24 0 24 -25z" />
    <glyph glyph-name="lgeminada" horiz-adv-x="618" 
d="M189 673v-647q0 -26 -24 -26h-83q-24 0 -24 26v647q0 26 24 26h83q24 0 24 -26zM560 673v-647q0 -26 -24 -26h-83q-24 0 -24 26v647q0 26 24 26h83q24 0 24 -26zM376 393v-81q0 -25 -24 -25h-85q-25 0 -25 25v81q0 25 25 25h85q24 0 24 -25z" />
    <glyph glyph-name="acute.case" horiz-adv-x="194" 
d="M196 853l-73 -106q-11 -16 -32 -16h-64q-26 0 -14 24l49 98q12 25 34 25h87q13 0 17 -7t-4 -18z" />
    <glyph glyph-name="grave.case" horiz-adv-x="194" 
d="M79 747l-72 105q-8 11 -4 18.5t17 7.5h87q22 0 34 -25l48 -98q13 -25 -12 -25h-65q-20 0 -33 17z" />
    <glyph glyph-name="hungarumlaut.case" horiz-adv-x="194" 
d="M259 853l-69 -99q-17 -23 -37 -23h-61q-27 0 -13 24l56 98q14 25 38 25h74q13 0 16.5 -7t-4.5 -18zM98 853l-54 -98q-13 -24 -33 -24h-61q-27 0 -17 24l42 98q11 25 34 25h72q13 0 18 -7t-1 -18z" />
    <glyph glyph-name="circumflex.case" horiz-adv-x="194" 
d="M97 800l-25 -45q-13 -24 -35 -24h-63q-13 0 -16.5 6.5t3.5 17.5l73 98q18 25 39 25h48q21 0 39 -25l73 -98q8 -11 4 -17.5t-17 -6.5h-64q-21 0 -34 24z" />
    <glyph glyph-name="caron.case" horiz-adv-x="194" 
d="M72 853l25 -44l25 44q15 25 34 25h64q13 0 17 -7t-4 -18l-73 -98q-17 -24 -39 -24h-48q-19 0 -39 25l-73 97q-7 11 -3.5 18t16.5 7h63q20 0 35 -25z" />
    <glyph glyph-name="breve.case" horiz-adv-x="194" 
d="M52 863v-17q0 -43 46 -43q45 0 45 43v17q0 12 4.5 16.5t17.5 4.5h49q22 0 22 -21v-14q0 -59 -36.5 -91.5t-105.5 -32.5q-136 0 -136 124v14q0 21 22 21h50q22 0 22 -21z" />
    <glyph glyph-name="tilde.case" horiz-adv-x="194" 
d="M157 833q20 0 20 24v6q0 22 27 22h43q23 0 21 -29l-3 -39q-3 -38 -26.5 -58t-56.5 -20t-64 13l-43 19q-32 15 -38 15q-19 0 -19 -25v-5q0 -22 -27 -22h-43q-24 0 -21 29l4 41q4 37 28.5 57.5t59.5 20.5q30 0 58 -13l43 -21q30 -15 37 -15z" />
    <glyph glyph-name="macron.case" horiz-adv-x="194" 
d="M-18 849h231q25 0 25 -23v-51q0 -25 -25 -25h-231q-25 0 -25 25v51q0 23 25 23z" />
    <glyph glyph-name="dieresis.case" horiz-adv-x="194" 
d="M75 850v-93q0 -14 -5 -19.5t-18 -5.5h-49q-24 0 -24 25v93q0 26 24 26h49q23 0 23 -26zM215 850v-93q0 -25 -23 -25h-49q-24 0 -24 25v93q0 26 24 26h49q23 0 23 -26z" />
    <glyph glyph-name="dotaccent.case" horiz-adv-x="194" 
d="M164 839v-82q0 -13 -5 -18.5t-19 -5.5h-85q-13 0 -18.5 5.5t-5.5 18.5v82q0 25 24 25h85q24 0 24 -25z" />
    <glyph glyph-name="ring.case" horiz-adv-x="194" 
d="M209 821v-29q0 -33 -28.5 -55.5t-83.5 -22.5t-83.5 22.5t-28.5 55.5v29q0 33 28.5 55.5t83.5 22.5t83.5 -22.5t28.5 -55.5zM137 801v12q0 30 -40 30t-40 -30v-12q0 -31 40 -31t40 31z" />
    </font>
</defs>
</svg>
